<?xml version="1.0" standalone="no"?>
<!DOCTYPE svg PUBLIC "-//W3C//DTD SVG 1.1//EN" "http://www.w3.org/Graphics/SVG/1.1/DTD/svg11.dtd" >
<svg xmlns="http://www.w3.org/2000/svg" xmlns:xlink="http://www.w3.org/1999/xlink" version="1.1">
<metadata>
Created by FontForge 20190801 at Thu Aug  6 15:23:38 2015
 By Jimmy Wärting
Copyright (c) 2011-2013 by Greg Shutters &#38; Typetanic Fonts. All rights reserved.
</metadata>
<defs>
<font id="TransatBold" horiz-adv-x="1402" >
  <font-face 
    font-family="Transat Standard"
    font-weight="700"
    font-stretch="normal"
    units-per-em="2048"
    panose-1="2 11 8 3 4 6 3 2 2 2"
    ascent="1485"
    descent="-563"
    x-height="852"
    cap-height="1438"
    bbox="-102 -541 1972 1837"
    underline-thickness="196"
    underline-position="-1272"
    unicode-range="U+0020-FB04"
  />
<missing-glyph horiz-adv-x="748" 
d="M68 0v1365h544v-1365h-544zM136 68h408v1229h-408v-1229z" />
    <glyph glyph-name="uniFB01" unicode="fi" horiz-adv-x="1155" 
d="M39 649v25l24 178h105v260q0 88 25 156.5t66.5 108t92.5 64t106 31t102.5 2.5t86.5 -16l-31 -211q-69 17 -128 -26t-58 -140v-229h201v-203h-201v-649h-262v649h-129zM739 1206q0 70 51.5 122t120.5 52q71 0 122.5 -52t51.5 -122q0 -71 -51.5 -120.5t-122.5 -49.5
q-70 0 -121 49.5t-51 120.5zM782 0v852h260v-852h-260z" />
    <glyph glyph-name="uniFB02" unicode="fl" horiz-adv-x="1191" 
d="M39 649v25l24 178h105v260q0 88 25 156.5t66.5 108t92.5 64t106 31t102.5 2.5t86.5 -16l-31 -211q-69 17 -128 -26t-58 -140v-229h201v-203h-201v-649h-262v649h-129zM807 0v1438l237 24h23v-1462h-260z" />
    <glyph glyph-name="uniFB03" unicode="ffi" horiz-adv-x="1763" 
d="M37 649v25q3 13 26 178h105v182q0 87 22 155.5t57 110.5t83 69.5t96.5 38.5t101.5 11q63 0 119 -16l-31 -213q-12 4 -38 4q-63 0 -106.5 -43t-43.5 -127v-172h348v235q0 87 21.5 155.5t56 111.5t82 71t96.5 39t103 11q61 0 120 -17l-32 -211q-24 4 -37 4
q-63 0 -106.5 -43t-43.5 -127v-229h203v-205h-203v-647h-260v647h-348v-647h-260v647zM1348 1206q0 70 51.5 122t120.5 52q70 0 122 -52t52 -122q0 -71 -51.5 -120.5t-122.5 -49.5q-70 0 -121 49.5t-51 120.5zM1391 0v852h260v-852h-260z" />
    <glyph glyph-name="uniFB04" unicode="ffl" horiz-adv-x="1800" 
d="M37 649v25q3 13 26 178h105v182q0 87 22 155.5t57 110.5t83 69.5t96.5 38.5t101.5 11q63 0 119 -16l-31 -213q-12 4 -38 4q-63 0 -106.5 -43t-43.5 -127v-172h348v235q0 87 21.5 155.5t56 111.5t82 71t96.5 39t103 11q61 0 120 -17l-32 -211q-24 4 -37 4
q-63 0 -106.5 -43t-43.5 -127v-229h203v-205h-203v-647h-260v647h-348v-647h-260v647zM1413 0v1438l238 24h22v-1462h-260z" />
    <glyph glyph-name=".notdef" horiz-adv-x="748" 
d="M68 0v1365h544v-1365h-544zM136 68h408v1229h-408v-1229z" />
    <glyph glyph-name="glyph1" horiz-adv-x="0" 
 />
    <glyph glyph-name="glyph2" horiz-adv-x="682" 
 />
    <glyph glyph-name="space" unicode=" " horiz-adv-x="501" 
 />
    <glyph glyph-name="exclam" unicode="!" horiz-adv-x="659" 
d="M135 1333h387l-121 -878h-143zM158 152q0 69 50.5 120.5t119.5 51.5q72 0 123 -51t51 -121q0 -74 -50.5 -123t-123.5 -49q-70 0 -120 49t-50 123z" />
    <glyph glyph-name="quotedbl" unicode="&#x22;" horiz-adv-x="907" 
d="M76 1438h332l-115 -690h-103zM498 1438h331l-114 -690h-103z" />
    <glyph glyph-name="numbersign" unicode="#" horiz-adv-x="1316" 
d="M66 297v229h229l70 297h-187v230h238l65 280h226l-64 -280h205l65 280h226l-64 -280h174v-230h-223l-68 -297h181v-229h-230q-27 -136 -65 -297h-238l70 297h-197l-67 -297h-238l70 297h-178zM526 526h203l70 297h-203z" />
    <glyph glyph-name="dollar" unicode="$" horiz-adv-x="1024" 
d="M92 90l103 205q50 -28 80.5 -42.5t81 -27t106.5 -12.5q89 0 139.5 40t50.5 103q0 35 -10 61t-44.5 55.5t-57.5 45t-90 56.5q-6 4 -9.5 6t-9 5.5t-10.5 6.5q-124 74 -164 106q-122 95 -142 232q-5 32 -5 67q0 54 18.5 109t53 104.5t92 86t128.5 49.5v266h218v-264
q67 -9 136.5 -30.5t108.5 -45.5l-75 -211q-121 57 -230 57q-82 0 -128 -39t-46 -100q0 -14 3.5 -26t8 -22t17 -21.5t21 -19t29 -20.5t33 -20.5t41.5 -25t46 -27.5q139 -80 215.5 -151.5t103.5 -138.5t25 -155q-4 -143 -87.5 -240t-215.5 -132v-256h-217v247
q-205 21 -318 119z" />
    <glyph glyph-name="percent" unicode="%" horiz-adv-x="1511" 
d="M53 1040q0 136 98.5 227t231.5 91q131 0 226.5 -91t95.5 -227q0 -138 -96.5 -229.5t-227.5 -91.5q-133 0 -230.5 91.5t-97.5 229.5zM133 94l1065 1270l160 -135l-1063 -1262zM270 1040q0 -65 30 -106t83 -41q54 0 82.5 40.5t28.5 106.5q0 67 -29 106.5t-84 39.5
q-52 0 -81.5 -40t-29.5 -106zM807 299q0 137 98 228t230 91t227.5 -90.5t95.5 -228.5q0 -137 -96.5 -228t-228.5 -91q-131 0 -228.5 91.5t-97.5 227.5zM1022 299q0 -64 31 -104.5t84 -40.5t80.5 39.5t27.5 105.5q0 67 -27.5 107t-82.5 40q-52 0 -82.5 -41t-30.5 -106z" />
    <glyph glyph-name="ampersand" unicode="&#x26;" horiz-adv-x="1345" 
d="M79.5 430.5q15.5 74.5 57 140.5t103.5 117l100 86l-23 35q-23 38 -33 59.5t-19 64t-7 95.5q3 145 111 238.5t260 93.5q144 0 249.5 -85.5t135.5 -213.5l-217 -80q-24 66 -64.5 103.5t-91.5 37.5q-55 0 -89.5 -29.5t-41.5 -84.5q-3 -32 9 -63.5t26.5 -50.5t48.5 -60
l285 -359l223 201l160 -174l-234 -211l229 -289l-317 -2l-96 127l-86 -68q-52 -38 -130 -60t-162.5 -22t-168.5 36t-137 106q-57 74 -76.5 155.5t-4 156zM324.5 383.5q-5.5 -67.5 40.5 -121.5q44 -54 118.5 -52.5t143.5 58.5l61 49l-211 261l-88 -76q-59 -51 -64.5 -118.5z
" />
    <glyph glyph-name="quotesingle" unicode="'" horiz-adv-x="485" 
d="M76 1438h332l-115 -690h-103z" />
    <glyph glyph-name="parenleft" unicode="(" horiz-adv-x="874" 
d="M133 610q0 272 139.5 512.5t386.5 388.5l140 -168q-373 -301 -373 -733q0 -127 32 -247.5t87 -216.5t118.5 -172t135.5 -134l-140 -168q-248 158 -387 409.5t-139 528.5z" />
    <glyph glyph-name="parenright" unicode=")" horiz-adv-x="874" 
d="M76 -160q72 58 135.5 134t118.5 172t87 216.5t32 247.5q0 432 -373 733l139 168q247 -148 386.5 -388.5t139.5 -512.5q0 -277 -139 -528.5t-387 -409.5z" />
    <glyph glyph-name="asterisk" unicode="*" horiz-adv-x="886" 
d="M92 1184l94 162l195 -142l-29 234h185l-29 -234l194 142l93 -162l-224 -97l224 -94l-95 -159l-192 141l29 -234h-185l27 234l-193 -141l-92 159l217 97z" />
    <glyph glyph-name="plus" unicode="+" horiz-adv-x="997" 
d="M72 588v229h313v313h229v-313h312v-229h-312v-314h-229v314h-313z" />
    <glyph glyph-name="comma" unicode="," horiz-adv-x="571" 
d="M84 -324l72 637h301l2 -37l-285 -622z" />
    <glyph glyph-name="hyphen" unicode="-" horiz-adv-x="727" 
d="M72 303v240l583 90v-240z" />
    <glyph glyph-name="period" unicode="." horiz-adv-x="571" 
d="M113 152q0 69 51 120.5t121 51.5q71 0 122.5 -51t51.5 -121q0 -74 -50.5 -123t-123.5 -49q-72 0 -122 49t-50 123z" />
    <glyph glyph-name="slash" unicode="/" horiz-adv-x="966" 
d="M-45 -266l772 1798l203 -94l-772 -1798z" />
    <glyph glyph-name="zero" unicode="0" horiz-adv-x="1275" 
d="M59 670q0 199 73 356.5t205.5 246.5t301.5 89q168 0 300.5 -89t205 -246.5t72.5 -356.5t-72.5 -358t-205 -250t-300.5 -91t-301 91t-206 250t-73 358zM348 670q0 -218 82 -342.5t209 -124.5q126 0 205.5 124t79.5 343q0 220 -79 341.5t-206 121.5q-128 0 -209.5 -122
t-81.5 -341z" />
    <glyph glyph-name="one" unicode="1" horiz-adv-x="772" 
d="M59 1106l484 242h43v-1348h-271v938l-147 -70z" />
    <glyph glyph-name="two" unicode="2" horiz-adv-x="1105" 
d="M20 41q60 58 143.5 138.5t134 129.5t116 114t104 107.5t80.5 94.5t64 91t36.5 80t14.5 78q0 121 -72.5 183.5t-169.5 62.5q-73 0 -141.5 -35.5t-100.5 -80.5h-34l-127 165q60 80 180 135.5t266 55.5q67 0 133 -17t128 -55t109.5 -91.5t76 -132t28.5 -171.5
q1 -84 -20 -156.5t-77.5 -154.5t-122 -155.5t-185.5 -193.5h438v-233h-983z" />
    <glyph glyph-name="three" unicode="3" horiz-adv-x="1093" 
d="M66 61l73 209l33 2q130 -77 272 -77q75 0 140.5 23t112 76.5t46.5 129.5q0 123 -122 186.5t-314 18.5l-31 45l304 426h-459v233h856l18 -35l-346 -493q59 -1 121 -26.5t117 -72.5t90 -122.5t35 -165.5q0 -138 -68 -240.5t-185 -154.5t-267 -52q-110 0 -192.5 13.5
t-123 28.5t-110.5 48z" />
    <glyph glyph-name="four" unicode="4" horiz-adv-x="1245" 
d="M10 254l887 1096l94 -21v-919h180v-222h-180v-188h-276v188h-649zM436 410h279v360z" />
    <glyph glyph-name="five" unicode="5" horiz-adv-x="1101" 
d="M66 66l71 206h35q107 -75 283 -75q117 0 202.5 63.5t85.5 175.5t-79.5 169t-194.5 57q-138 0 -274 -99l-64 19l74 751h741v-233h-508l-26 -269q60 18 155 20t185 -26q53 -19 98.5 -51t84 -78.5t60.5 -114t23 -147.5q1 -90 -32.5 -172t-97.5 -147.5t-168.5 -104.5
t-234.5 -39q-270 0 -419 95z" />
    <glyph glyph-name="six" unicode="6" horiz-adv-x="1132" 
d="M66 492q0 134 30.5 251t82 203t121 157t145 117t156.5 78t153.5 46.5t138.5 15.5l53 -207l-24 -31q-193 -6 -345.5 -117t-189.5 -270q90 105 275 105q168 0 285.5 -118.5t117.5 -295.5q0 -194 -135.5 -324.5t-354.5 -130.5q-148 0 -262 61.5t-180 180.5t-67 279zM348 414
q0 -91 65.5 -154t157.5 -63q95 0 158.5 62.5t63.5 154.5q0 94 -65 158.5t-157 64.5q-95 0 -159 -64.5t-64 -158.5z" />
    <glyph glyph-name="seven" unicode="7" horiz-adv-x="1048" 
d="M70 1100v233h929l23 -37l-547 -1296h-311l485 1100h-579z" />
    <glyph glyph-name="eight" unicode="8" horiz-adv-x="1146" 
d="M59 401q0 117 69.5 211.5t160.5 122.5q-61 47 -99 108t-38 156q0 152 116.5 256.5t306.5 104.5q187 0 303.5 -104.5t116.5 -256.5q0 -66 -23 -120.5t-49 -83t-65 -58.5q91 -28 161.5 -124t70.5 -212q0 -186 -143 -308t-376 -122q-229 0 -370.5 122t-141.5 308zM338 410
q0 -96 70 -152.5t167 -56.5q98 0 167 56.5t69 152.5q0 95 -71 150.5t-169 55.5q-100 0 -166.5 -55t-66.5 -151zM399 971q0 -74 52.5 -120t123.5 -46q72 0 123.5 46t51.5 120q0 77 -54 120.5t-123 43.5q-73 0 -123.5 -44t-50.5 -120z" />
    <glyph glyph-name="nine" unicode="9" horiz-adv-x="1132" 
d="M66 905q0 194 136 324.5t355 130.5q148 0 262 -61.5t179.5 -180t66.5 -278.5q0 -134 -30.5 -251t-81.5 -203.5t-120.5 -157t-144.5 -117t-156.5 -78.5t-153.5 -46.5t-138 -15.5l-54 207l23 31q194 6 346.5 117t187.5 270q-86 -104 -272 -104q-168 0 -286.5 118.5
t-118.5 294.5zM338 918q0 -94 65.5 -159t157.5 -65q95 0 159 65t64 159q0 91 -66 154t-159 63q-94 0 -157.5 -62.5t-63.5 -154.5z" />
    <glyph glyph-name="colon" unicode=":" horiz-adv-x="571" 
d="M113 152q0 69 51 120.5t121 51.5q71 0 122.5 -51t51.5 -121q0 -74 -50.5 -123t-123.5 -49q-72 0 -122 49t-50 123zM113 707q0 69 51 120.5t121 51.5q71 0 122.5 -51.5t51.5 -120.5q0 -74 -50.5 -123t-123.5 -49q-72 0 -122 49t-50 123z" />
    <glyph glyph-name="semicolon" unicode=";" horiz-adv-x="579" 
d="M80 -324l72 637h301l2 -37l-285 -622zM121 707q0 69 51 120.5t121 51.5q71 0 122.5 -51.5t51.5 -120.5q0 -74 -50.5 -123t-123.5 -49q-72 0 -122 49t-50 123z" />
    <glyph glyph-name="less" unicode="&#x3c;" horiz-adv-x="1091" 
d="M59 670v49l928 467v-273l-436 -217l436 -221v-272z" />
    <glyph glyph-name="equal" unicode="=" horiz-adv-x="1011" 
d="M72 399v228h868v-228h-868zM72 776v230h868v-230h-868z" />
    <glyph glyph-name="greater" unicode="&#x3e;" horiz-adv-x="1091" 
d="M104 203v272l437 221l-437 217v273l928 -467v-49z" />
    <glyph glyph-name="question" unicode="?" horiz-adv-x="872" 
d="M41 1223q22 20 50.5 39.5t73.5 43.5t105.5 39t124.5 15q105 0 196.5 -38.5t150.5 -115t59 -176.5q0 -66 -17 -120.5t-44.5 -92.5t-61 -70.5t-67 -62.5t-61 -62t-44.5 -75t-17 -94h-215q-8 36 -8 75q0 65 25 120.5t60.5 94.5t71 73.5t60.5 72.5t25 76q0 67 -42.5 104
t-111.5 37q-50 0 -101 -26t-81 -54zM217 150q0 71 50.5 122.5t119.5 51.5q72 0 123 -51.5t51 -122.5q0 -73 -50.5 -121.5t-123.5 -48.5q-70 0 -120 49t-50 121z" />
    <glyph glyph-name="at" unicode="@" horiz-adv-x="1746" 
d="M51 633q0 167 61.5 319t168 265t260.5 180t329 67q168 0 322 -62t264 -165t175 -240.5t65 -283.5q0 -222 -107 -351t-274 -129q-81 0 -157.5 39t-88.5 90q-38 -56 -105.5 -92t-156.5 -37q-100 -2 -181.5 47.5t-126 143.5t-34.5 213q7 99 52 183t130 139.5t193 58.5
q82 1 148 -36.5t95 -96.5l78 94h123l-78 -412q-12 -74 23.5 -119t111.5 -45q89 0 146 80t57 230q0 111 -51.5 221t-139.5 197t-215.5 141.5t-267.5 54.5q-142 0 -265.5 -56t-208.5 -151t-134 -221.5t-49 -265.5q0 -140 48.5 -264.5t134.5 -217t213 -146.5t276 -54
q256 0 473 119l53 -119q-226 -137 -526 -137q-183 0 -340.5 65t-265 176t-168 261t-60.5 317zM686 631q-9 -88 31.5 -144t113.5 -55q69 0 115.5 58t54.5 145q8 82 -30 137.5t-107 54.5q-74 -3 -121.5 -53.5t-56.5 -142.5z" />
    <glyph glyph-name="A" unicode="A" 
d="M-2 0l682 1452h49l676 -1452h-305l-107 233h-581l-107 -233h-307zM508 461h387l-193 448z" />
    <glyph glyph-name="B" unicode="B" horiz-adv-x="1198" 
d="M154 2v1423q186 31 315 31q89 0 165 -11t148.5 -38.5t123 -71t81.5 -112.5t31 -158q0 -90 -42.5 -164t-88.5 -106q59 -17 114 -61.5t96.5 -126t41.5 -179.5q0 -75 -25 -129q-76 -319 -637 -319q-136 0 -323 22zM432 238q8 0 49.5 -3.5t63.5 -3.5q65 0 119 12t97.5 37.5
t68 68.5t24.5 100q0 71 -49 135t-127 78h-246v-424zM432 874h195q47 14 81.5 59t34.5 105q0 41 -13 72.5t-33.5 51.5t-49 32.5t-57.5 17.5t-62 5q-35 0 -96 -9v-334z" />
    <glyph glyph-name="C" unicode="C" horiz-adv-x="1441" 
d="M59 723q0 165 63.5 306.5t169 236t243.5 147.5t288 53q319 0 555 -215l-168 -200q-27 27 -59.5 52t-81.5 53.5t-112 45.5t-130 17q-131 0 -239.5 -66.5t-170 -180.5t-61.5 -249q0 -134 58 -247t169.5 -183t254.5 -70q113 0 213.5 45t167.5 109l163 -184
q-43 -45 -89 -79.5t-114 -69.5t-162 -54t-206 -19q-157 0 -296 57.5t-239 157t-158.5 239t-58.5 298.5z" />
    <glyph glyph-name="D" unicode="D" horiz-adv-x="1427" 
d="M154 0v1430q156 26 294 28h33q117 0 211 -16q107 -18 198.5 -51t158.5 -78t120 -101.5t87 -116.5t56.5 -126t32 -127t9.5 -123q0 -60 -10 -119.5t-32 -124.5t-57.5 -123.5t-87.5 -115.5t-121 -101.5t-158 -81t-199 -53.5q-109 -17 -243 -20h-32q-120 0 -260 20zM432 246
q41 -3 82 -3q22 0 42 1q62 2 124 18.5t117.5 40t103.5 64t83 90t55 117.5t20 147q-1 241 -171 374q-137 107 -349 107q-51 0 -107 -6v-950z" />
    <glyph glyph-name="E" unicode="E" horiz-adv-x="1112" 
d="M154 0v1438h829v-234h-553v-289h447v-233h-447v-449h576v-233h-852z" />
    <glyph glyph-name="F" unicode="F" horiz-adv-x="1062" 
d="M154 0v1438h815v-234h-539v-289h430v-233h-430v-682h-276z" />
    <glyph glyph-name="G" unicode="G" horiz-adv-x="1531" 
d="M57 723q0 161 62.5 301t167 236t242 151t286.5 55q103 0 193.5 -19.5t160 -55t115.5 -68t92 -74.5q-30 -36 -89.5 -101.5t-82.5 -92.5q-32 31 -61 53.5t-77 51t-109 44t-130 15.5q-196 0 -333.5 -143t-137.5 -347q0 -229 137.5 -369.5t360.5 -140.5q84 0 175 31t140 72
v163h-223v232h492v-500q-133 -136 -278.5 -191t-317.5 -55q-174 0 -322 58.5t-249 160t-157.5 239t-56.5 294.5z" />
    <glyph glyph-name="H" unicode="H" horiz-adv-x="1366" 
d="M154 0v1438h276v-523h506v523h276v-1438h-276v682h-506v-682h-276z" />
    <glyph glyph-name="I" unicode="I" horiz-adv-x="583" 
d="M154 0v1438h276v-1438h-276z" />
    <glyph glyph-name="J" unicode="J" horiz-adv-x="882" 
d="M96 -4v231q24 -2 46 -2q131 0 205 60q87 70 87 219v934h277v-942q0 -271 -162 -403q-128 -104 -337 -104q-55 0 -116 7z" />
    <glyph glyph-name="K" unicode="K" horiz-adv-x="1314" 
d="M154 0v1438h278v-594l492 594h319l-541 -668l594 -770h-352l-512 678v-678h-278z" />
    <glyph glyph-name="L" unicode="L" horiz-adv-x="1034" 
d="M154 0v1438h276v-1205h545v-233h-821z" />
    <glyph glyph-name="M" unicode="M" horiz-adv-x="1574" 
d="M154 0v1442l41 10l596 -543l589 543l41 -10v-1442h-272v883l-348 -328h-25l-348 328v-883h-274z" />
    <glyph glyph-name="N" unicode="N" horiz-adv-x="1400" 
d="M154 0v1440l36 12l785 -545v531h272v-1438h-272v580l-553 372v-952h-268z" />
    <glyph glyph-name="O" unicode="O" horiz-adv-x="1642" 
d="M59 719q0 153 56 290t155 238t242 160t309 59q164 0 307 -59t243 -159.5t157 -238t57 -290.5t-57 -290.5t-157 -238.5t-243 -160t-307 -59q-166 0 -309 59t-242 160t-155 238.5t-56 290.5zM356 719q0 -111 38 -205.5t102 -157.5t148.5 -98t176.5 -35t176 35t149 98
t103.5 157.5t38.5 205.5t-38.5 206t-103.5 158.5t-149.5 99.5t-175.5 36q-92 0 -176.5 -36t-148.5 -99.5t-102 -158.5t-38 -206z" />
    <glyph glyph-name="P" unicode="P" horiz-adv-x="1150" 
d="M154 0v1425q159 31 294 31q112 0 208 -22q210 -48 327 -180t117 -318q0 -167 -91 -294t-243 -191q-143 -60 -314 -60h-22v-391h-276zM430 637q21 -1 41 -1q157 0 245 76q98 86 99 224q0 58 -24 109.5t-70 91.5q-45 40 -121 57q-43 10 -92 10q-37 0 -78 -6v-561z" />
    <glyph glyph-name="Q" unicode="Q" horiz-adv-x="1640" 
d="M57 717q0 154 56.5 291.5t155.5 238.5t242 160t308 59t308.5 -59t242.5 -160t156 -238.5t57 -291.5q0 -156 -60 -292.5t-167 -234.5l143 -159q-22 -21 -86 -79t-96 -91l-162 182q-157 -72 -336 -72q-165 0 -308 59t-242 160t-155.5 238t-56.5 289zM354 717
q0 -111 38 -205.5t102 -157.5t148.5 -98t176.5 -35q76 0 146 25q-64 69 -152 168l180 164l168 -183q125 125 125 322q0 111 -38.5 206.5t-103.5 159.5t-149.5 100t-175.5 36q-92 0 -176.5 -36t-148.5 -100t-102 -159.5t-38 -206.5z" />
    <glyph glyph-name="R" unicode="R" horiz-adv-x="1255" 
d="M154 0v1425q172 33 313 32q111 1 203 -19q210 -46 318 -171t108 -311q0 -121 -61.5 -236t-162.5 -179l388 -541h-338l-304 444q-57 -9 -118 -9q-35 0 -70 3v-438h-276zM430 686q42 -6 80 -6q120 0 198 60q102 80 103 212q0 60 -23.5 110t-71.5 86q-46 36 -118 48
q-32 6 -71 6q-45 0 -97 -8v-508z" />
    <glyph glyph-name="S" unicode="S" horiz-adv-x="1083" 
d="M63 100l107 222q190 -105 330 -105q111 0 170 42.5t59 107.5q0 24 -6.5 46t-24 42.5t-32 35.5t-46.5 36t-50.5 32.5t-61 35.5t-62.5 36q-179 105 -261.5 205.5t-82.5 248.5q0 67 29 132.5t83 122t144 91.5t201 35q112 0 215.5 -26.5t169.5 -59.5l-76 -237
q-155 74 -286 74q-92 0 -146.5 -42.5t-54.5 -103.5q0 -24 7 -45t24.5 -40.5t33.5 -34t49.5 -34.5t55.5 -32t67 -35q119 -62 198 -122t120.5 -121t57.5 -118q14 -51 14 -112v-15q-4 -187 -138 -290q-132 -101 -340 -101h-8q-147 1 -271 39t-188 90z" />
    <glyph glyph-name="T" unicode="T" horiz-adv-x="1095" 
d="M51 1204v234h993v-234h-358v-1204h-276v1204h-359z" />
    <glyph glyph-name="U" unicode="U" horiz-adv-x="1370" 
d="M131 506v932h277v-920q0 -130 79.5 -216.5t196.5 -86.5q118 0 198.5 86.5t80.5 216.5v920h278v-932q0 -108 -36 -203.5t-104 -170t-176 -118t-243 -43.5q-134 0 -241 43.5t-173.5 118t-101.5 170t-35 203.5z" />
    <glyph glyph-name="V" unicode="V" horiz-adv-x="1359" 
d="M0 1438h313l369 -856l381 856h297l-660 -1452h-49z" />
    <glyph glyph-name="W" unicode="W" horiz-adv-x="1972" 
d="M0 1438h303l313 -803l342 817h50l348 -829l332 815h284l-596 -1452h-53l-346 876l-344 -876h-53z" />
    <glyph glyph-name="X" unicode="X" horiz-adv-x="1269" 
d="M25 0l446 721l-446 717h321l283 -461l284 461h308l-439 -709l461 -729h-319l-299 479l-291 -479h-309z" />
    <glyph glyph-name="Y" unicode="Y" horiz-adv-x="1280" 
d="M4 1438h326l315 -496l316 496h313l-496 -789v-649h-278v649z" />
    <glyph glyph-name="Z" unicode="Z" horiz-adv-x="1146" 
d="M39 39l645 1165h-573v234h979l20 -39l-643 -1166h606v-233h-1014z" />
    <glyph glyph-name="bracketleft" unicode="[" horiz-adv-x="815" 
d="M168 -268v1706h569v-221l-291 -3v-1261h291v-221h-569z" />
    <glyph glyph-name="backslash" unicode="\" horiz-adv-x="966" 
d="M31 1438l202 94l773 -1798l-201 -94z" />
    <glyph glyph-name="bracketright" unicode="]" horiz-adv-x="815" 
d="M78 -47h291v1261l-291 3v221h569v-1706h-569v221z" />
    <glyph glyph-name="asciicircum" unicode="^" horiz-adv-x="911" 
d="M49 981l393 457h27l395 -457l-159 -141l-250 295l-250 -295z" />
    <glyph glyph-name="underscore" unicode="_" horiz-adv-x="1376" 
d="M0 -188h1376v-197h-1376v197z" />
    <glyph glyph-name="grave" unicode="`" horiz-adv-x="567" 
d="M61 1225v35h316l129 -287h-205z" />
    <glyph glyph-name="a" unicode="a" horiz-adv-x="980" 
d="M45 254q0 128 93.5 209.5t232.5 81.5q88 0 161.5 -32t110.5 -69v35q0 81 -59 134t-146 53q-74 0 -120 -12.5t-95 -37.5l-65 195q48 27 136 48q84 20 165 20h8q192 -3 307.5 -116t116.5 -308l-2 -455h-146l-90 92q-34 -49 -103 -85t-175 -36q-136 0 -233 80t-97 203z
M303 264q0 -44 41 -74t96 -30q73 0 130.5 35t72.5 88v12q-31 33 -87 57q-53 23 -113 23h-5q-61 0 -98 -32.5t-37 -78.5z" />
    <glyph glyph-name="b" unicode="b" horiz-adv-x="1101" 
d="M102 0v1438l236 24h24v-702q33 53 109.5 87t159.5 34q176 0 299 -128.5t123 -324.5q0 -199 -119.5 -327t-298.5 -128q-88 0 -168.5 37t-120.5 96l-100 -106h-144zM365 426q0 -112 64.5 -179t148.5 -67q87 0 147.5 67t60.5 181q0 113 -63.5 178.5t-147.5 65.5
q-88 0 -148.5 -63t-61.5 -175v-8z" />
    <glyph glyph-name="c" unicode="c" horiz-adv-x="913" 
d="M49 426q0 128 63.5 233t171 163.5t236.5 58.5q220 0 363 -170l-148 -154q-27 39 -81 76t-113 37q-96 0 -163 -66t-67 -180q0 -111 69 -176.5t163 -65.5q54 0 108 27t94 65l134 -147q-136 -156 -365 -156q-128 0 -235.5 62t-168.5 166.5t-61 226.5z" />
    <glyph glyph-name="d" unicode="d" horiz-adv-x="1099" 
d="M47 428q0 196 123 324.5t299 128.5q83 0 158 -33.5t108 -87.5v678l238 24h24v-1462h-145l-100 106q-40 -59 -120 -96t-167 -37q-179 0 -298.5 128t-119.5 327zM313 428q0 -114 61 -181t148 -67q85 0 148 66.5t63 179.5v8q-1 112 -61 175t-146 63t-149.5 -65t-63.5 -179z
" />
    <glyph glyph-name="e" unicode="e" horiz-adv-x="978" 
d="M47 426q0 132 61.5 237t163.5 161.5t224 56.5q195 1 317 -141q114 -132 114 -335q0 -15 -1 -30h-623q8 -82 85 -140.5t187 -58.5q128 0 248 74l95 -170q-134 -107 -375 -107q-140 0 -254 60t-178 163.5t-64 229.5zM317 537h345q-6 61 -53.5 102t-112.5 41
q-70 0 -120.5 -45.5t-58.5 -97.5z" />
    <glyph glyph-name="f" unicode="f" horiz-adv-x="681" 
d="M39 649v25l24 178h105v260q0 88 25 156.5t66.5 108t92.5 64t106 31.5q34 4 65 4q19 0 37 -2q48 -4 87 -16l-31 -211q-20 5 -38 5q-48 0 -90 -31q-59 -43 -58 -140v-229h201v-203h-201v-649h-262v649h-129z" />
    <glyph glyph-name="g" unicode="g" horiz-adv-x="1017" 
d="M0 -227q0 98 62.5 163t144.5 76q-39 7 -71 44q-32 35 -32 86q0 57 44 96q39 32 94 32h12q-82 49 -122 124t-40 153q0 45 13 90.5t42.5 89.5t73 78t110 55t146.5 21q84 0 166 -31t127 -72l176 74h41v-223h-139q12 -17 12 -62q0 -145 -100.5 -243.5t-294.5 -104.5
q-96 0 -96 -57q0 -58 125 -62q263 -17 381 -99.5t118 -236.5q0 -140 -139.5 -222.5t-364.5 -82.5q-220 0 -354.5 85t-134.5 229zM256 -223q0 -58 67.5 -86.5t172.5 -28.5q106 0 170.5 28t64.5 87q0 37 -48.5 66t-110.5 42t-119 13q-82 0 -139.5 -32t-57.5 -89zM332 545
q0 -57 41.5 -98t103.5 -41t103 41t41 98q0 59 -41 99t-103 40q-65 0 -105 -39.5t-40 -99.5z" />
    <glyph glyph-name="h" unicode="h" horiz-adv-x="1046" 
d="M102 0v1438l236 24h24v-688q100 107 250 107q149 0 249 -97.5t100 -255.5v-528h-265v492q0 65 -46 120.5t-120 55.5q-48 0 -82 -22t-52 -60t-26 -81.5t-8 -94.5v-410h-260z" />
    <glyph glyph-name="i" unicode="i" horiz-adv-x="483" 
d="M70 1206q0 70 51.5 122t120.5 52q70 0 122 -52t52 -122q0 -71 -51.5 -120.5t-122.5 -49.5q-70 0 -121 49.5t-51 120.5zM113 0v852h260v-852h-260z" />
    <glyph glyph-name="j" unicode="j" horiz-adv-x="487" 
d="M-102 -506l30 211q19 -4 36 -4q50 0 94 33q59 45 59 137v981h260v-1012q0 -87 -25 -155t-66.5 -107.5t-92 -64t-105.5 -31.5q-37 -4 -71 -4q-16 0 -31 1q-48 3 -88 15zM72 1206q0 70 52 122t122 52t122 -52t52 -122q0 -73 -51.5 -122.5t-122.5 -49.5t-122.5 49.5
t-51.5 122.5z" />
    <glyph glyph-name="k" unicode="k" horiz-adv-x="1013" 
d="M102 0v1438l238 24h22v-923l300 313h309l-369 -391l399 -461h-327l-312 365v-365h-260z" />
    <glyph glyph-name="l" unicode="l" horiz-adv-x="464" 
d="M102 0v1438l238 24h22v-1462h-260z" />
    <glyph glyph-name="m" unicode="m" horiz-adv-x="1490" 
d="M102 0v852h144l102 -82q29 46 84.5 78.5t124.5 32.5q188 0 270 -152q44 75 116 113.5t151 38.5q149 0 229 -92.5t80 -243.5v-545h-262v508q0 75 -35 114.5t-94 39.5q-51 0 -87 -40t-42 -108v-514h-262v504q0 73 -34 115.5t-93 42.5q-56 0 -94 -46t-38 -120v-496h-260z
" />
    <glyph glyph-name="n" unicode="n" horiz-adv-x="1046" 
d="M102 0v852h144l102 -86q100 115 273 115q148 0 244 -97t96 -256v-528h-263v492q0 75 -46.5 125.5t-121.5 50.5q-67 0 -117.5 -49.5t-50.5 -124.5v-494h-260z" />
    <glyph glyph-name="o" unicode="o" horiz-adv-x="1050" 
d="M49 428q0 132 66 237t174.5 160.5t236.5 55.5q127 0 235 -55.5t174 -160.5t66 -237t-66 -238t-175 -162.5t-238 -56.5q-126 0 -233.5 56.5t-173.5 162.5t-66 238zM311 428q0 -113 62.5 -180.5t148.5 -67.5q88 0 150.5 67t62.5 181t-63 180t-150 66q-88 0 -149.5 -65.5
t-61.5 -180.5z" />
    <glyph glyph-name="p" unicode="p" horiz-adv-x="1099" 
d="M102 -506v1358h144l100 -115q38 64 118.5 104t168.5 40q179 0 298.5 -129t119.5 -328q0 -197 -122.5 -324t-299.5 -127q-83 0 -158.5 33t-108.5 86v-571l-237 -27h-23zM365 418q1 -107 61.5 -172.5t146.5 -65.5q84 0 147.5 65.5t63.5 178.5q0 114 -61 181t-148 67
q-85 0 -147.5 -65t-62.5 -181v-8z" />
    <glyph glyph-name="q" unicode="q" horiz-adv-x="1099" 
d="M47 424q0 199 119.5 328t298.5 129q88 0 168.5 -40t118.5 -104l100 115h145v-1331l-235 -27h-27v598q-32 -53 -107.5 -86t-158.5 -33q-177 0 -299.5 127t-122.5 324zM313 424q0 -114 63.5 -179t149.5 -65t146 63t61 175v8q0 113 -63 179.5t-148 66.5q-87 0 -148 -67
t-61 -181z" />
    <glyph glyph-name="r" unicode="r" horiz-adv-x="677" 
d="M102 0v852h144l100 -86q23 47 73.5 80t108.5 33q68 0 121 -35q-7 -45 -23 -130t-20 -104l-12 -4q-48 23 -100 23q-82 0 -132 -68v-561h-260z" />
    <glyph glyph-name="s" unicode="s" horiz-adv-x="851" 
d="M61 51l82 201q136 -70 267 -70q54 0 98.5 16t44.5 48q0 29 -30.5 41t-105.5 25q-11 2 -16 3q-325 51 -325 281q0 70 31 125.5t83 89.5t115 52t131 18q165 0 322 -64l-72 -207q-137 58 -252 58q-50 0 -85.5 -18t-35.5 -52q0 -25 35 -37.5t107 -23.5q94 -11 161.5 -39
t104.5 -67.5t53.5 -84t16.5 -96.5q0 -92 -54.5 -157t-137.5 -93.5t-185 -28.5q-108 0 -201.5 25t-151.5 55z" />
    <glyph glyph-name="t" unicode="t" horiz-adv-x="708" 
d="M31 647v2v25l24 178h111v285l237 28h23v-313h201v-205h-201v-334q0 -59 34.5 -86.5t86.5 -27.5q30 0 63 10q4 -25 11.5 -67t13.5 -76.5t10 -65.5q-66 -16 -139 -16q-70 0 -127.5 16t-107 53t-77.5 106.5t-28 166.5v321h-135z" />
    <glyph glyph-name="u" unicode="u" horiz-adv-x="1052" 
d="M92 324v528h262v-492q0 -75 46 -125.5t122 -50.5q67 0 117.5 49.5t50.5 124.5v494h260v-852h-159l-86 88q-97 -117 -273 -117q-148 0 -244 97t-96 256z" />
    <glyph glyph-name="v" unicode="v" horiz-adv-x="993" 
d="M-2 852h283l221 -410l227 410h266l-477 -866h-47z" />
    <glyph glyph-name="w" unicode="w" horiz-adv-x="1396" 
d="M-2 852h274l185 -387l223 403h49l223 -403l191 387h258l-422 -866h-47l-236 463l-235 -463h-47z" />
    <glyph glyph-name="x" unicode="x" horiz-adv-x="1009" 
d="M14 852h305l187 -236l190 236h297l-338 -428l338 -424h-305l-184 229l-182 -229h-306l336 424z" />
    <glyph glyph-name="y" unicode="y" horiz-adv-x="1011" 
d="M4 852h291l217 -455l217 455h270l-639 -1364h-249l-23 20l287 594z" />
    <glyph glyph-name="z" unicode="z" horiz-adv-x="937" 
d="M51 45l447 604h-408l-2 203h784l15 -47l-416 -598h391v-207h-790z" />
    <glyph glyph-name="braceleft" unicode="{" horiz-adv-x="948" 
d="M72 477v211h49q51 0 87.5 15t55.5 36.5t29.5 56.5t13 62.5t2.5 67.5v147q0 80 22 148.5t66 122.5t116 85t165 31q82 0 176 -24q-37 -202 -41 -226q-40 7 -63 7q-162 0 -162 -191v-149q0 -110 -55.5 -190t-135.5 -105q81 -24 137 -116t56 -214v-133q1 -25 5 -45.5
t14.5 -44.5t27 -40t45.5 -27t68 -11q28 0 65 6q3 -17 41 -225q-91 -23 -174 -23q-94 0 -167 31t-116.5 85t-65.5 122t-22 147v146q0 39 -2.5 67t-13 62.5t-30 56t-55.5 36.5t-87 15h-51z" />
    <glyph glyph-name="bar" unicode="|" horiz-adv-x="593" 
d="M174 -268v1732h246v-1732h-246z" />
    <glyph glyph-name="braceright" unicode="}" horiz-adv-x="948" 
d="M92 -268q38 208 41 225q37 -6 66 -6q39 0 68 11t45.5 27t26.5 40t14 44.5t5 45.5v133q0 122 56 214t137 116q-80 25 -135.5 105t-55.5 190v149q0 191 -161 191q-24 0 -64 -7q-4 24 -41 226q95 24 176 24q93 0 165 -31t116 -85t66 -122.5t22 -148.5v-147q0 -40 2.5 -67.5
t13 -62.5t29.5 -56.5t55.5 -36.5t87.5 -15h50v-211h-52q-51 0 -87 -15t-55.5 -36.5t-30 -56t-13 -62.5t-2.5 -67v-146q0 -79 -22 -147t-65.5 -122t-116.5 -85t-167 -31q-83 0 -174 23z" />
    <glyph glyph-name="asciitilde" unicode="~" horiz-adv-x="964" 
d="M77 475q4 46 23 79.5t42 55.5t54 35t58.5 18t56.5 5q63 0 179.5 -36t160.5 -36q91 0 135 57l97 -4q14 -67 3 -117.5t-34.5 -85.5t-59 -57.5t-70.5 -32.5t-69 -10q-63 0 -177.5 36t-158.5 36q-103 0 -143 -56l-94 5q-7 62 -3 108z" />
    <glyph glyph-name="uni00A0" unicode="&#xa0;" horiz-adv-x="501" 
 />
    <glyph glyph-name="exclamdown" unicode="&#xa1;" horiz-adv-x="659" 
d="M137 -457l121 879h143l123 -879h-387zM158 725q0 74 50.5 123t123.5 49q70 0 120 -49t50 -123q0 -69 -50.5 -120.5t-119.5 -51.5q-72 0 -123 51.5t-51 120.5z" />
    <glyph glyph-name="cent" unicode="&#xa2;" horiz-adv-x="913" 
d="M49 700q0 155 91 273t235 160v262h217v-246q174 -23 291 -164l-148 -154q-27 39 -81 76t-113 37q-96 0 -163 -66t-67 -180q0 -111 69 -176t163 -65q54 0 108 27t94 65l134 -148q-115 -128 -287 -151v-250h-217v266q-145 43 -235.5 163t-90.5 271z" />
    <glyph glyph-name="sterling" unicode="&#xa3;" horiz-adv-x="1169" 
d="M70 211q66 -3 118.5 10t81.5 36.5t47 54.5t17 63.5t-10 62.5h-195v230h150q-7 13 -36 59t-43.5 73.5t-29 74t-14.5 90.5q0 177 123.5 286t312.5 109q146 0 265 -63.5t179 -196.5l-211 -113q-27 68 -84.5 105.5t-124.5 37.5q-77 0 -133.5 -47.5t-56.5 -126.5q0 -42 15 -83
t34.5 -69t45 -67t38.5 -69h238v-230h-199q12 -85 -27 -159q85 -70 199 -70q73 0 136 31.5t100 78.5l143 -178q-120 -170 -385 -170q-212 0 -315 107q-19 -18 -41.5 -32.5t-47 -23.5t-48.5 -15.5t-51.5 -9t-48 -4t-46 -0.5t-39 2t-33.5 3t-22 2z" />
    <glyph glyph-name="currency" unicode="&#xa4;" horiz-adv-x="1341" 
d="M94 309l139 133q-79 116 -79 277q0 152 79 276l-139 131l160 177l145 -144q124 76 271 76q154 0 276 -76l139 144l162 -177q-21 -19 -44 -41t-50.5 -49t-42.5 -41q78 -118 78 -276q0 -161 -78 -277q90 -90 137 -133q-32 -33 -89 -96t-73 -80q-116 121 -139 146
q-121 -74 -276 -74q-150 0 -271 74l-147 -146q-144 161 -158 176zM391 719q0 -116 80 -204.5t199 -88.5q122 0 202 88t80 205q0 115 -80 204t-202 89q-119 0 -199 -89t-80 -204z" />
    <glyph glyph-name="yen" unicode="&#xa5;" horiz-adv-x="1310" 
d="M20 1333h320l324 -438l323 438h303l-360 -499h219v-213h-356v-129h356v-213h-356v-279h-279v279h-356v213h356v129h-356v213h221z" />
    <glyph glyph-name="brokenbar" unicode="&#xa6;" horiz-adv-x="593" 
d="M174 -268v714h246v-714h-246zM174 750v714h246v-714h-246z" />
    <glyph glyph-name="section" unicode="&#xa7;" horiz-adv-x="1009" 
d="M63 532q0 73 40 142.5t108 105.5q-49 36 -83 97.5t-34 128.5q0 88 35.5 157.5t95 111.5t130.5 63.5t147 21.5q97 0 202 -22t177 -60l-74 -223q-163 75 -299 75q-67 0 -108.5 -33t-41.5 -77q0 -40 41 -75t107 -56q235 -61 338.5 -153t103.5 -232q0 -69 -39 -132t-102 -102
q52 -34 83.5 -96t31.5 -133q0 -85 -36 -151t-97.5 -106t-139 -60.5t-166.5 -20.5q-121 0 -242 29t-171 65l75 219q65 -33 157 -55t177 -22q69 0 115.5 27t46.5 75q0 43 -39 74.5t-123 56.5q-98 27 -167.5 56t-129 70.5t-89.5 100t-30 133.5zM342 541q0 -48 53 -83t129 -52
q60 -8 102 24t42 86q0 42 -50 79.5t-143 63.5q-50 7 -91.5 -26t-41.5 -92z" />
    <glyph glyph-name="dieresis" unicode="&#xa8;" horiz-adv-x="710" 
d="M61 1120q0 55 36.5 93t86.5 38q57 0 95 -37.5t38 -93.5q0 -54 -38 -89.5t-95 -35.5q-50 0 -86.5 36t-36.5 89zM393 1120q0 56 37 93.5t92 37.5q52 0 89.5 -38t37.5 -93q0 -53 -37.5 -89t-89.5 -36q-56 0 -92.5 35.5t-36.5 89.5z" />
    <glyph glyph-name="copyright" unicode="&#xa9;" horiz-adv-x="1576" 
d="M51 717q0 152 57 288.5t154.5 236t234.5 158t291 58.5q152 0 289.5 -58.5t235.5 -158t155.5 -236.5t57.5 -288q0 -201 -97.5 -370.5t-267.5 -268t-373 -98.5q-154 0 -291 58t-234.5 157t-154.5 235t-57 287zM203 717q0 -168 77 -308t212.5 -221.5t298.5 -81.5t299 81.5
t214 221.5t78 308t-78 308t-213.5 220t-299.5 80q-122 0 -231.5 -47t-187.5 -128t-123.5 -194t-45.5 -239zM428 721q0 157 107 268t270 111q91 0 176.5 -43t130.5 -105l-113 -114q-82 94 -174 94q-81 0 -138.5 -59t-57.5 -156q0 -96 62 -153.5t140 -57.5q103 0 181 82
q46 -41 108 -103q-54 -76 -141 -110.5t-164 -34.5q-169 0 -278 112t-109 269z" />
    <glyph glyph-name="ordfeminine" unicode="&#xaa;" horiz-adv-x="792" 
d="M63 1120q0 99 71 163.5t179 64.5q126 0 213 -70v37q0 57 -46 101t-109 44q-31 0 -62.5 -7.5t-44.5 -12.5t-45 -19l-65 133q39 23 105.5 43t133.5 19q88 -1 158 -35t114.5 -106.5t45.5 -174.5l-2 -393h-99l-75 76q-19 -30 -76 -61t-133 -31q-111 0 -187 64.5t-76 164.5z
M246 1126q0 -41 37.5 -62.5t83.5 -21.5q51 0 93.5 23t65.5 53v45q-7 3 -30 13t-37 15t-41.5 10t-57.5 5q-46 0 -80 -22t-34 -58z" />
    <glyph glyph-name="guillemotleft" unicode="&#xab;" horiz-adv-x="1208" 
d="M55 416v43l416 459l174 -130l-303 -346l303 -340l-178 -133zM547 416v43l416 459l174 -130l-303 -346l303 -340l-179 -133z" />
    <glyph glyph-name="logicalnot" unicode="&#xac;" horiz-adv-x="999" 
d="M72 391v230q142 0 427 1t427 1q0 -2 2 -2q0 -67 -1 -198t-1 -198h-232v166h-622z" />
    <glyph glyph-name="uni00AD" unicode="&#xad;" horiz-adv-x="727" 
d="M72 303v240l583 90v-240z" />
    <glyph glyph-name="registered" unicode="&#xae;" horiz-adv-x="1576" 
d="M51 717q0 152 57 288.5t154.5 236t234.5 158t291 58.5q152 0 289.5 -58.5t235.5 -158t155.5 -236.5t57.5 -288q0 -201 -97.5 -370.5t-267.5 -268t-373 -98.5q-154 0 -291 58t-234.5 157t-154.5 235t-57 287zM203 717q0 -168 77 -308t212.5 -221.5t298.5 -81.5t299 81.5
t214 221.5t78 308t-78 308t-213.5 220t-299.5 80q-122 0 -231.5 -47t-187.5 -128t-123.5 -194t-45.5 -239zM539 362v709q119 29 200 29q165 0 260 -80t95 -193q0 -60 -31 -110.5t-74 -83.5l150 -271h-203l-105 211q-30 -6 -71 -6q-8 0 -21 1t-18 1v-207h-182zM721 719
q14 -2 39 -2q69 0 107 31t38 79q0 47 -37 75t-96 28q-24 0 -51 -6v-205z" />
    <glyph glyph-name="macron" unicode="&#xaf;" horiz-adv-x="718" 
d="M61 1030v182h596v-182h-596z" />
    <glyph glyph-name="degree" unicode="&#xb0;" horiz-adv-x="815" 
d="M51 1108q0 154 107 256t248 102q92 0 174 -44.5t133 -128t51 -185.5q0 -154 -102.5 -254t-255.5 -100q-152 0 -253.5 100t-101.5 254zM250 1108q0 -70 44.5 -119t111.5 -49q69 0 114 49t45 119t-45 119t-114 49q-67 0 -111.5 -49t-44.5 -119z" />
    <glyph glyph-name="plusminus" unicode="&#xb1;" horiz-adv-x="999" 
d="M72 233v211h852v-211h-852zM72 735v215h313v201h229v-201h314v-215h-314v-186h-229v186h-313z" />
    <glyph glyph-name="uni00B2" unicode="&#xb2;" horiz-adv-x="710" 
d="M23 897q207 173 276 243q125 126 125 201q0 54 -36 82.5t-91 28.5q-40 0 -80 -22.5t-61 -53.5h-25l-84 111q41 57 120 94t161 37q74 -2 135 -30.5t102 -92t41 -154.5q0 -26 -6.5 -53t-15 -48.5t-25.5 -48.5t-28.5 -43t-33.5 -41.5t-31 -35t-31.5 -32.5t-24.5 -25h225
v-152h-596z" />
    <glyph glyph-name="uni00B3" unicode="&#xb3;" horiz-adv-x="704" 
d="M35 926l57 127h27q21 -20 78.5 -38t105.5 -18q54 0 104 30.5t50 80.5q0 63 -64.5 99t-175.5 7l-29 29l170 213h-280v143h538l17 -34l-182 -244q33 -1 75.5 -27t77.5 -78.5t35 -115.5q0 -106 -93 -182t-231 -76q-90 0 -163 27t-117 57z" />
    <glyph glyph-name="acute" unicode="&#xb4;" horiz-adv-x="567" 
d="M61 973l129 287h316v-35l-240 -252h-205z" />
    <glyph glyph-name="mu" unicode="&#xb5;" horiz-adv-x="1060" 
d="M102 852h263v-492q0 -76 44 -126t119 -50q67 0 118.5 49.5t51.5 124.5v494h260v-852h-159l-86 88q-21 -40 -94.5 -79.5t-139.5 -39.5q-93 0 -112 41v-491l-238 -47h-25z" />
    <glyph glyph-name="paragraph" unicode="&#xb6;" horiz-adv-x="1173" 
d="M51 1016q0 187 132.5 303.5t332.5 116.5h592v-234h-127v-1470h-217v1470h-74l-2 -1470h-215v858q-181 28 -301.5 140t-120.5 286z" />
    <glyph glyph-name="periodcentered" unicode="&#xb7;" horiz-adv-x="571" 
d="M113 565q0 69 51 120.5t121 51.5q71 0 122.5 -51.5t51.5 -120.5q0 -74 -50.5 -123t-123.5 -49q-72 0 -122 49t-50 123z" />
    <glyph glyph-name="cedilla" unicode="&#xb8;" horiz-adv-x="518" 
d="M61 -399q0 134 2 204q24 -6 48 -6q56 0 93.5 27t37.5 72q0 11 -1.5 20t-3 15.5t-6 14t-6.5 11t-9.5 10.5t-10 9.5t-12.5 10.5t-13 11v25l60 26q90 -15 152.5 -78.5t62.5 -142.5q0 -78 -46.5 -133.5t-115 -80t-150.5 -24.5q-21 0 -82 9z" />
    <glyph glyph-name="uni00B9" unicode="&#xb9;" horiz-adv-x="546" 
d="M61 1481l297 137h33v-756h-174v531l-106 -43z" />
    <glyph glyph-name="ordmasculine" unicode="&#xba;" horiz-adv-x="786" 
d="M51 1251q0 156 95.5 261.5t244.5 105.5q152 0 248 -105.5t96 -261.5q0 -153 -97.5 -257.5t-246.5 -104.5q-150 0 -245 104.5t-95 257.5zM231 1251q0 -79 44.5 -143t115.5 -64q75 0 118.5 63.5t43.5 143.5q0 85 -43.5 149t-118.5 64t-117.5 -64t-42.5 -149z" />
    <glyph glyph-name="guillemotright" unicode="&#xbb;" horiz-adv-x="1208" 
d="M72 98l303 346l-303 340l178 134l412 -447v-43l-416 -459zM563 98l303 346l-303 340l178 134l412 -447v-43l-416 -459z" />
    <glyph glyph-name="onequarter" unicode="&#xbc;" horiz-adv-x="1542" 
d="M76 1276l297 137h33v-756h-175v531l-106 -43zM193 57l1060 1368l119 -94l-1059 -1360zM754 168l534 596l70 -27l2 -489h98v-144h-98v-104h-172v104h-393zM1026 248h162v184z" />
    <glyph glyph-name="onehalf" unicode="&#xbd;" horiz-adv-x="1671" 
d="M76 1276l297 137h33v-756h-175v531l-106 -43zM188 57l1061 1368l119 -94l-1059 -1360zM971 35q207 173 276 243q125 126 125 201q0 54 -36 82.5t-91 28.5q-40 0 -80 -22.5t-61 -53.5h-25l-84 111q41 57 120 94t161 37q74 -2 135 -30.5t102 -92t41 -154.5q0 -26 -6.5 -53
t-15 -48.5t-25.5 -48.5t-28.5 -43t-33.5 -41.5t-31 -35t-31.5 -32.5t-24.5 -25h225v-152h-596z" />
    <glyph glyph-name="threequarters" unicode="&#xbe;" horiz-adv-x="1656" 
d="M47 721l57 127h27q21 -19 78.5 -37t105.5 -18q54 0 104 30t50 80q0 63 -64.5 99.5t-175.5 7.5l-28 28l170 213h-281v144h539l16 -35l-182 -244q33 -1 75.5 -27t77.5 -78.5t35 -115.5q0 -106 -93 -182t-230 -76q-90 0 -163.5 27t-117.5 57zM307 57l1061 1368l119 -94
l-1059 -1360zM862 168l535 596l69 -27l2 -489h99v-144h-99v-104h-172v104h-393zM1135 248h161v184z" />
    <glyph glyph-name="questiondown" unicode="&#xbf;" horiz-adv-x="759" 
d="M0 -154q0 66 17 121t44.5 92.5t60.5 70.5t66.5 63t61 62t44.5 75t17 94h215q9 -41 9 -76q0 -65 -25 -120.5t-60.5 -94t-71 -73t-60.5 -72.5t-25 -76q0 -67 42 -104t111 -37q51 0 102.5 26t80.5 53l131 -196q-22 -20 -50.5 -39.5t-73.5 -43.5t-105.5 -39t-124.5 -15
q-105 0 -196.5 38t-150.5 114.5t-59 176.5zM240 727q0 73 50.5 121.5t123.5 48.5q70 0 120 -49t50 -121q0 -71 -50.5 -122.5t-119.5 -51.5q-72 0 -123 51.5t-51 122.5z" />
    <glyph glyph-name="Agrave" unicode="&#xc0;" 
d="M-2 0l682 1452h49l676 -1452h-305l-107 233h-581l-107 -233h-307zM356 1796v35h316l129 -287h-205zM508 461h387l-193 448z" />
    <glyph glyph-name="Aacute" unicode="&#xc1;" 
d="M-2 0l682 1452h49l676 -1452h-305l-107 233h-581l-107 -233h-307zM508 461h387l-193 448zM596 1544l129 287h315v-35l-239 -252h-205z" />
    <glyph glyph-name="Acircumflex" unicode="&#xc2;" 
d="M-2 0l682 1452h49l676 -1452h-305l-107 233h-581l-107 -233h-307zM403 1544q19 31 78.5 132t93.5 155h252l172 -287h-192q-13 13 -49.5 51t-57.5 58l-106 -109h-191zM508 461h387l-193 448z" />
    <glyph glyph-name="Atilde" unicode="&#xc3;" 
d="M-2 0l682 1452h49l676 -1452h-305l-107 233h-581l-107 -233h-307zM414 1597q-7 62 4.5 107t37.5 69t57 35t67 11q54 0 127 -27t102 -27q62 0 86 50l100 -25q5 -58 -8.5 -102.5t-41 -70t-60 -38t-68.5 -12.5q-46 0 -122 27.5t-97 27.5q-38 0 -55 -11.5t-27 -37.5zM508 461
h387l-193 448z" />
    <glyph glyph-name="Adieresis" unicode="&#xc4;" 
d="M-2 0l682 1452h49l676 -1452h-305l-107 233h-581l-107 -233h-307zM393 1692q0 55 36.5 93t86.5 38q57 0 95 -37.5t38 -93.5q0 -54 -38 -89.5t-95 -35.5q-50 0 -86.5 36t-36.5 89zM508 461h387l-193 448zM725 1692q0 56 37 93.5t92 37.5q52 0 89.5 -38t37.5 -93
q0 -53 -37.5 -89t-89.5 -36q-56 0 -92.5 35.5t-36.5 89.5z" />
    <glyph glyph-name="Aring" unicode="&#xc5;" 
d="M-2 0l608 1337q-73 28 -119.5 94.5t-46.5 147.5q0 107 76.5 182.5t185.5 75.5q110 0 187.5 -75.5t77.5 -182.5q0 -80 -46.5 -146t-119.5 -96l604 -1337h-305l-107 233h-581l-107 -233h-307zM508 461h387l-193 448zM588 1581q0 -48 33.5 -83.5t80.5 -35.5q50 0 83.5 35.5
t33.5 83.5t-33.5 82.5t-83.5 34.5q-47 0 -80.5 -34.5t-33.5 -82.5z" />
    <glyph glyph-name="AE" unicode="&#xc6;" horiz-adv-x="1959" 
d="M-51 0l1020 1438h862v-234h-555v-284h446v-236h-446v-451h575v-233h-852v231h-542l-162 -231h-346zM614 467h385v567z" />
    <glyph glyph-name="Ccedilla" unicode="&#xc7;" horiz-adv-x="1441" 
d="M59 723q0 165 63.5 306.5t169 236t243.5 147.5t288 53q319 0 555 -215l-168 -200q-27 27 -59.5 52t-81.5 53.5t-112 45.5t-130 17q-131 0 -239.5 -66.5t-170 -180.5t-61.5 -249q0 -134 58 -247t169.5 -183t254.5 -70q113 0 213.5 45t167.5 109l163 -184
q-83 -87 -194.5 -145.5t-282.5 -72.5q64 -67 64 -145t-46.5 -133.5t-115 -80t-150.5 -24.5q-21 0 -82 9q0 99 3 204q24 -6 47 -6q56 0 93.5 27t37.5 72q0 47 -33 77q-141 15 -264 78t-211 160.5t-138.5 229.5t-50.5 280z" />
    <glyph glyph-name="Egrave" unicode="&#xc8;" horiz-adv-x="1112" 
d="M154 0v1438h829v-234h-553v-289h447v-233h-447v-449h576v-233h-852zM305 1796v35h316l129 -287h-205z" />
    <glyph glyph-name="Eacute" unicode="&#xc9;" horiz-adv-x="1112" 
d="M154 0v1438h829v-234h-553v-289h447v-233h-447v-449h576v-233h-852zM406 1544l129 287h315v-35l-240 -252h-204z" />
    <glyph glyph-name="Ecircumflex" unicode="&#xca;" horiz-adv-x="1112" 
d="M154 0v1438h829v-234h-553v-289h447v-233h-447v-449h576v-233h-852zM289 1544q19 31 78.5 132t93.5 155h252l172 -287h-193q-14 14 -49.5 51.5t-56.5 57.5l-107 -109h-190z" />
    <glyph glyph-name="Edieresis" unicode="&#xcb;" horiz-adv-x="1112" 
d="M154 0v1438h829v-234h-553v-289h447v-233h-447v-449h576v-233h-852zM285 1692q0 55 36.5 93t86.5 38q57 0 95 -37.5t38 -93.5q0 -54 -38 -89.5t-95 -35.5q-50 0 -86.5 36t-36.5 89zM616 1692q0 56 37 93.5t92 37.5q52 0 89.5 -38t37.5 -93q0 -53 -37.5 -89t-89.5 -36
q-56 0 -92.5 35.5t-36.5 89.5z" />
    <glyph glyph-name="Igrave" unicode="&#xcc;" horiz-adv-x="583" 
d="M-14 1796v35h315l129 -287h-205zM154 0v1438h276v-1438h-276z" />
    <glyph glyph-name="Iacute" unicode="&#xcd;" horiz-adv-x="583" 
d="M154 0v1438h276v-1438h-276zM154 1544l129 287h315v-35l-240 -252h-204z" />
    <glyph glyph-name="Icircumflex" unicode="&#xce;" horiz-adv-x="583" 
d="M-6 1544q19 31 78.5 132t93.5 155h252l172 -287h-193q-14 14 -49.5 51.5t-56.5 57.5l-107 -109h-190zM154 0v1438h276v-1438h-276z" />
    <glyph glyph-name="Idieresis" unicode="&#xcf;" horiz-adv-x="583" 
d="M-2 1692q0 55 36.5 93t86.5 38q57 0 95 -37.5t38 -93.5q0 -54 -38 -89.5t-95 -35.5q-50 0 -86.5 36t-36.5 89zM154 0v1438h276v-1438h-276zM330 1692q0 56 37 93.5t92 37.5q52 0 89.5 -38t37.5 -93q0 -53 -37.5 -89t-89.5 -36q-56 0 -92.5 35.5t-36.5 89.5z" />
    <glyph glyph-name="Eth" unicode="&#xd0;" horiz-adv-x="1478" 
d="M20 598v229h185v603q156 25 293.5 27.5t244.5 -15t198.5 -51t158.5 -78.5t120 -101.5t87 -116.5t56.5 -126t32 -127t9.5 -123q0 -60 -10 -119.5t-32 -124.5t-58 -123.5t-88 -115.5t-121 -101.5t-158 -81t-198.5 -53.5t-243 -20t-291.5 20v598h-185zM483 246
q61 -4 123.5 -2t124.5 18.5t117.5 40t103.5 64t83 90t55 117.5t20 147q0 241 -170.5 373.5t-456.5 99.5v-367h348v-229h-348v-352z" />
    <glyph glyph-name="Ntilde" unicode="&#xd1;" horiz-adv-x="1400" 
d="M154 0v1440l36 12l785 -545v531h272v-1438h-272v580l-553 372v-952h-268zM399 1597q-7 62 4.5 107t37.5 69t57 35t67 11q54 0 127.5 -27t102.5 -27q62 0 86 50l100 -25q5 -58 -8.5 -102.5t-41 -70t-60 -38t-68.5 -12.5q-46 0 -122 27.5t-97 27.5q-38 0 -55 -11.5
t-27 -37.5z" />
    <glyph glyph-name="Ograve" unicode="&#xd2;" horiz-adv-x="1642" 
d="M59 719q0 153 56 290t155 238t242 160t309 59q164 0 307 -59t243 -159.5t157 -238t57 -290.5t-57 -290.5t-157 -238.5t-243 -160t-307 -59q-166 0 -309 59t-242 160t-155 238.5t-56 290.5zM356 719q0 -111 38 -205.5t102 -157.5t148.5 -98t176.5 -35t176 35t149 98
t103.5 157.5t38.5 205.5t-38.5 206t-103.5 158.5t-149.5 99.5t-175.5 36q-92 0 -176.5 -36t-148.5 -99.5t-102 -158.5t-38 -206zM496 1796v35h315l129 -287h-205z" />
    <glyph glyph-name="Oacute" unicode="&#xd3;" horiz-adv-x="1642" 
d="M59 719q0 153 56 290t155 238t242 160t309 59q164 0 307 -59t243 -159.5t157 -238t57 -290.5t-57 -290.5t-157 -238.5t-243 -160t-307 -59q-166 0 -309 59t-242 160t-155 238.5t-56 290.5zM356 719q0 -111 38 -205.5t102 -157.5t148.5 -98t176.5 -35t176 35t149 98
t103.5 157.5t38.5 205.5t-38.5 206t-103.5 158.5t-149.5 99.5t-175.5 36q-92 0 -176.5 -36t-148.5 -99.5t-102 -158.5t-38 -206zM680 1544l129 287h315v-35l-239 -252h-205z" />
    <glyph glyph-name="Ocircumflex" unicode="&#xd4;" horiz-adv-x="1642" 
d="M59 719q0 153 56 290t155 238t242 160t309 59q164 0 307 -59t243 -159.5t157 -238t57 -290.5t-57 -290.5t-157 -238.5t-243 -160t-307 -59q-166 0 -309 59t-242 160t-155 238.5t-56 290.5zM356 719q0 -111 38 -205.5t102 -157.5t148.5 -98t176.5 -35t176 35t149 98
t103.5 157.5t38.5 205.5t-38.5 206t-103.5 158.5t-149.5 99.5t-175.5 36q-92 0 -176.5 -36t-148.5 -99.5t-102 -158.5t-38 -206zM522 1544q19 31 78.5 132t93.5 155h252l172 -287h-192q-13 13 -49.5 51t-57.5 58l-106 -109h-191z" />
    <glyph glyph-name="Otilde" unicode="&#xd5;" horiz-adv-x="1642" 
d="M59 719q0 153 56 290t155 238t242 160t309 59q164 0 307 -59t243 -159.5t157 -238t57 -290.5t-57 -290.5t-157 -238.5t-243 -160t-307 -59q-166 0 -309 59t-242 160t-155 238.5t-56 290.5zM356 719q0 -111 38 -205.5t102 -157.5t148.5 -98t176.5 -35t176 35t149 98
t103.5 157.5t38.5 205.5t-38.5 206t-103.5 158.5t-149.5 99.5t-175.5 36q-92 0 -176.5 -36t-148.5 -99.5t-102 -158.5t-38 -206zM530 1597q-7 62 4.5 107t37.5 69t57 35t67 11q54 0 127.5 -27t102.5 -27q62 0 86 50l100 -25q5 -58 -8.5 -102.5t-41 -70t-60 -38t-68.5 -12.5
q-46 0 -122 27.5t-97 27.5q-38 0 -55 -11.5t-27 -37.5z" />
    <glyph glyph-name="Odieresis" unicode="&#xd6;" horiz-adv-x="1642" 
d="M59 719q0 153 56 290t155 238t242 160t309 59q164 0 307 -59t243 -159.5t157 -238t57 -290.5t-57 -290.5t-157 -238.5t-243 -160t-307 -59q-166 0 -309 59t-242 160t-155 238.5t-56 290.5zM356 719q0 -111 38 -205.5t102 -157.5t148.5 -98t176.5 -35t176 35t149 98
t103.5 157.5t38.5 205.5t-38.5 206t-103.5 158.5t-149.5 99.5t-175.5 36q-92 0 -176.5 -36t-148.5 -99.5t-102 -158.5t-38 -206zM518 1692q0 55 36.5 93t86.5 38q57 0 95 -37.5t38 -93.5q0 -54 -38 -89.5t-95 -35.5q-50 0 -86.5 36t-36.5 89zM850 1692q0 56 37 93.5t92 37.5
q52 0 89.5 -38t37.5 -93q0 -53 -37.5 -89t-89.5 -36q-56 0 -92.5 35.5t-36.5 89.5z" />
    <glyph glyph-name="multiply" unicode="&#xd7;" horiz-adv-x="1052" 
d="M113 942l157 160l258 -262l254 262l150 -148q-29 -29 -118.5 -119.5t-137.5 -140.5l262 -258l-158 -160q-23 22 -116 116.5t-144 144.5l-252 -261l-147 150l254 256z" />
    <glyph glyph-name="Oslash" unicode="&#xd8;" horiz-adv-x="1642" 
d="M59 719q0 153 56 290t155 238t242 160t309 59q145 0 281 -49l106 193l178 -99l-104 -188q142 -104 222.5 -262t80.5 -342q0 -153 -57 -290.5t-157 -238.5t-243 -160t-307 -59q-135 0 -266 43l-129 -235l-174 98l125 225q-150 102 -234 264t-84 353zM356 719
q0 -234 154 -375l467 846q-79 29 -156 29q-92 0 -176.5 -36t-148.5 -99.5t-102 -158.5t-38 -206zM684 244q64 -21 137 -21q92 0 176 35t149 98t103.5 157.5t38.5 205.5q0 218 -141 362z" />
    <glyph glyph-name="Ugrave" unicode="&#xd9;" horiz-adv-x="1370" 
d="M131 506v932h277v-920q0 -130 79.5 -216.5t196.5 -86.5q118 0 198.5 86.5t80.5 216.5v920h278v-932q0 -108 -36 -203.5t-104 -170t-176 -118t-243 -43.5q-134 0 -241 43.5t-173.5 118t-101.5 170t-35 203.5zM358 1796v35h316l129 -287h-205z" />
    <glyph glyph-name="Uacute" unicode="&#xda;" horiz-adv-x="1370" 
d="M131 506v932h277v-920q0 -130 79.5 -216.5t196.5 -86.5q118 0 198.5 86.5t80.5 216.5v920h278v-932q0 -108 -36 -203.5t-104 -170t-176 -118t-243 -43.5q-134 0 -241 43.5t-173.5 118t-101.5 170t-35 203.5zM541 1544l129 287h315v-35l-240 -252h-204z" />
    <glyph glyph-name="Ucircumflex" unicode="&#xdb;" horiz-adv-x="1370" 
d="M131 506v932h277v-920q0 -130 79.5 -216.5t196.5 -86.5q118 0 198.5 86.5t80.5 216.5v920h278v-932q0 -108 -36 -203.5t-104 -170t-176 -118t-243 -43.5q-134 0 -241 43.5t-173.5 118t-101.5 170t-35 203.5zM385 1544q19 31 78.5 132t93.5 155h252l172 -287h-193
q-14 14 -49.5 51.5t-56.5 57.5l-107 -109h-190z" />
    <glyph glyph-name="Udieresis" unicode="&#xdc;" horiz-adv-x="1370" 
d="M131 506v932h277v-920q0 -130 79.5 -216.5t196.5 -86.5q118 0 198.5 86.5t80.5 216.5v920h278v-932q0 -108 -36 -203.5t-104 -170t-176 -118t-243 -43.5q-134 0 -241 43.5t-173.5 118t-101.5 170t-35 203.5zM375 1692q0 55 36.5 93t86.5 38q57 0 95 -37.5t38 -93.5
q0 -54 -38 -89.5t-95 -35.5q-50 0 -86.5 36t-36.5 89zM707 1692q0 56 37 93.5t92 37.5q52 0 89.5 -38t37.5 -93q0 -53 -37.5 -89t-89.5 -36q-56 0 -92.5 35.5t-36.5 89.5z" />
    <glyph glyph-name="Yacute" unicode="&#xdd;" horiz-adv-x="1280" 
d="M4 1438h326l315 -496l316 496h313l-496 -789v-649h-278v649zM506 1544l129 287h315v-35l-239 -252h-205z" />
    <glyph glyph-name="Thorn" unicode="&#xde;" horiz-adv-x="1150" 
d="M154 0v1438h276v-195h41q291 0 460 -139t169 -383q0 -245 -171.5 -391t-461.5 -146h-37v-184h-276zM430 430q18 -2 53 -2q165 0 253.5 83.5t88.5 211.5q0 123 -86 197.5t-247 74.5q-42 0 -62 -2v-563z" />
    <glyph glyph-name="germandbls" unicode="&#xdf;" horiz-adv-x="1056" 
d="M102 0v1075q0 173 107 287.5t295 114.5q73 0 137 -23t110 -60.5t80 -85t52 -96.5t22 -96q-62 -136 -149 -332q34 -4 76.5 -32.5t82 -74t66.5 -114t27 -141.5q0 -151 -76.5 -258.5t-203.5 -149t-277 -14.5q13 74 32 213q105 -9 180.5 49.5t75.5 169.5q0 103 -75.5 168
t-178.5 45q-20 23 -34 43q52 114 180 408q-2 61 -39 100t-98 39q-64 0 -98 -47t-34 -111v-1077h-260z" />
    <glyph glyph-name="agrave" unicode="&#xe0;" horiz-adv-x="980" 
d="M45 254q0 128 93.5 209.5t232.5 81.5q88 0 161.5 -32t110.5 -69v35q0 81 -59 134t-146 53q-74 0 -120 -12.5t-95 -37.5l-65 195q49 27 136.5 48t172.5 20q192 -3 307.5 -116t116.5 -308l-2 -455h-146l-90 92q-34 -49 -103 -85t-175 -36q-136 0 -233 80t-97 203zM172 1225
v35h315l129 -287h-204zM303 264q0 -44 41 -74t96 -30q73 0 130.5 35t72.5 88v12q-31 34 -86.5 57.5t-118.5 22.5q-61 0 -98 -32.5t-37 -78.5z" />
    <glyph glyph-name="aacute" unicode="&#xe1;" horiz-adv-x="980" 
d="M45 254q0 128 93.5 209.5t232.5 81.5q88 0 161.5 -32t110.5 -69v35q0 81 -59 134t-146 53q-74 0 -120 -12.5t-95 -37.5l-65 195q49 27 136.5 48t172.5 20q192 -3 307.5 -116t116.5 -308l-2 -455h-146l-90 92q-34 -49 -103 -85t-175 -36q-136 0 -233 80t-97 203zM303 264
q0 -44 41 -74t96 -30q73 0 130.5 35t72.5 88v12q-31 34 -86.5 57.5t-118.5 22.5q-61 0 -98 -32.5t-37 -78.5zM334 973l129 287h315v-35l-239 -252h-205z" />
    <glyph glyph-name="acircumflex" unicode="&#xe2;" horiz-adv-x="980" 
d="M45 254q0 128 93.5 209.5t232.5 81.5q88 0 161.5 -32t110.5 -69v35q0 81 -59 134t-146 53q-74 0 -120 -12.5t-95 -37.5l-65 195q49 27 136.5 48t172.5 20q192 -3 307.5 -116t116.5 -308l-2 -455h-146l-90 92q-34 -49 -103 -85t-175 -36q-136 0 -233 80t-97 203zM190 973
q19 31 78.5 132t93.5 155h252l172 -287h-192q-10 10 -47.5 49t-59.5 59l-106 -108h-191zM303 264q0 -44 41 -74t96 -30q73 0 130.5 35t72.5 88v12q-31 34 -86.5 57.5t-118.5 22.5q-61 0 -98 -32.5t-37 -78.5z" />
    <glyph glyph-name="atilde" unicode="&#xe3;" horiz-adv-x="980" 
d="M45 254q0 128 93.5 209.5t232.5 81.5q88 0 161.5 -32t110.5 -69v35q0 81 -59 134t-146 53q-74 0 -120 -12.5t-95 -37.5l-65 195q49 27 136.5 48t172.5 20q192 -3 307.5 -116t116.5 -308l-2 -455h-146l-90 92q-34 -49 -103 -85t-175 -36q-136 0 -233 80t-97 203zM203 1026
q-7 62 4.5 107t37.5 68.5t57 34.5t67 11q54 0 127 -26.5t102 -26.5q62 0 86 49l100 -24q5 -58 -8.5 -103t-41 -70.5t-60 -38t-68.5 -12.5q-46 0 -122 28t-97 28q-38 0 -55 -12t-27 -38zM303 264q0 -44 41 -74t96 -30q73 0 130.5 35t72.5 88v12q-31 34 -86.5 57.5
t-118.5 22.5q-61 0 -98 -32.5t-37 -78.5z" />
    <glyph glyph-name="adieresis" unicode="&#xe4;" horiz-adv-x="980" 
d="M45 254q0 128 93.5 209.5t232.5 81.5q88 0 161.5 -32t110.5 -69v35q0 81 -59 134t-146 53q-74 0 -120 -12.5t-95 -37.5l-65 195q49 27 136.5 48t172.5 20q192 -3 307.5 -116t116.5 -308l-2 -455h-146l-90 92q-34 -49 -103 -85t-175 -36q-136 0 -233 80t-97 203zM193 1120
q0 55 36 93t86 38q57 0 95.5 -37.5t38.5 -93.5q0 -54 -38.5 -89.5t-95.5 -35.5q-50 0 -86 36t-36 89zM303 264q0 -44 41 -74t96 -30q73 0 130.5 35t72.5 88v12q-31 34 -86.5 57.5t-118.5 22.5q-61 0 -98 -32.5t-37 -78.5zM524 1120q0 56 37 93.5t92 37.5q52 0 89.5 -38
t37.5 -93q0 -53 -37.5 -89t-89.5 -36q-56 0 -92.5 35.5t-36.5 89.5z" />
    <glyph glyph-name="aring" unicode="&#xe5;" horiz-adv-x="978" 
d="M49 248q0 129 91.5 206.5t244.5 77.5q140 0 258 -65v31q0 69 -62.5 119.5t-148.5 50.5q-106 0 -225 -45l-55 194q66 30 137 45q-47 62 -47 144q0 107 76.5 183.5t185.5 76.5q110 0 187 -76t77 -184q0 -107 -78 -179q198 -105 201 -362l-2 -465h-146l-90 86
q-33 -42 -103 -78.5t-173 -36.5q-141 0 -234.5 79t-93.5 198zM307 258q0 -42 41 -70t90 -28q73 0 138.5 41t66.5 90v8q-33 24 -89 42t-118 17q-58 0 -93.5 -28.5t-35.5 -71.5zM389 1008q0 -47 34 -82t81 -35q50 0 83.5 34.5t33.5 82.5q0 50 -33 84t-84 34q-47 0 -81 -34.5
t-34 -83.5z" />
    <glyph glyph-name="ae" unicode="&#xe6;" horiz-adv-x="1583" 
d="M45 254q0 128 93.5 209.5t232.5 81.5q88 0 161.5 -32t110.5 -69v35q0 81 -59 134t-146 53q-74 0 -120 -12.5t-95 -37.5l-65 195q49 27 136.5 48t172.5 20q199 -3 315 -125q130 127 318 127q195 0 317 -141.5t113 -364.5h-623q8 -82 85.5 -140.5t187.5 -58.5q127 0 247 74
l95 -170q-134 -107 -375 -107q-116 0 -215 42t-168 116q-44 -52 -95.5 -86t-105 -49t-95.5 -20t-93 -5q-136 0 -233 80t-97 203zM303 264q0 -44 41 -74t96 -30q73 0 130.5 35t72.5 88v12q-31 34 -86.5 57.5t-118.5 22.5q-61 0 -98 -32.5t-37 -78.5zM922 537h344
q-6 61 -53.5 102t-112.5 41q-70 0 -120 -45t-58 -98z" />
    <glyph glyph-name="ccedilla" unicode="&#xe7;" horiz-adv-x="913" 
d="M49 426q0 128 63.5 233t171 163.5t236.5 58.5q220 0 363 -170l-148 -154q-27 39 -81 76t-113 37q-96 0 -163 -66t-67 -180q0 -111 69 -176.5t163 -65.5q54 0 108 27t94 65l134 -147q-107 -121 -267 -147q70 -67 70 -150q0 -78 -46 -133.5t-114.5 -80t-150.5 -24.5
q-21 0 -82 9q0 134 2 204q24 -6 47 -6q56 0 93.5 27t37.5 72q0 52 -35 79q-167 28 -276 155.5t-109 293.5z" />
    <glyph glyph-name="egrave" unicode="&#xe8;" horiz-adv-x="978" 
d="M47 426q0 132 61.5 237t163.5 161.5t224 56.5q195 0 317 -141.5t113 -364.5h-623q8 -82 85 -140.5t187 -58.5q128 0 248 74l95 -170q-134 -107 -375 -107q-140 0 -254 60t-178 163.5t-64 229.5zM195 1225v35h315l129 -287h-205zM317 537h345q-6 61 -53.5 102t-112.5 41
q-70 0 -120.5 -45.5t-58.5 -97.5z" />
    <glyph glyph-name="eacute" unicode="&#xe9;" horiz-adv-x="978" 
d="M47 426q0 132 61.5 237t163.5 161.5t224 56.5q195 0 317 -141.5t113 -364.5h-623q8 -82 85 -140.5t187 -58.5q128 0 248 74l95 -170q-134 -107 -375 -107q-140 0 -254 60t-178 163.5t-64 229.5zM317 537h345q-6 61 -53.5 102t-112.5 41q-70 0 -120.5 -45.5t-58.5 -97.5z
M346 973l129 287h316v-35l-240 -252h-205z" />
    <glyph glyph-name="ecircumflex" unicode="&#xea;" horiz-adv-x="978" 
d="M47 426q0 132 61.5 237t163.5 161.5t224 56.5q195 0 317 -141.5t113 -364.5h-623q8 -82 85 -140.5t187 -58.5q128 0 248 74l95 -170q-134 -107 -375 -107q-140 0 -254 60t-178 163.5t-64 229.5zM199 973q19 31 78.5 132t93.5 155h252l172 -287h-193q-13 13 -49 50.5
t-57 57.5l-107 -108h-190zM317 537h345q-6 61 -53.5 102t-112.5 41q-70 0 -120.5 -45.5t-58.5 -97.5z" />
    <glyph glyph-name="edieresis" unicode="&#xeb;" horiz-adv-x="978" 
d="M47 426q0 132 61.5 237t163.5 161.5t224 56.5q195 0 317 -141.5t113 -364.5h-623q8 -82 85 -140.5t187 -58.5q128 0 248 74l95 -170q-134 -107 -375 -107q-140 0 -254 60t-178 163.5t-64 229.5zM195 1120q0 55 36 93t86 38q57 0 95.5 -37.5t38.5 -93.5q0 -54 -38.5 -89.5
t-95.5 -35.5q-50 0 -86 36t-36 89zM317 537h345q-6 61 -53.5 102t-112.5 41q-70 0 -120.5 -45.5t-58.5 -97.5zM526 1120q0 56 37 93.5t92 37.5q52 0 89.5 -38t37.5 -93q0 -53 -37.5 -89t-89.5 -36q-56 0 -92.5 35.5t-36.5 89.5z" />
    <glyph glyph-name="igrave" unicode="&#xec;" horiz-adv-x="475" 
d="M-80 1225v35h316l129 -287h-205zM111 0v852h254v-852h-254z" />
    <glyph glyph-name="iacute" unicode="&#xed;" horiz-adv-x="475" 
d="M111 0v852h254v-852h-254zM111 973l129 287h315v-35l-240 -252h-204z" />
    <glyph glyph-name="icircumflex" unicode="&#xee;" horiz-adv-x="475" 
d="M-59 973q19 31 78.5 132t93.5 155h252l172 -287h-193q-13 13 -49 50.5t-57 57.5l-107 -108h-190zM111 0v852h254v-852h-254z" />
    <glyph glyph-name="idieresis" unicode="&#xef;" horiz-adv-x="475" 
d="M-55 1120q0 55 36.5 93t86.5 38q57 0 95 -37.5t38 -93.5q0 -54 -38 -89.5t-95 -35.5q-50 0 -86.5 36t-36.5 89zM111 0v852h254v-852h-254zM276 1120q0 56 37.5 93.5t92.5 37.5q52 0 89 -38t37 -93q0 -53 -37 -89t-89 -36q-56 0 -93 35.5t-37 89.5z" />
    <glyph glyph-name="eth" unicode="&#xf0;" horiz-adv-x="1054" 
d="M47 426q0 200 132.5 327.5t336.5 127.5q126 0 195 -66q-37 161 -183 283l-88 -123q-143 93 -155 100l86 115q-123 60 -234 74l-24 30q29 63 71 168q163 -24 312 -98l86 117l155 -109q-56 -73 -82 -104q351 -272 351 -770q0 -129 -37.5 -230.5t-103.5 -165t-152.5 -96.5
t-188.5 -33q-202 0 -339.5 127.5t-137.5 325.5zM311 426q0 -113 63 -179.5t150 -66.5q85 0 149 66.5t64 179.5t-62.5 180.5t-152.5 67.5t-150.5 -66.5t-60.5 -181.5z" />
    <glyph glyph-name="ntilde" unicode="&#xf1;" horiz-adv-x="1046" 
d="M102 0v852h144l102 -86q100 115 273 115q148 0 244 -97t96 -256v-528h-263v492q0 75 -46.5 125.5t-121.5 50.5q-67 0 -117.5 -49.5t-50.5 -124.5v-494h-260zM256 1026q-7 62 4.5 107t37.5 68.5t57 34.5t67 11q54 0 127 -26.5t102 -26.5q62 0 86 49l101 -24q5 -58 -9 -103
t-41 -70.5t-60 -38t-69 -12.5q-46 0 -122 28t-97 28q-38 0 -55 -12t-27 -38z" />
    <glyph glyph-name="ograve" unicode="&#xf2;" horiz-adv-x="1050" 
d="M49 428q0 132 66 237t174.5 160.5t236.5 55.5q127 0 235 -55.5t174 -160.5t66 -237t-66 -238t-175 -162.5t-238 -56.5q-126 0 -233.5 56.5t-173.5 162.5t-66 238zM203 1225v35h315l129 -287h-205zM311 428q0 -113 62.5 -180.5t148.5 -67.5q88 0 150.5 67t62.5 181
t-63 180t-150 66q-88 0 -149.5 -65.5t-61.5 -180.5z" />
    <glyph glyph-name="oacute" unicode="&#xf3;" horiz-adv-x="1050" 
d="M49 428q0 132 66 237t174.5 160.5t236.5 55.5q127 0 235 -55.5t174 -160.5t66 -237t-66 -238t-175 -162.5t-238 -56.5q-126 0 -233.5 56.5t-173.5 162.5t-66 238zM311 428q0 -113 62.5 -180.5t148.5 -67.5q88 0 150.5 67t62.5 181t-63 180t-150 66q-88 0 -149.5 -65.5
t-61.5 -180.5zM371 973l129 287h315v-35l-240 -252h-204z" />
    <glyph glyph-name="ocircumflex" unicode="&#xf4;" horiz-adv-x="1050" 
d="M49 428q0 132 66 237t174.5 160.5t236.5 55.5q127 0 235 -55.5t174 -160.5t66 -237t-66 -238t-175 -162.5t-238 -56.5q-126 0 -233.5 56.5t-173.5 162.5t-66 238zM225 973q19 31 78.5 132t93.5 155h252l172 -287h-192q-10 10 -47.5 49t-59.5 59l-106 -108h-191zM311 428
q0 -113 62.5 -180.5t148.5 -67.5q88 0 150.5 67t62.5 181t-63 180t-150 66q-88 0 -149.5 -65.5t-61.5 -180.5z" />
    <glyph glyph-name="otilde" unicode="&#xf5;" horiz-adv-x="1050" 
d="M49 428q0 132 66 237t174.5 160.5t236.5 55.5q127 0 235 -55.5t174 -160.5t66 -237t-66 -238t-175 -162.5t-238 -56.5q-126 0 -233.5 56.5t-173.5 162.5t-66 238zM233 1026q-7 62 4.5 107t37.5 68.5t57 34.5t67 11q54 0 127.5 -26.5t102.5 -26.5q62 0 86 49l100 -24
q5 -58 -8.5 -103t-41 -70.5t-60 -38t-68.5 -12.5q-46 0 -122 28t-97 28q-38 0 -55 -12t-27 -38zM311 428q0 -113 62.5 -180.5t148.5 -67.5q88 0 150.5 67t62.5 181t-63 180t-150 66q-88 0 -149.5 -65.5t-61.5 -180.5z" />
    <glyph glyph-name="odieresis" unicode="&#xf6;" horiz-adv-x="1050" 
d="M49 428q0 132 66 237t174.5 160.5t236.5 55.5q127 0 235 -55.5t174 -160.5t66 -237t-66 -238t-175 -162.5t-238 -56.5q-126 0 -233.5 56.5t-173.5 162.5t-66 238zM217 1120q0 55 36.5 93t86.5 38q57 0 95 -37.5t38 -93.5q0 -54 -38 -89.5t-95 -35.5q-50 0 -86.5 36
t-36.5 89zM311 428q0 -113 62.5 -180.5t148.5 -67.5q88 0 150.5 67t62.5 181t-63 180t-150 66q-88 0 -149.5 -65.5t-61.5 -180.5zM549 1120q0 56 37 93.5t92 37.5q52 0 89.5 -38t37.5 -93q0 -53 -37.5 -89t-89.5 -36q-56 0 -92.5 35.5t-36.5 89.5z" />
    <glyph glyph-name="divide" unicode="&#xf7;" horiz-adv-x="999" 
d="M72 588v229h856v-229h-856zM375 365q0 51 37.5 87.5t89.5 36.5t88.5 -36.5t36.5 -87.5q0 -55 -36 -90t-89 -35t-90 35t-37 90zM375 1047q0 53 37.5 90t89.5 37t88.5 -37t36.5 -90q0 -55 -36 -90t-89 -35t-90 35t-37 90z" />
    <glyph glyph-name="oslash" unicode="&#xf8;" horiz-adv-x="1050" 
d="M49 428q0 132 66 237t174.5 160.5t236.5 55.5q74 0 154 -23l80 150l127 -62l-80 -149q91 -62 142.5 -156.5t51.5 -212.5q0 -132 -66 -238t-175 -162.5t-238 -56.5q-63 0 -145 21l-90 -170l-123 65l86 164q-92 61 -146.5 158.5t-54.5 218.5zM311 428q0 -105 51 -168
l216 406q-36 8 -56 8q-88 0 -149.5 -65.5t-61.5 -180.5zM479 184q14 -4 43 -4q88 0 150.5 67t62.5 181q0 92 -43 154z" />
    <glyph glyph-name="ugrave" unicode="&#xf9;" horiz-adv-x="1052" 
d="M92 324v528h262v-492q0 -75 46 -125.5t122 -50.5q67 0 117.5 49.5t50.5 124.5v494h260v-852h-159l-86 88q-102 -117 -273 -117q-148 0 -244 97t-96 256zM201 1225v35h315l129 -287h-205z" />
    <glyph glyph-name="uacute" unicode="&#xfa;" horiz-adv-x="1052" 
d="M92 324v528h262v-492q0 -75 46 -125.5t122 -50.5q67 0 117.5 49.5t50.5 124.5v494h260v-852h-159l-86 88q-102 -117 -273 -117q-148 0 -244 97t-96 256zM383 973l129 287h317v-35l-241 -252h-205z" />
    <glyph glyph-name="ucircumflex" unicode="&#xfb;" horiz-adv-x="1052" 
d="M92 324v528h262v-492q0 -32 23 -55q12 -51 48 -86t95 -35q68 0 118 49t50 125v494h262v-852h-159l-86 86q-99 -113 -273 -113q-150 0 -245 96t-95 255zM223 973l172 287h252q34 -54 93.5 -155t78.5 -132h-190q-90 90 -109 108l-104 -108h-193z" />
    <glyph glyph-name="udieresis" unicode="&#xfc;" horiz-adv-x="1052" 
d="M92 324v528h262v-492q0 -75 46 -125.5t122 -50.5q67 0 117.5 49.5t50.5 124.5v494h260v-852h-159l-86 88q-102 -117 -273 -117q-148 0 -244 97t-96 256zM209 1120q0 54 37.5 92.5t85.5 38.5q58 0 95.5 -37.5t37.5 -93.5q0 -54 -37.5 -89.5t-95.5 -35.5q-49 0 -86 36
t-37 89zM541 1120q0 56 37 93.5t92 37.5q53 0 90 -38t37 -93q0 -53 -37 -89t-90 -36q-56 0 -92.5 35.5t-36.5 89.5z" />
    <glyph glyph-name="yacute" unicode="&#xfd;" horiz-adv-x="1011" 
d="M4 852h291l217 -455l217 455h270l-639 -1364h-249l-23 20l287 594zM383 973l129 287h315v-35l-239 -252h-205z" />
    <glyph glyph-name="thorn" unicode="&#xfe;" horiz-adv-x="1099" 
d="M102 -506v1944l236 24h24v-704q41 55 116 89t155 34q179 0 298.5 -129t119.5 -328q0 -197 -122.5 -324t-299.5 -127q-83 0 -158.5 33t-108.5 86v-571l-237 -27h-23zM365 422q0 -109 61.5 -175.5t146.5 -66.5q87 0 149 65t62 179t-61 181t-148 67q-86 0 -147.5 -63
t-62.5 -179v-8z" />
    <glyph glyph-name="ydieresis" unicode="&#xff;" horiz-adv-x="1011" 
d="M4 852h291l217 -455l217 455h270l-639 -1364h-249l-23 20l287 594zM215 1120q0 55 36.5 93t86.5 38q57 0 95 -37.5t38 -93.5q0 -54 -38 -89.5t-95 -35.5q-50 0 -86.5 36t-36.5 89zM547 1120q0 56 37 93.5t92 37.5q52 0 89.5 -38t37.5 -93q0 -53 -37.5 -89t-89.5 -36
q-56 0 -92.5 35.5t-36.5 89.5z" />
    <glyph glyph-name="OE" unicode="&#x152;" horiz-adv-x="1949" 
d="M57 721q0 62 11 126t38 137.5t68.5 139.5t108 127.5t150 106t200.5 71.5t254 27q113 0 248 -18h686v-236h-559v-287h450v-235h-450v-447h579v-233h-706q-129 -20 -250 -20q-138 0 -255.5 27.5t-201 73t-149.5 108t-107 129.5t-67.5 141t-37 137.5t-10.5 124.5zM358 721
q0 -121 41.5 -218t113 -158t165.5 -93.5t201 -32.5q57 0 106 8v977q-68 10 -121 10q-116 0 -212.5 -40t-160 -108t-98.5 -157t-35 -188z" />
    <glyph glyph-name="oe" unicode="&#x153;" horiz-adv-x="1671" 
d="M49 428q0 132 66 237t174.5 160.5t236.5 55.5q203 0 340 -131q62 62 145.5 96.5t176.5 34.5q195 0 317 -141.5t113 -364.5h-623q13 -89 89 -144t184 -55q128 0 248 74l94 -170q-134 -107 -375 -107q-215 0 -363 138q-66 -66 -157.5 -103t-192.5 -37q-126 0 -233.5 56.5
t-173.5 162.5t-66 238zM311 428q0 -113 62.5 -180.5t148.5 -67.5q88 0 150.5 67t62.5 181t-63 180t-150 66q-88 0 -149.5 -65.5t-61.5 -180.5zM1010 537h344q-6 61 -53.5 102t-112.5 41q-70 0 -120 -45t-58 -98z" />
    <glyph glyph-name="Ydieresis" unicode="&#x178;" horiz-adv-x="1280" 
d="M4 1438h326l315 -496l316 496h313l-496 -789v-649h-278v649zM338 1692q0 55 36.5 93t86.5 38q57 0 95 -37.5t38 -93.5q0 -54 -38 -89.5t-95 -35.5q-50 0 -86.5 36t-36.5 89zM670 1692q0 56 37 93.5t92 37.5q52 0 89.5 -38t37.5 -93q0 -53 -37.5 -89t-89.5 -36
q-56 0 -92.5 35.5t-36.5 89.5z" />
    <glyph glyph-name="circumflex" unicode="&#x2c6;" horiz-adv-x="718" 
d="M61 973q19 31 78.5 132t93.5 155h252l172 -287h-192q-10 10 -47.5 49t-59.5 59l-106 -108h-191z" />
    <glyph glyph-name="tilde" unicode="&#x2dc;" horiz-adv-x="712" 
d="M66 1026q-7 62 4.5 107t37 68.5t56.5 34.5t67 11q54 0 127.5 -26.5t102.5 -26.5q62 0 86 49l100 -24q5 -58 -8.5 -103t-41 -70.5t-60 -38t-68.5 -12.5q-46 0 -122 28t-97 28q-38 0 -55 -12t-27 -38z" />
    <glyph glyph-name="uni2000" unicode="&#x2000;" horiz-adv-x="918" 
 />
    <glyph glyph-name="uni2001" unicode="&#x2001;" horiz-adv-x="1837" 
 />
    <glyph glyph-name="uni2002" unicode="&#x2002;" horiz-adv-x="918" 
 />
    <glyph glyph-name="uni2003" unicode="&#x2003;" horiz-adv-x="1837" 
 />
    <glyph glyph-name="uni2004" unicode="&#x2004;" horiz-adv-x="612" 
 />
    <glyph glyph-name="uni2005" unicode="&#x2005;" horiz-adv-x="459" 
 />
    <glyph glyph-name="uni2006" unicode="&#x2006;" horiz-adv-x="306" 
 />
    <glyph glyph-name="uni2007" unicode="&#x2007;" horiz-adv-x="306" 
 />
    <glyph glyph-name="uni2008" unicode="&#x2008;" horiz-adv-x="229" 
 />
    <glyph glyph-name="uni2009" unicode="&#x2009;" horiz-adv-x="367" 
 />
    <glyph glyph-name="uni200A" unicode="&#x200a;" horiz-adv-x="102" 
 />
    <glyph glyph-name="uni2010" unicode="&#x2010;" horiz-adv-x="727" 
d="M72 303v240l583 90v-240z" />
    <glyph glyph-name="uni2011" unicode="&#x2011;" horiz-adv-x="727" 
d="M72 303v240l583 90v-240z" />
    <glyph glyph-name="figuredash" unicode="&#x2012;" horiz-adv-x="727" 
d="M72 303v240l583 90v-240z" />
    <glyph glyph-name="endash" unicode="&#x2013;" horiz-adv-x="1007" 
d="M72 391v230h864v-230h-864z" />
    <glyph glyph-name="emdash" unicode="&#x2014;" horiz-adv-x="1579" 
d="M72 391v230h1435v-230h-1435z" />
    <glyph glyph-name="quoteleft" unicode="&#x2018;" horiz-adv-x="571" 
d="M78 836l284 622l91 -22l-72 -637h-301z" />
    <glyph glyph-name="quoteright" unicode="&#x2019;" horiz-adv-x="571" 
d="M111 801l71 637h301l2 -37l-284 -623z" />
    <glyph glyph-name="quotesinglbase" unicode="&#x201a;" horiz-adv-x="571" 
d="M84 -324l72 637h301l2 -37l-285 -622z" />
    <glyph glyph-name="quotedblleft" unicode="&#x201c;" horiz-adv-x="989" 
d="M78 836l284 622l91 -22l-72 -637h-301zM498 836l284 622l90 -22l-71 -637h-301z" />
    <glyph glyph-name="quotedblright" unicode="&#x201d;" horiz-adv-x="989" 
d="M111 801l71 637h301l2 -37l-284 -623zM530 801l72 637h301l2 -37l-284 -623z" />
    <glyph glyph-name="quotedblbase" unicode="&#x201e;" horiz-adv-x="997" 
d="M84 -324l72 637h301l2 -37l-285 -622zM510 -324l72 637h301l2 -37l-285 -622z" />
    <glyph glyph-name="bullet" unicode="&#x2022;" horiz-adv-x="768" 
d="M133 500q0 103 71.5 178.5t178.5 75.5q101 0 176.5 -76.5t75.5 -177.5q0 -106 -74.5 -178t-177.5 -72q-108 0 -179 71t-71 179z" />
    <glyph glyph-name="ellipsis" unicode="&#x2026;" horiz-adv-x="1716" 
d="M113 152q0 69 51 120.5t121 51.5q71 0 122.5 -51t51.5 -121q0 -74 -50.5 -123t-123.5 -49q-72 0 -122 49t-50 123zM684 152q0 69 51 120.5t121 51.5q72 0 123 -51t51 -121q0 -74 -50.5 -123t-123.5 -49q-72 0 -122 49t-50 123zM1257 152q0 69 51.5 120.5t121.5 51.5
q72 0 123 -51t51 -121q0 -74 -50.5 -123t-123.5 -49q-72 0 -122.5 49t-50.5 123z" />
    <glyph glyph-name="uni202F" unicode="&#x202f;" horiz-adv-x="367" 
 />
    <glyph glyph-name="guilsinglleft" unicode="&#x2039;" horiz-adv-x="716" 
d="M55 416v43l416 459l174 -130l-303 -346l303 -340l-178 -133z" />
    <glyph glyph-name="guilsinglright" unicode="&#x203a;" horiz-adv-x="716" 
d="M72 98l303 346l-303 340l178 134l412 -447v-43l-416 -459z" />
    <glyph glyph-name="uni205F" unicode="&#x205f;" horiz-adv-x="459" 
 />
    <glyph glyph-name="Euro" unicode="&#x20ac;" horiz-adv-x="1468" 
d="M0 432v2v25q2 24 8 70.5t8 68.5h170q-4 54 -4 72q0 11 4 57h-145v25q2 24 8 72t8 71h160q71 213 254 340t422 127q297 0 516 -199l-168 -178q-28 26 -53 45t-68 45t-97 40.5t-114 14.5q-123 0 -224.5 -63t-154.5 -172h549v-2v-25l-18 -141h-586q-4 -46 -4 -55
q0 -30 6 -74h561v-25l-18 -141h-485q51 -105 154 -166t233 -61q190 0 340 125q16 -19 151 -164q-94 -92 -216.5 -143.5t-297.5 -51.5q-241 0 -421.5 127t-254.5 334h-223z" />
    <glyph glyph-name="trademark" unicode="&#x2122;" horiz-adv-x="1675" 
d="M61 1276v162h652v-162h-236v-631h-182v631h-234zM805 645v793l35 8l340 -348l364 348l35 -8v-793h-180v430l-203 -201h-16l-195 189v-418h-180z" />
    <glyph glyph-name="uni25FC" unicode="&#x25fc;" horiz-adv-x="849" 
d="M0 0v850h850v-850h-850z" />
    </font>
</defs>
</svg>
