<?xml version="1.0" standalone="no"?>
<!DOCTYPE svg PUBLIC "-//W3C//DTD SVG 1.1//EN" "http://www.w3.org/Graphics/SVG/1.1/DTD/svg11.dtd" >
<svg xmlns="http://www.w3.org/2000/svg" xmlns:xlink="http://www.w3.org/1999/xlink" version="1.1">
<metadata>
Created by FontForge 20190801 at Tue Jul 11 15:09:11 2017
 By Jimmy Wärting
Copyright (c) 2015-2016 The Mada Project Authors, with Reserved Font Name "Source". Source is a trademark of Adobe Systems Incorporated in the United States and/or other countries.
</metadata>
<defs>
<font id="Mada-Bold" horiz-adv-x="0" >
  <font-face 
    font-family="Mada"
    font-weight="700"
    font-stretch="normal"
    units-per-em="1000"
    panose-1="0 0 0 0 0 0 0 0 0 0"
    ascent="800"
    descent="-200"
    x-height="496"
    cap-height="652"
    bbox="-198 -359 1060.1 894"
    underline-thickness="50"
    underline-position="-125"
    unicode-range="U+0020-25CC"
  />
<missing-glyph horiz-adv-x="500" 
d="M50 -200h400v1000h-400v-1000zM100 -150v900h300v-900h-300z" />
    <glyph glyph-name="arLam.init" unicode="&#x644;" horiz-adv-x="341" arabic-form="initial" 
d="M0 0v147h138v477h147v-498q0 -53 -37.5 -89.5t-89.5 -36.5h-158z" />
    <glyph glyph-name="arLam.medi" unicode="&#x644;" horiz-adv-x="285" arabic-form="medial" 
d="M0 0v147h138v477h147v-498q0 -53 -37.5 -89.5t-89.5 -36.5h-158z" />
    <glyph glyph-name="arLam.fina" unicode="&#x644;" horiz-adv-x="572" arabic-form="final" 
d="M185 -148q-53 0 -91 36.5t-38 90.5v189h148v-169h220v625h148v-644q0 -52 -37 -90t-91 -38h-259z" />
    <glyph glyph-name="arLam.isol" unicode="&#x644;" horiz-adv-x="628" arabic-form="isolated" 
d="M185 -148q-53 0 -91 36.5t-38 90.5v189h148v-169h220v625h148v-644q0 -52 -37 -90t-91 -38h-259z" />
    <glyph glyph-name="arBeh.init" unicode="&#x66e;" horiz-adv-x="472" 
d="M0 0v147h268v251h148v-272q0 -53 -37.5 -89.5t-89.5 -36.5h-289z" />
    <glyph glyph-name="arBeh.medi" unicode="&#x66e;" horiz-adv-x="416" 
d="M0 0v147h268v251h148v-272q0 -53 -37.5 -89.5t-89.5 -36.5h-289z" />
    <glyph glyph-name="arBeh.fina" unicode="&#x66e;" horiz-adv-x="766" 
d="M248 0q-72 0 -132 50t-60 131v140h148v-140q0 -9 11 -21.5t33 -12.5h370v174h148v-195q0 -52 -37 -89t-89 -37h-392z" />
    <glyph glyph-name="arBeh.isol" unicode="&#x66e;" horiz-adv-x="822" 
d="M248 0q-72 0 -132 50t-60 131v140h148v-140q0 -9 11 -21.5t33 -12.5h370v174h148v-195q0 -52 -37 -89t-89 -37h-392z" />
    <glyph glyph-name="arMeem.init" unicode="&#x645;" horiz-adv-x="581" arabic-form="initial" 
d="M258 251v-104h38q52 0 66.5 14t14.5 21q0 8 -9.5 31t-43.5 58q-12 13 -28 14t-25 -4q-8 -3 -10.5 -11.5t-2.5 -18.5zM128 0h-128v147h110v112q0 76 52 126q56 53 135 49t134 -62q44 -46 69 -93t25 -96q0 -67 -37.5 -107t-90.5 -58t-101 -18h-66v46q-15 -21 -40.5 -33.5
t-61.5 -12.5z" />
    <glyph glyph-name="arMeem.medi" unicode="&#x645;" horiz-adv-x="525" arabic-form="medial" 
d="M258 251v-104h38q52 0 66.5 14t14.5 21q0 8 -9.5 31t-43.5 58q-12 13 -28 14t-25 -4q-8 -3 -10.5 -11.5t-2.5 -18.5zM128 0h-128v147h110v112q0 76 52 126q56 53 135 49t134 -62q44 -46 69 -93t25 -96q0 -67 -37.5 -107t-90.5 -58t-101 -18h-66v46q-15 -21 -40.5 -33.5
t-61.5 -12.5z" />
    <glyph glyph-name="arMeem.fina" unicode="&#x645;" horiz-adv-x="721" arabic-form="final" 
d="M56 147h140l123 -147h-140zM454 251v-104h38q52 0 66.5 14t14.5 21q0 8 -9.5 31t-43.5 58q-12 13 -28 14t-25 -4q-8 -3 -10.5 -11.5t-2.5 -18.5zM324 0h-128v147h110v112q0 76 52 126q56 53 135 49t134 -62q44 -46 69 -93t25 -96q0 -67 -37.5 -107t-90.5 -58t-101 -18
h-66v46q-15 -21 -40.5 -33.5t-61.5 -12.5z" />
    <glyph glyph-name="arMeem.isol" unicode="&#x645;" horiz-adv-x="777" arabic-form="isolated" 
d="M56 147h140l123 -147h-140zM454 251v-104h38q52 0 66.5 14t14.5 21q0 8 -9.5 31t-43.5 58q-12 13 -28 14t-25 -4q-8 -3 -10.5 -11.5t-2.5 -18.5zM324 0h-128v147h110v112q0 76 52 126q56 53 135 49t134 -62q44 -46 69 -93t25 -96q0 -67 -37.5 -107t-90.5 -58t-101 -18
h-66v46q-15 -21 -40.5 -33.5t-61.5 -12.5z" />
    <glyph glyph-name="arTah.init" unicode="&#x637;" horiz-adv-x="717" arabic-form="initial" 
d="M-7 0v147h90v477h148v-514h-92v-110h-146zM481 272q-26 9 -68 -25.5t-93 -99.5h192v44q-1 50 -11 63t-20 18zM113 0v147h25q32 46 72.5 101t89 101.5t107 66t128.5 -6.5q65 -27 93.5 -85.5t30.5 -129.5l2 -66q2 -53 -36 -90.5t-91 -37.5h-421z" />
    <glyph glyph-name="arTah.medi" unicode="&#x637;" horiz-adv-x="661" arabic-form="medial" 
d="M-7 0v147h90v477h148v-514h-92v-110h-146zM481 272q-26 9 -68 -25.5t-93 -99.5h192v44q-1 50 -11 63t-20 18zM113 0v147h25q32 46 72.5 101t89 101.5t107 66t128.5 -6.5q65 -27 93.5 -85.5t30.5 -129.5l2 -66q2 -53 -36 -90.5t-91 -37.5h-421z" />
    <glyph glyph-name="arTah.fina" unicode="&#x637;" horiz-adv-x="723" arabic-form="final" 
d="M56 0v147h90v477h148v-514h-92v-110h-146zM544 272q-26 9 -68 -25.5t-93 -99.5h192v44q-1 50 -11 63t-20 18zM176 0v147h25q32 46 72.5 101t89 101.5t107 66t128.5 -6.5q65 -27 93.5 -85.5t30.5 -129.5l2 -66q2 -53 -36 -90.5t-91 -37.5h-421z" />
    <glyph glyph-name="arTah.isol" unicode="&#x637;" horiz-adv-x="780" arabic-form="isolated" 
d="M56 0v147h90v477h148v-514h-92v-110h-146zM544 272q-26 9 -68 -25.5t-93 -99.5h192v44q-1 50 -11 63t-20 18zM176 0v147h25q32 46 72.5 101t89 101.5t107 66t128.5 -6.5q65 -27 93.5 -85.5t30.5 -129.5l2 -66q2 -53 -36 -90.5t-91 -37.5h-421z" />
    <glyph glyph-name="arSeen.init" unicode="&#x633;" horiz-adv-x="778" arabic-form="initial" 
d="M179 0h-179v147h158v251h148v-251h59v251h148v-251h61v251h147v-272q0 -53 -37.5 -89.5t-89.5 -36.5h-95v68q-16 -30 -46.5 -49t-66.5 -19h-107v48q-38 -48 -100 -48z" />
    <glyph glyph-name="arSeen.medi" unicode="&#x633;" horiz-adv-x="721" arabic-form="medial" 
d="M179 0h-179v147h158v251h148v-251h59v251h148v-251h61v251h147v-272q0 -53 -37.5 -89.5t-89.5 -36.5h-95v68q-16 -30 -46.5 -49t-66.5 -19h-107v48q-38 -48 -100 -48z" />
    <glyph glyph-name="arSeen.fina" unicode="&#x633;" horiz-adv-x="991" arabic-form="final" 
d="M179 -220q-55 0 -89 40t-34 90v297h148v-280h221v473h148v-253h61v251h147v-251h62v251h148v-272q0 -53 -38 -89.5t-90 -36.5h-94v72q-15 -32 -45.5 -52t-68.5 -20h-82v-94q0 -53 -37.5 -89.5t-89.5 -36.5h-267z" />
    <glyph glyph-name="arSeen.isol" unicode="&#x633;" horiz-adv-x="1047" arabic-form="isolated" 
d="M179 -220q-55 0 -89 40t-34 90v297h148v-280h221v473h148v-253h61v251h147v-251h62v251h148v-272q0 -53 -38 -89.5t-90 -36.5h-94v72q-15 -32 -45.5 -52t-68.5 -20h-82v-94q0 -53 -37.5 -89.5t-89.5 -36.5h-267z" />
    <glyph glyph-name="arKaf.init" unicode="&#x6a9;" horiz-adv-x="641" arabic-form="initial" 
d="M0 0v147h402l-238 243q-28 28 -37.5 68t2 77.5t47.5 59.5q60 37 137.5 63t145 41t97.5 15l4 -147q-9 0 -58.5 -11.5t-112 -30t-109.5 -41.5l270 -277q38 -39 36 -87.5t-36 -84t-88 -35.5h-462z" />
    <glyph glyph-name="arKaf.medi" unicode="&#x6a9;" horiz-adv-x="586" arabic-form="medial" 
d="M0 0v147h402l-238 243q-28 28 -37.5 68t2 77.5t47.5 59.5q60 37 137.5 63t145 41t97.5 15l4 -147q-9 0 -58.5 -11.5t-112 -30t-109.5 -41.5l270 -277q38 -39 36 -87.5t-36 -84t-88 -35.5h-462z" />
    <glyph glyph-name="arGaf.fina" unicode="&#x6a9;" horiz-adv-x="766" arabic-form="final" 
d="M56 147h140l123 -147h-140zM179 0v147h402l-238 243q-27 28 -37 68t1 77.5t48 59.5q60 37 137.5 63t145.5 41t97 15l4 -147q-9 0 -58.5 -11.5t-112 -30t-109.5 -41.5l270 -277q39 -39 36 -87.5t-36 -84t-88 -35.5h-462z" />
    <glyph glyph-name="arGaf.isol" unicode="&#x6a9;" horiz-adv-x="820" arabic-form="isolated" 
d="M56 147h140l123 -147h-140zM179 0v147h402l-238 243q-27 28 -37 68t1 77.5t48 59.5q60 37 137.5 63t145.5 41t97 15l4 -147q-9 0 -58.5 -11.5t-112 -30t-109.5 -41.5l270 -277q39 -39 36 -87.5t-36 -84t-88 -35.5h-462z" />
    <glyph glyph-name="arHeh.init2" unicode="&#x6c1;" horiz-adv-x="455" arabic-form="initial" 
d="M359 -196q-37 -50 -95 -72.5t-101 10.5q-48 37 -35 114q14 74 58 144h-186v147h207v143h148v-164q0 -54 -39 -91v0q-28 -29 -50 -66.5t-30 -77.5q-7 -35 13.5 -48t45.5 10z" />
    <glyph glyph-name="arHeh.medi2" unicode="&#x6c1;" horiz-adv-x="630" arabic-form="medial" 
d="M240 -255q-8 42 -18 57t-26 30.5t-42 57.5q-20 32 -26 68t-20 42h-108v147h141q48 0 73.5 -23.5t37 -56t16.5 -61t11 -38.5q18 -27 41.5 -51t43.5 -71v176q0 52 37 88.5t89 36.5h160v-147h-139v-230h-142z" />
    <glyph glyph-name="arHeh.fina2" unicode="&#x6c1;" horiz-adv-x="438" arabic-form="final" 
d="M115 -98v120q0 52 37 88.5t89 36.5h217v-147h-196v-98h-147z" />
    <glyph glyph-name="arHeh.isol" unicode="&#x6c1;" horiz-adv-x="537" arabic-form="isolated" 
d="M198 0q-63 0 -110 42q-42 38 -48.5 103.5t45.5 115.5q38 36 65 60t48 51.5t40 71.5l138 -55l-2 -4h90v-259q0 -52 -36.5 -89t-89.5 -37h-140zM185 152q-12 -9 -4 -6q2 0 5 0.5t8 0.5h122v137q-27 -36 -58.5 -65t-72.5 -67z" />
    <glyph glyph-name="arDal.fina" unicode="&#x62f;" horiz-adv-x="446" arabic-form="final" 
d="M285 157q-11 48 -50 78t-81 51l65 132q35 -18 88 -52.5t95 -92t44 -145.5q2 -54 -34.5 -91t-91.5 -37h-264v147h231q9 -1 6 3.5t-8 6.5z" />
    <glyph glyph-name="arDal.isol" unicode="&#x62f;" horiz-adv-x="514" arabic-form="isolated" 
d="M285 157q-11 48 -50 78t-81 51l65 132q35 -18 88 -52.5t95 -92t44 -145.5q2 -54 -34.5 -91t-91.5 -37h-264v147h231q9 -1 6 3.5t-8 6.5z" />
    <glyph glyph-name="arYeh.fina2" unicode="&#x6d2;" horiz-adv-x="748" arabic-form="final" 
d="M292 -128h438v-148h-438q-91 0 -154.5 39t-81.5 107q-20 74 22 142t118 86q46 11 52.5 27.5t25.5 47.5q23 42 65 71.5t101 30.5q50 1 95 -24.5t70 -74.5q11 -20 24.5 -24.5t39.5 -4.5h93v-147h-93q-138 0 -194 108q-12 23 -35 20q-24 -3 -39 -29q-3 -5 -17 -33t-49 -60
t-101 -50q-22 -6 -30 -22t-5 -26q1 -5 16.5 -20.5t76.5 -15.5z" />
    <glyph glyph-name="arYeh.isol2" unicode="&#x6d2;" horiz-adv-x="980" arabic-form="isolated" 
d="M318 298q53 49 111.5 53.5t108.5 -13.5t76 -34l-79 -125q-36 23 -73 27.5t-64 -33.5q-2 -5 -16 -32.5t-49 -59t-99 -48.5q-23 -6 -30.5 -21.5t-4.5 -25.5q1 -5 16.5 -20.5t76.5 -15.5h626v-147h-626q-91 0 -154.5 39.5t-81.5 106.5q-20 73 21 140t119 87q41 11 51 26.5
t20 38.5t51 57z" />
    <glyph glyph-name="arHeh.init" unicode="&#x647;" horiz-adv-x="759" arabic-form="initial" 
d="M321 147q19 0 19 15q-7 21 -21 40q-19 26 -37.5 30.5t-26.5 2.5q-9 -1 -9 -16v-72h75zM0 0v147h98v74q0 43 19.5 79.5t51.5 58.5q69 46 150.5 18t132.5 -106q19 -28 28.5 -60t5.5 -64h69q-7 70 -42 134.5t-98 106.5t-154 42l1 147q115 0 198.5 -44.5t138 -114.5t80 -148
t24.5 -145q-1 -55 -38.5 -90t-87.5 -35h-577z" />
    <glyph glyph-name="arHeh.medi" unicode="&#x647;" horiz-adv-x="703" arabic-form="medial" 
d="M321 147q19 0 19 15q-7 21 -21 40q-19 26 -37.5 30.5t-26.5 2.5q-9 -1 -9 -16v-72h75zM0 0v147h98v74q0 43 19.5 79.5t51.5 58.5q69 46 150.5 18t132.5 -106q19 -28 28.5 -60t5.5 -64h69q-7 70 -42 134.5t-98 106.5t-154 42l1 147q115 0 198.5 -44.5t138 -114.5t80 -148
t24.5 -145q-1 -55 -38.5 -90t-87.5 -35h-577z" />
    <glyph glyph-name="arHeh.fina" unicode="&#x647;" horiz-adv-x="481" arabic-form="final" 
d="M198 0q-63 0 -110 42q-42 38 -48.5 103.5t45.5 115.5q38 36 65 60t48 51.5t40 71.5l138 -55l-2 -4h90v-259q0 -52 -36.5 -89t-89.5 -37h-140zM185 152q-12 -9 -4 -6q2 0 5 0.5t8 0.5h122v137q-27 -36 -58.5 -65t-72.5 -67z" />
    <glyph glyph-name="arFeh.init" unicode="&#x66f;" horiz-adv-x="537" 
d="M212 354q12 -21 33.5 -33t87.5 -10v73q0 25 -12.5 40t-30.5 20q-34 10 -62 -13q-16 -14 -21 -37.5t5 -39.5zM0 0v147h333v48q-69 -4 -137.5 5.5t-109.5 77.5q-33 54 -29.5 109t30.5 101t66 71q43 27 99.5 32.5t110 -16t88.5 -75.5q30 -49 30 -110v-262q0 -52 -37 -90
t-92 -38h-352z" />
    <glyph glyph-name="arFeh.medi" unicode="&#x66f;" horiz-adv-x="481" 
d="M212 354q12 -21 33.5 -33t87.5 -10v73q0 25 -12.5 40t-30.5 20q-34 10 -62 -13q-16 -14 -21 -37.5t5 -39.5zM0 0v147h333v48q-69 -4 -137.5 5.5t-109.5 77.5q-33 54 -29.5 109t30.5 101t66 71q43 27 99.5 32.5t110 -16t88.5 -75.5q30 -49 30 -110v-262q0 -52 -37 -90
t-92 -38h-352z" />
    <glyph glyph-name="arQaf.fina" unicode="&#x66f;" horiz-adv-x="855" 
d="M511 176q14 -23 34.5 -26t86.5 -3v59q0 23 -10 36.5t-25 19.5q-36 17 -70 -9q-17 -14 -22 -37.5t6 -39.5zM229 -200q-68 0 -120.5 46t-52.5 122v242h147v-260q-8 -10 5 -2h424v52q-44 0 -89 3.5t-86 24.5t-72 72q-33 54 -29.5 109t31 101t65.5 71q42 27 99 32.5t111 -16
t88 -75.5q29 -47 29 -110v-65h96v-147h-96v-72q0 -52 -37 -90t-91 -38h-422z" />
    <glyph glyph-name="arQaf.isol" unicode="&#x66f;" horiz-adv-x="836" 
d="M511 176q12 -20 33.5 -32.5t87.5 -10.5v73q0 26 -12.5 40.5t-30.5 19.5q-34 11 -62 -13q-16 -14 -21.5 -37t5.5 -40zM229 -199q-68 0 -120.5 46t-52.5 122v242h148v-260q-7 -9 4 -3h424v70q-69 -4 -137.5 5.5t-109.5 77.5q-33 54 -29.5 109t31 100.5t65.5 70.5
q42 27 99 33t111 -15t88 -76q30 -49 30 -110v-284q0 -52 -37.5 -90t-91.5 -38h-422z" />
    <glyph glyph-name="arSad.init" unicode="&#x635;" horiz-adv-x="711" arabic-form="initial" 
d="M0 0v147h64v152h148v-205h-2v-94h-210zM513 272q-26 9 -68 -25.5t-93 -99.5h192v44q-1 50 -10.5 63t-20.5 18zM145 0v147h25q32 46 72.5 101t89 101.5t107 66t128.5 -6.5q65 -27 94 -85.5t30 -129.5l2 -66q1 -53 -37 -90.5t-90 -37.5h-421z" />
    <glyph glyph-name="arSad.medi" unicode="&#x635;" horiz-adv-x="693" arabic-form="medial" 
d="M0 0v147h64v152h148v-205h-2v-94h-210zM513 272q-26 9 -68 -25.5t-93 -99.5h192v44q-1 50 -10.5 63t-20.5 18zM145 0v147h25q32 46 72.5 101t89 101.5t107 66t128.5 -6.5q65 -27 94 -85.5t30 -129.5l2 -66q1 -53 -37 -90.5t-90 -37.5h-421z" />
    <glyph glyph-name="arSad.fina" unicode="&#x635;" horiz-adv-x="1060" arabic-form="final" 
d="M179 -220q-55 0 -89 40t-34 90v297h148v-280h221v372h148v-393q0 -53 -37.5 -89.5t-89.5 -36.5h-267zM880 272q-26 9 -68 -25.5t-93 -99.5h192v44q-1 50 -11 63t-20 18zM512 0v147h25q32 46 72.5 101t89 101.5t107 66t128.5 -6.5q65 -27 93.5 -85.5t30.5 -129.5l2 -66
q2 -53 -36 -90.5t-91 -37.5h-421z" />
    <glyph glyph-name="arSad.isol" unicode="&#x635;" horiz-adv-x="1116" arabic-form="isolated" 
d="M179 -220q-55 0 -89 40t-34 90v297h148v-280h221v372h148v-393q0 -53 -37.5 -89.5t-89.5 -36.5h-267zM880 272q-26 9 -68 -25.5t-93 -99.5h192v44q-1 50 -11 63t-20 18zM512 0v147h25q32 46 72.5 101t89 101.5t107 66t128.5 -6.5q65 -27 93.5 -85.5t30.5 -129.5l2 -66
q2 -53 -36 -90.5t-91 -37.5h-421z" />
    <glyph glyph-name="arFeh.fina" unicode="&#x6a1;" horiz-adv-x="925" 
d="M581 176q14 -23 34.5 -26t86.5 -3v59q0 23 -10 36.5t-25 19.5q-36 17 -70 -9q-17 -14 -22 -37.5t6 -39.5zM229 -200q-68 0 -120.5 46t-52.5 122v152h147v-170q-8 -10 5 -2h494v52q-44 0 -89 3.5t-86 24.5t-72 72q-33 54 -29.5 109t31 101t65.5 71q42 27 99 32.5t111 -16
t88 -75.5q29 -47 29 -110v-65h96v-147h-96v-72q0 -52 -37 -90t-91 -38h-492z" />
    <glyph glyph-name="arFeh.isol" unicode="&#x6a1;" horiz-adv-x="906" 
d="M581 176q12 -21 33.5 -33t87.5 -10v73q0 26 -12.5 40.5t-30.5 19.5q-33 11 -62 -13q-16 -14 -21.5 -37t5.5 -40zM229 -199q-68 0 -120.5 46t-52.5 122v152h148v-170q-7 -9 4 -3h494v70q-69 -4 -137.5 5t-109.5 77q-33 54 -29.5 109t31 101t65.5 71q42 27 99 33t111 -15.5
t88 -75.5q30 -51 30 -111v-283q0 -52 -37.5 -90t-91.5 -38h-492z" />
    <glyph glyph-name="arWaw.fina" unicode="&#x648;" horiz-adv-x="536" arabic-form="final" 
d="M397 147h158v-147h-158v147zM62 -218v147h193q26 0 45 20.5t19 50.5h-86q-76 0 -129 54t-49 128q7 75 45.5 128t92.5 81t109 28q66 0 115 -45.5t49 -118.5v-253q0 -54 -25.5 -104.5t-72.5 -83t-113 -32.5h-193zM233 147h86v100q0 25 -20 25q-25 -2 -56.5 -25.5
t-38.5 -67.5q-2 -11 5 -21.5t24 -10.5z" />
    <glyph glyph-name="arWaw.isol" unicode="&#x648;" horiz-adv-x="524" arabic-form="isolated" 
d="M62 -218v147h193q26 0 45 20.5t19 50.5h-86q-76 0 -129 54t-49 128q7 75 45.5 128t92.5 81t109 28q66 0 115 -45.5t49 -118.5v-253q0 -54 -25.5 -104.5t-72.5 -83t-113 -32.5h-193zM233 147h86v100q0 25 -20 25q-25 -2 -56.5 -25.5t-38.5 -67.5q-2 -11 5 -21.5t24 -10.5z
" />
    <glyph glyph-name="arHah.init" unicode="&#x62d;" horiz-adv-x="659" arabic-form="initial" 
d="M0 0v147h353q-11 10 -16 15q-26 26 -53.5 53t-49.5 42q-32 23 -63 33t-62 17l34 144q31 -7 78.5 -22.5t98.5 -51.5q46 -34 82.5 -71.5t64.5 -62.5q27 -24 45 -32t36.5 -7.5t49.5 1.5l5 -69q1 -15 -6 -47.5t-31.5 -60.5t-76.5 -28h-489z" />
    <glyph glyph-name="arHah.medi" unicode="&#x62d;" horiz-adv-x="603" arabic-form="medial" 
d="M0 0v147h353q-11 10 -16 15q-26 26 -53.5 53t-49.5 42q-32 23 -63 33t-62 17l34 144q31 -7 78.5 -22.5t98.5 -51.5q46 -34 82.5 -71.5t64.5 -62.5q27 -24 45 -32t36.5 -7.5t49.5 1.5l5 -69q1 -15 -6 -47.5t-31.5 -60.5t-76.5 -28h-489z" />
    <glyph glyph-name="arHah.fina" unicode="&#x62d;" horiz-adv-x="567" arabic-form="final" 
d="M455 -336h-240q-67 0 -113 45t-46 110v163q0 62 44.5 113.5t119.5 51.5h110q-4 5 -7 9t-7 8q-29 34 -59.5 68t-89.5 56l52 137q67 -25 111 -61.5t71 -70t41 -49.5q34 -38 61 -39.5t64 -1.5v-74q0 -3 -1.5 -23t-11 -44.5t-33 -43t-67.5 -18.5h-250q-2 3 -3 2.5t2 -1.5
v-189h252v-148z" />
    <glyph glyph-name="arHah.isol" unicode="&#x62d;" horiz-adv-x="624" arabic-form="isolated" 
d="M455 -336h-240q-67 0 -113 45t-46 110v163q0 62 44.5 113.5t119.5 51.5h110q-4 5 -7 9t-7 8q-29 34 -59.5 68t-89.5 56l52 137q67 -25 111 -61.5t71 -70t41 -49.5q34 -38 61 -39.5t64 -1.5v-74q0 -3 -1.5 -23t-11 -44.5t-33 -43t-67.5 -18.5h-250q-2 3 -3 2.5t2 -1.5
v-189h252v-148z" />
    <glyph glyph-name="arAlef.fina" unicode="&#x627;" horiz-adv-x="335" arabic-form="final" 
d="M341 0v147h-138v477h-147v-498q0 -53 37.5 -89.5t89.5 -36.5h158z" />
    <glyph glyph-name="arAlef.isol" unicode="&#x627;" horiz-adv-x="260" arabic-form="isolated" 
d="M56 1v623h148v-461q0 -64 -35 -113t-113 -49z" />
    <glyph glyph-name="arYeh.fina" unicode="&#x649;" horiz-adv-x="627" arabic-form="final" 
d="M271 -221q-42 0 -92.5 19t-86.5 62.5t-36 116.5v215h148v-215q0 -49 71 -51h163l-62 75q-36 45 -32 91.5t38.5 78t87.5 29.5h157v-147h-103l75 -91q34 -41 27 -82.5t-41.5 -70.5t-83.5 -30h-230z" />
    <glyph glyph-name="arYeh.isol" unicode="&#x649;" horiz-adv-x="684" arabic-form="isolated" 
d="M271 -129q-42 0 -92.5 19t-86.5 62.5t-36 116.5v215h148v-215q0 -49 71 -51h163l-62 75q-36 45 -32 91.5t38.5 78t87.5 29.5h157v-147h-103l75 -91q34 -41 27 -82.5t-41.5 -70.5t-83.5 -30h-230z" />
    <glyph glyph-name="arReh.fina" unicode="&#x631;" horiz-adv-x="409" arabic-form="final" 
d="M271 147h158v-147h-158v147zM167 2v207h148v-207q0 -88 -59.5 -154.5t-153.5 -66.5h-102v147h102q28 0 46.5 19.5t18.5 54.5z" />
    <glyph glyph-name="arReh.isol" unicode="&#x631;" horiz-adv-x="371" arabic-form="isolated" 
d="M167 2v207h148v-207q0 -88 -59.5 -154.5t-153.5 -66.5h-102v147h102q28 0 46.5 19.5t18.5 54.5z" />
    <glyph glyph-name="arAin.init" unicode="&#x639;" horiz-adv-x="537" arabic-form="initial" 
d="M0 0v147h126q-44 63 -53 127.5t42 119.5q55 59 145 60t192 -30l-43 -141q-80 25 -126.5 21.5t-58.5 -10.5q-1 -10 14.5 -47t78.5 -96l-4 -4h168v-147h-481z" />
    <glyph glyph-name="arAin.medi" unicode="&#x639;" horiz-adv-x="481" arabic-form="medial" 
d="M0 0v147h126q-44 63 -53 127.5t42 119.5q55 59 145 60t192 -30l-43 -141q-80 25 -126.5 21.5t-58.5 -10.5q-1 -10 14.5 -47t78.5 -96l-4 -4h168v-147h-481z" />
    <glyph glyph-name="arAin.fina" unicode="&#x639;" horiz-adv-x="460" arabic-form="final" 
d="M459 -272h-288q-50 0 -83 36.5t-33 84.5v178q0 46 30 80.5t76 38.5q-27 53 -27 105.5t41 94.5q40 42 99 47t118 -12q14 -4 28.5 -9t27.5 -10l-56 -138q-25 11 -40 15q-27 7 -43 6.5t-23 -2.5q1 -8 9 -31.5t45 -64.5h119v-147h-256v-125h256v-147z" />
    <glyph glyph-name="arAin.isol" unicode="&#x639;" horiz-adv-x="516" arabic-form="isolated" 
d="M459 -272h-288q-50 0 -83 36.5t-33 84.5v178q0 46 30 80.5t76 38.5q-27 53 -27 105.5t41 94.5q40 42 99 47t118 -12q14 -4 28.5 -9t27.5 -10l-56 -138q-25 11 -40 15q-27 7 -43 6.5t-23 -2.5q1 -8 9 -31.5t45 -64.5h119v-147h-256v-125h256v-147z" />
    <glyph glyph-name="arNoon.fina" unicode="&#x6ba;" horiz-adv-x="661" arabic-form="final" 
d="M527 147h154v-147h-154v147zM304 -187q-64 0 -120.5 23.5t-92 69.5t-35.5 113v190h148v-190q0 -19 22.5 -39t77.5 -20h116v250h148v-271q0 -53 -36 -89.5t-89 -36.5h-139z" />
    <glyph glyph-name="arNoon.isol" unicode="&#x6ba;" horiz-adv-x="624" arabic-form="isolated" 
d="M304 -187q-64 0 -120.5 23.5t-92 69.5t-35.5 113v190h148v-190q0 -19 22.5 -39t77.5 -20h116v250h148v-271q0 -53 -36 -89.5t-89 -36.5h-139z" />
    <glyph glyph-name=".notdef" horiz-adv-x="500" 
d="M50 -200h400v1000h-400v-1000zM100 -150v900h300v-900h-300z" />
    <glyph glyph-name="ar1Dot.above" 
d="M0 -74q-30 0 -52 22t-22 52t22 52t52 22t52 -22t22 -52t-22 -52t-52 -22z" />
    <glyph glyph-name="ar1Dot.below" 
d="M0 -74q-30 0 -52 22t-22 52t22 52t52 22t52 -22t22 -52t-22 -52t-52 -22z" />
    <glyph glyph-name="ar2Dot.above" 
d="M-96 -74q-30 0 -52 22t-22 52t22 52t52 22t52 -22t22 -52t-22 -52t-52 -22zM96 -74q-30 0 -52 22t-22 52t22 52t52 22t52 -22t22 -52t-22 -52t-52 -22z" />
    <glyph glyph-name="ar2Dot.below" 
d="M-96 -74q-30 0 -52 22t-22 52t22 52t52 22t52 -22t22 -52t-22 -52t-52 -22zM96 -74q-30 0 -52 22t-22 52t22 52t52 22t52 -22t22 -52t-22 -52t-52 -22z" />
    <glyph glyph-name="ar3Dot.above" 
d="M-96 -74q-30 0 -52 22t-22 52t22 52t52 22t52 -22t22 -52t-22 -52t-52 -22zM96 -74q-30 0 -52 22t-22 52t22 52t52 22t52 -22t22 -52t-22 -52t-52 -22zM0 80q-30 0 -52 22t-22 52t22 52t52 22t52 -22t22 -52t-22 -52t-52 -22z" />
    <glyph glyph-name="ar3IDot.above" 
d="M0 -74q-30 0 -52 22t-22 52t22 52t52 22t52 -22t22 -52t-22 -52t-52 -22zM-96 76q-30 0 -52 22t-22 52t22 52t52 22t52 -22t22 -52t-22 -52t-52 -22zM96 76q-30 0 -52 22t-22 52t22 52t52 22t52 -22t22 -52t-22 -52t-52 -22z" />
    <glyph glyph-name="ar3IDot.below" 
d="M0 -224q-30 0 -52 22t-22 52t22 52t52 22t52 -22t22 -52t-22 -52t-52 -22zM-96 -74q-30 0 -52 22t-22 52t22 52t52 22t52 -22t22 -52t-22 -52t-52 -22zM96 -74q-30 0 -52 22t-22 52t22 52t52 22t52 -22t22 -52t-22 -52t-52 -22z" />
    <glyph glyph-name="arAlef.fina.1" horiz-adv-x="252" 
d="M74 112q44 21 77 48t41 82l-115 395l141 41l118 -405l-4 -1q-10 -59 -50.5 -97t-107.5 -63h-100z" />
    <glyph glyph-name="arGaf.above" 
d="M185 34q-9 0 -47.5 -9t-90 -23t-102 -32.5t-82.5 -38.5l-48 76q56 35 132.5 60.5t142.5 40t92 14.5z" />
    <glyph glyph-name="arHah.fina2" horiz-adv-x="567" 
d="M204 -327q-63 0 -105.5 42t-42.5 104v163q0 62 44.5 113.5t119.5 51.5h110q-4 5 -7 9t-7 8q-29 34 -59.5 68t-89.5 56l52 137q67 -25 111 -61.5t71 -70t41 -49.5q34 -38 61 -39.5t64 -1.5v-74q0 -3 -1.5 -23t-11 -44.5t-33 -43t-67.5 -18.5h-250v-327zM204 1z" />
    <glyph glyph-name="arHah.isol2" horiz-adv-x="624" 
d="M204 -327q-63 0 -105.5 42t-42.5 104v163q0 62 44.5 113.5t119.5 51.5h110q-4 5 -7 9t-7 8q-29 34 -59.5 68t-89.5 56l52 137q67 -25 111 -61.5t71 -70t41 -49.5q34 -38 61 -39.5t64 -1.5v-74q0 -3 -1.5 -23t-11 -44.5t-33 -43t-67.5 -18.5h-250v-327zM204 1z" />
    <glyph glyph-name="arKaf.above" 
d="M-4 201h100v-89h-48l14 -32q4 -8 9 -23t-7 -32q-10 -16 -27 -20t-23 -4h-110v89h56l-15 30l-7.5 20.5t8.5 39.5q7 8 19.5 14.5t30.5 6.5z" />
    <glyph glyph-name="arKaf.fina" horiz-adv-x="629" 
d="M179 0l-123 147h426v477h147v-498q0 -53 -37.5 -89.5t-89.5 -36.5h-323z" />
    <glyph glyph-name="arKaf.isol" horiz-adv-x="685" 
d="M179 0l-123 147h426v477h147v-498q0 -53 -37.5 -89.5t-89.5 -36.5h-323z" />
    <glyph glyph-name="arLam.init.1" horiz-adv-x="284" 
d="M-195 0v147h275v477h148v-498q0 -53 -37.5 -89.5t-89.5 -36.5h-296z" />
    <glyph glyph-name="arLam.medi.1" horiz-adv-x="228" 
d="M-195 0v147h275v477h148v-498q0 -53 -37.5 -89.5t-89.5 -36.5h-296z" />
    <glyph glyph-name="arSad.above" 
d="M74 136q-13 4 -34 -13t-46 -49h96v22q-1 25 -6 31t-10 9zM-164 0v74h66q22 30 50.5 67.5t65.5 58.5t84 4q32 -14 46.5 -42.5t15.5 -64.5v-33q2 -27 -17.5 -45.5t-45.5 -18.5h-265z" />
    <glyph glyph-name="arTah.above" 
d="M85 136q-13 4 -34 -13t-46 -49h95l1 22q-1 25 -6 31t-10 9zM-158 0v74h44v238h74v-174q29 36 66.5 60t85.5 6q32 -14 46.5 -42.5t15.5 -64.5l1 -33q1 -27 -18 -45.5t-45 -18.5h-270z" />
    <glyph glyph-name="uni0621" unicode="&#x621;" horiz-adv-x="544" 
d="M267 329h163v-147h-78l23 -50q5 -12 13.5 -37t-10.5 -54q-17 -26 -45 -33.5t-38 -7.5h-180v147h90l-23 49l-7 16.5t-8 40t17 43.5q10 13 31.5 23t51.5 10z" />
    <glyph glyph-name="uni0640" unicode="&#x640;" horiz-adv-x="273" 
d="M278 147v-147h-283v147h283z" />
    <glyph glyph-name="uni064B" unicode="&#x64b;" 
d="M-90 -22q-31 -10 -43 21q-5 13 1 25.5t19 16.5l199 72q31 12 43 -18q5 -14 -1 -26t-19 -17zM-90 93q-31 -10 -43 21q-5 13 1 25.5t19 16.5l199 72q31 12 43 -18q5 -14 -1 -26t-19 -17z" />
    <glyph glyph-name="uni064C" unicode="&#x64c;" 
d="M46 104l14 -35l43 16q6 3 4 9q-2 7 -13.5 17.5t-30.5 10.5q-8 0 -14.5 -4t-2.5 -14zM-43 32l40 14l-14 37q-11 32 3.5 61.5t46.5 40.5q49 13 86.5 -10t50.5 -57q11 -28 1.5 -55t-44.5 -40l-148 -54q-34 -13 -72 0.5t-53 55.5l-18 47q-11 31 20 43q31 10 43 -21l18 -46
q9 -27 40 -16z" />
    <glyph glyph-name="uni064D" unicode="&#x64d;" 
d="M-90 -276q-31 -10 -43 21q-5 13 1 25.5t19 16.5l199 72q31 12 43 -18q5 -14 -1 -26t-19 -17zM-90 -161q-31 -10 -43 21q-5 13 1 25.5t19 16.5l199 72q31 12 43 -18q5 -14 -1 -26t-19 -17z" />
    <glyph glyph-name="uni064E" unicode="&#x64e;" 
d="M-90 -21q-31 -10 -43 21q-5 13 1 25.5t19 16.5l199 72q31 12 43 -18q5 -14 -1 -26t-19 -17z" />
    <glyph glyph-name="uni064F" unicode="&#x64f;" 
d="M-111 26l74 26l-12 37q-10 32 3.5 62.5t45.5 40.5q49 14 86 -10t51 -58q10 -26 0.5 -54t-43.5 -41l-182 -66q-13 -5 -25 1t-17 19q-12 31 19 43zM14 110l12 -35l45 17q6 4 5 6q-1 6 -13 18t-33 12q-7 -1 -13.5 -4t-2.5 -14z" />
    <glyph glyph-name="uni0650" unicode="&#x650;" 
d="M-90 -161q-31 -10 -43 21q-5 13 1 25.5t19 16.5l199 72q31 12 43 -18q5 -14 -1 -26t-19 -17z" />
    <glyph glyph-name="uni0651" unicode="&#x651;" 
d="M-71 -39q-5 -1 -10 -1q-30 -5 -48 15q-10 11 -11.5 21.5t-1.5 17.5v102q0 14 10 24t23 10q34 0 34 -34v-85l40 14v91q0 33 33 33q34 0 34 -33v-66l43 15v91q0 14 10 23.5t24 9.5q13 0 23 -9.5t10 -23.5v-99q0 -23 -15 -37t-28 -18l-48 -18q-15 -5 -28 4q-7 -10 -17 -16.5
t-18 -9.5z" />
    <glyph glyph-name="uni0652" unicode="&#x652;" 
d="M0 -44q-55 0 -93 39t-38 93q0 55 38 93t93 38t93 -38t38 -93q0 -54 -38 -93t-93 -39zM0 152q-27 0 -46 -18t-19 -46q0 -27 19 -46t46 -19t46 19t19 46q0 28 -19 46t-46 18z" />
    <glyph glyph-name="uni0653" unicode="&#x653;" 
d="M-184 0v53q0 35 25 58.5t59 23.5h239v-89h-234v-46h-89z" />
    <glyph glyph-name="uni0654" unicode="&#x654;" 
d="M-4 201h100v-89h-48l14 -32q4 -8 9 -23t-7 -32q-10 -16 -27 -20t-23 -4h-110v89h56l-15 30l-7.5 20.5t8.5 39.5q7 8 19.5 14.5t30.5 6.5z" />
    <glyph glyph-name="uni0655" unicode="&#x655;" 
d="M-4 1h100v-89h-48l14 -32q4 -8 9 -23t-7 -32q-10 -16 -27 -20t-23 -4h-110v89h56l-15 30l-7.5 20.5t8.5 39.5q7 8 19.5 14.5t30.5 6.5z" />
    <glyph glyph-name="uni0656" unicode="&#x656;" 
d="M21 -143q0 -12 -7.5 -25.5t-34.5 -13.5v182h42v-143z" />
    <glyph glyph-name="uni0660" unicode="&#x660;" horiz-adv-x="445" 
d="M223 238q-38 0 -64.5 27t-26.5 64t26.5 64t64.5 27q37 0 63.5 -27t26.5 -64t-26.5 -64t-63.5 -27z" />
    <glyph glyph-name="uni0661" unicode="&#x661;" horiz-adv-x="411" 
d="M132 0v637h147v-637h-147z" />
    <glyph glyph-name="uni0662" unicode="&#x662;" horiz-adv-x="450" 
d="M75 0v511q0 53 37.5 89t89.5 36h173v-147h-152v-489h-148z" />
    <glyph glyph-name="uni0663" unicode="&#x663;" horiz-adv-x="704" 
d="M223 0h-148v637h148v-161h55v161h148v-161h55v161h148v-183q0 -52 -37.5 -88.5t-89.5 -36.5h-89v70q-16 -31 -46.5 -50.5t-67.5 -19.5h-76v-329z" />
    <glyph glyph-name="uni0664" unicode="&#x664;" horiz-adv-x="536" 
d="M178 0q-36 0 -69.5 28t-33.5 69q0 43 17.5 69t27.5 41l91 132l-67 46q-52 35 -49 91.5t55 96.5l157 116l88 -119l-126 -92l82 -56q29 -20 33.5 -53t-14.5 -60l-112 -161l203 -1v-147h-283z" />
    <glyph glyph-name="uni0665" unicode="&#x665;" horiz-adv-x="671" 
d="M235 635q45 29 98 30.5t99 -26.5q52 -33 88.5 -93.5t56 -134t19.5 -145.5q0 -66 -24 -133t-80.5 -112t-153.5 -46q-132 -1 -197 83.5t-66 209.5q0 74 21.5 147.5t58 132t80.5 87.5zM449 264q-1 54 -18 108t-39 93t-36 48q-19 12 -39 -2q-19 -12 -38 -51t-33 -90.5
t-17 -101.5q-3 -65 18 -105.5t91 -39.5q63 0 87.5 35t23.5 106z" />
    <glyph glyph-name="uni0666" unicode="&#x666;" horiz-adv-x="544" 
d="M321 0v488h-246v147h267q52 0 89.5 -36.5t37.5 -88.5v-510h-148z" />
    <glyph glyph-name="uni0667" unicode="&#x667;" horiz-adv-x="680" 
d="M359 -21q-32 -1 -59.5 15t-38.5 51l-186 580l141 44l136 -426l110 423l143 -38l-152 -579q-7 -31 -33 -50t-61 -20z" />
    <glyph glyph-name="uni0668" unicode="&#x668;" horiz-adv-x="680" 
d="M359 658q-32 1 -59.5 -15t-38.5 -51l-186 -580l141 -44l136 426l110 -423l143 38l-152 579q-7 31 -33 50t-61 20z" />
    <glyph glyph-name="uni0669" unicode="&#x669;" horiz-adv-x="578" 
d="M320 0v250q-67 -4 -134.5 8.5t-112.5 83.5q-35 56 -34 113.5t29 105t72 73.5q40 26 96 32t110.5 -15.5t89.5 -76.5q31 -50 31 -112v-462h-147zM197 421q13 -19 37 -22t86 -1v64q0 14 -7 25.5t-14 16.5q-16 14 -43 15.5t-44 -13.5q-14 -10 -23 -34.5t8 -50.5z" />
    <glyph glyph-name="uni066A" unicode="&#x66a;" horiz-adv-x="570" 
d="M168 -12h-117l352 676h117zM117 482q-38 0 -64.5 27t-26.5 64t26.5 64t64.5 27q37 0 63.5 -27t26.5 -64t-26.5 -64t-63.5 -27zM454 -12q-38 0 -64.5 27t-26.5 64t26.5 64t64.5 27t64 -27t26 -64t-26 -64t-64 -27z" />
    <glyph glyph-name="uni066B" unicode="&#x66b;" horiz-adv-x="172" 
d="M0 -24v146h111v-146q0 -66 -44.5 -115.5t-115.5 -49.5h-76v110h76q21 0 35 14.5t14 40.5z" />
    <glyph glyph-name="uni0670" unicode="&#x670;" 
d="M21 39q0 -12 -7.5 -25.5t-34.5 -13.5v182h42v-143z" />
    <glyph glyph-name="uni06D4" unicode="&#x6d4;" horiz-adv-x="456" 
d="M61 0l124 147h210l-124 -147h-210z" />
    <glyph glyph-name="uni0302.cap" 
d="M-170 724l90 111h160l90 -111l-64 -39l-104 84h-4l-104 -84z" />
    <glyph glyph-name="ocircumflex" unicode="&#xf4;" horiz-adv-x="555" 
d="M278 -12q-63 0 -118.5 30.5t-89.5 89t-34 140.5t34 140.5t89.5 89t118.5 30.5q62 0 117.5 -30.5t89.5 -89t34 -140.5t-34 -140.5t-89.5 -89t-117.5 -30.5zM278 107q45 0 68 38.5t23 102.5t-23 102.5t-68 38.5q-46 0 -68.5 -38.5t-22.5 -102.5t22.5 -102.5t68.5 -38.5z
M95 613l108 131h150l108 -131l-56 -52l-125 92h-4l-125 -92z" />
    <glyph glyph-name="Acircumflex" unicode="&#xc2;" horiz-adv-x="573" 
d="M230 330l-16 -60h139l-15 60q-14 49 -27 104t-26 106h-4q-12 -52 -24.5 -106.5t-26.5 -103.5zM423 0l-40 155h-199l-40 -155h-150l204 652h177l204 -652h-156zM113 724l90 111h160l90 -111l-64 -39l-104 84h-4l-104 -84z" />
    <glyph glyph-name="I" unicode="I" horiz-adv-x="301" 
d="M77 0v652h147v-652h-147z" />
    <glyph glyph-name="numbersign" unicode="#" horiz-adv-x="528" 
d="M205 281h103l14 110h-104zM86 0l22 187h-74v94h85l14 110h-79v94h91l21 165h84l-20 -165h104l21 165h84l-20 -165h79v-94h-91l-13 -110h84v-94h-95l-23 -187h-85l22 187h-103l-23 -187h-85z" />
    <glyph glyph-name="ecircumflex" unicode="&#xea;" horiz-adv-x="518" 
d="M287 -12q-107 0 -179 68.5t-72 191.5q0 80 33.5 138.5t87 90t113.5 31.5q106 0 158.5 -68.5t52.5 -169.5q0 -41 -6 -65h-297q10 -54 45 -79.5t84 -25.5q53 0 107 33l49 -89q-82 -56 -176 -56zM177 302h179q0 41 -19.5 67.5t-63.5 26.5q-35 0 -62 -23.5t-34 -70.5zM87 613
l108 131h150l108 -131l-56 -52l-125 92h-4l-125 -92z" />
    <glyph glyph-name="uni0308.cap" 
d="M111 700q-31 0 -50.5 20t-19.5 50t19.5 50t50.5 20t50.5 -20t19.5 -50t-19.5 -50t-50.5 -20zM-111 700q-31 0 -50.5 20t-19.5 50t19.5 50t50.5 20t50.5 -20t19.5 -50t-19.5 -50t-50.5 -20z" />
    <glyph glyph-name="l" unicode="l" horiz-adv-x="286" 
d="M200 -12q-76 0 -105.5 45.5t-29.5 120.5v547h147v-553q0 -23 8.5 -32t17.5 -9q10 0 18 2l18 -109q-27 -12 -74 -12z" />
    <glyph glyph-name="ydieresis" unicode="&#xff;" horiz-adv-x="521" 
d="M120 -194q-22 0 -38.5 3t-31.5 7l26 112q7 -2 16 -4t17 -2q37 0 57 18t30 47l7 26l-191 483h148l71 -213q11 -34 20 -69t19 -72h4q8 35 16.5 70.5t17.5 70.5l60 213h141l-172 -501q-35 -94 -82 -141.5t-135 -47.5zM376 569q-31 0 -51 20.5t-20 51.5q0 30 20 50.5t51 20.5
t51.5 -20.5t20.5 -50.5q0 -31 -20.5 -51.5t-51.5 -20.5zM158 569q-31 0 -51.5 20.5t-20.5 51.5q0 30 20.5 50.5t51.5 20.5t51 -20.5t20 -50.5q0 -31 -20 -51.5t-51 -20.5z" />
    <glyph glyph-name="uni0303.cap" 
d="M71 692q-35 0 -59.5 14.5t-43 29t-34.5 14.5q-32 0 -37 -49l-95 7q4 76 39 110t88 34q35 0 59.5 -14.5t43 -29t34.5 -14.5q32 0 37 49l95 -7q-4 -75 -39 -109.5t-88 -34.5z" />
    <glyph glyph-name="C" unicode="C" horiz-adv-x="582" 
d="M349 -12q-83 0 -151.5 38t-110 112t-41.5 184q0 108 42.5 184.5t113 117t152.5 40.5q63 0 113 -25.5t83 -59.5l-78 -94q-25 23 -52.5 37.5t-62.5 14.5q-67 0 -113.5 -56t-46.5 -154q0 -101 43 -156.5t115 -55.5q40 0 71.5 17.5t55.5 43.5l78 -92q-82 -96 -211 -96z" />
    <glyph glyph-name="eacute" unicode="&#xe9;" horiz-adv-x="518" 
d="M287 -12q-107 0 -179 68.5t-72 191.5q0 80 33.5 138.5t87 90t113.5 31.5q106 0 158.5 -68.5t52.5 -169.5q0 -41 -6 -65h-297q10 -54 45 -79.5t84 -25.5q53 0 107 33l49 -89q-82 -56 -176 -56zM177 302h179q0 41 -19.5 67.5t-63.5 26.5q-35 0 -62 -23.5t-34 -70.5z
M280 572l-72 72l154 182l99 -97z" />
    <glyph glyph-name="onehalf" unicode="&#xbd;" horiz-adv-x="846" 
d="M135 262v281h-89v66q40 6 63.5 16t48.5 27h86v-390h-109zM170 -12l352 676h85l-352 -676h-85zM514 0v58q75 62 123 109.5t48 84.5q0 61 -57 61q-35 0 -71 -47l-61 56q60 80 149 80q64 0 104 -34.5t40 -97.5q0 -47 -31.5 -90.5t-72.5 -89.5h118v-90h-289z" />
    <glyph glyph-name="two.sups" unicode="&#xb2;" horiz-adv-x="376" 
d="M45 375v58q75 62 123 109.5t48 84.5q0 61 -57 61q-35 0 -71 -47l-61 56q60 80 149 80q64 0 104 -34.5t40 -97.5q0 -47 -31.5 -90.5t-72.5 -89.5h118v-90h-289z" />
    <glyph glyph-name="Aring" unicode="&#xc5;" horiz-adv-x="573" 
d="M283 697q-51 0 -82.5 27t-31.5 72t31.5 71.5t82.5 26.5q50 0 82 -26.5t32 -71.5t-32 -72t-82 -27zM283 752q17 0 29.5 12t12.5 32t-12.5 31.5t-29.5 11.5t-29.5 -11.5t-12.5 -31.5t12.5 -32t29.5 -12zM230 330l-16 -60h139l-15 60q-14 49 -27 104t-26 106h-4
q-12 -52 -24.5 -106.5t-26.5 -103.5zM423 0l-40 155h-199l-40 -155h-150l204 652h177l204 -652h-156z" />
    <glyph glyph-name="edieresis" unicode="&#xeb;" horiz-adv-x="518" 
d="M287 -12q-107 0 -179 68.5t-72 191.5q0 80 33.5 138.5t87 90t113.5 31.5q106 0 158.5 -68.5t52.5 -169.5q0 -41 -6 -65h-297q10 -54 45 -79.5t84 -25.5q53 0 107 33l49 -89q-82 -56 -176 -56zM177 302h179q0 41 -19.5 67.5t-63.5 26.5q-35 0 -62 -23.5t-34 -70.5z
M379 569q-31 0 -51 20.5t-20 51.5q0 30 20 50.5t51 20.5t51.5 -20.5t20.5 -50.5q0 -31 -20.5 -51.5t-51.5 -20.5zM161 569q-31 0 -51.5 20.5t-20.5 51.5q0 30 20.5 50.5t51.5 20.5t51 -20.5t20 -50.5q0 -31 -20 -51.5t-51 -20.5z" />
    <glyph glyph-name="Q" unicode="Q" horiz-adv-x="684" 
d="M557 -182q-104 0 -175.5 50t-106.5 127q-104 22 -166.5 109t-62.5 225q0 160 82 247.5t214 87.5t214 -88t82 -247q0 -131 -56.5 -216.5t-150.5 -112.5q22 -35 62 -49.5t81 -14.5q21 0 39.5 3t32.5 8l26 -107q-18 -9 -48 -15.5t-67 -6.5zM342 108q67 0 106 58.5t39 162.5
q0 97 -39 152.5t-106 55.5t-106 -55.5t-39 -152.5q0 -104 39 -162.5t106 -58.5z" />
    <glyph glyph-name="nine" unicode="9" horiz-adv-x="528" 
d="M252 342q25 0 50.5 14.5t44.5 48.5q-10 75 -38 103.5t-61 28.5q-32 0 -56 -24.5t-24 -78.5q0 -50 24 -71t60 -21zM229 -12q-63 0 -109.5 23t-76.5 53l78 88q16 -18 43 -31.5t55 -13.5q53 0 90 43.5t41 154.5q-25 -32 -61 -49.5t-66 -17.5q-81 0 -135 48t-54 148
q0 99 62.5 156t148.5 57q61 0 116.5 -32.5t90 -101.5t34.5 -181q0 -118 -36.5 -194.5t-95 -113t-125.5 -36.5z" />
    <glyph glyph-name="Aacute" unicode="&#xc1;" horiz-adv-x="573" 
d="M230 330l-16 -60h139l-15 60q-14 49 -27 104t-26 106h-4q-12 -52 -24.5 -106.5t-26.5 -103.5zM423 0l-40 155h-199l-40 -155h-150l204 652h177l204 -652h-156zM273 680l-66 74l171 140l78 -95z" />
    <glyph glyph-name="uni0327" 
d="M-102 -239l-11 59q59 3 81 13t22 31q0 15 -15.5 25.5t-61.5 16.5l48 98h86l-28 -65q76 -18 76 -75q0 -51 -51.5 -75.5t-145.5 -27.5z" />
    <glyph glyph-name="Euro" unicode="&#x20ac;" horiz-adv-x="528" 
d="M519 80q-75 -92 -182 -92q-94 0 -162.5 57.5t-91.5 169.5h-62v69l54 4q-1 13 -1 26t1 26h-54v68l62 5q23 112 94 173t171 61q96 0 163 -78l-82 -79q-19 19 -39.5 31t-46.5 12q-86 0 -112 -119h214v-74h-223v-21q0 -15 1 -29h182v-75h-172q28 -113 113 -113q52 0 92 54z
" />
    <glyph glyph-name="asciitilde" unicode="~" horiz-adv-x="528" 
d="M349 240q-41 0 -69.5 19t-52 38t-50.5 19q-39 0 -72 -58l-76 59q37 56 75 79.5t75 23.5q41 0 69.5 -19t52 -38t50.5 -19q39 0 72 58l76 -59q-37 -56 -75 -79.5t-75 -23.5z" />
    <glyph glyph-name="Atilde" unicode="&#xc3;" horiz-adv-x="573" 
d="M230 330l-16 -60h139l-15 60q-14 49 -27 104t-26 106h-4q-12 -52 -24.5 -106.5t-26.5 -103.5zM423 0l-40 155h-199l-40 -155h-150l204 652h177l204 -652h-156zM354 692q-35 0 -59.5 14.5t-43 29t-34.5 14.5q-32 0 -37 -49l-95 7q4 76 39 110t88 34q35 0 59.5 -14.5
t43 -29t34.5 -14.5q32 0 37 49l95 -7q-4 -75 -39 -109.5t-88 -34.5z" />
    <glyph glyph-name="N" unicode="N" horiz-adv-x="665" 
d="M77 0v652h151l170 -324l64 -144h4q-4 52 -11 116t-7 122v230h140v-652h-151l-170 325l-64 142h-4q5 -54 11.5 -116t6.5 -120v-231h-140z" />
    <glyph glyph-name="udieresis" unicode="&#xfc;" horiz-adv-x="568" 
d="M214 -12q-81 0 -117.5 53.5t-36.5 146.5v308h147v-289q0 -53 15 -73.5t47 -20.5q28 0 47 13t41 42v328h147v-496h-120l-11 69h-3q-32 -37 -68.5 -59t-87.5 -22zM394 569q-31 0 -51 20.5t-20 51.5q0 30 20 50.5t51 20.5t51.5 -20.5t20.5 -50.5q0 -31 -20.5 -51.5
t-51.5 -20.5zM176 569q-31 0 -51.5 20.5t-20.5 51.5q0 30 20.5 50.5t51.5 20.5t51 -20.5t20 -50.5q0 -31 -20 -51.5t-51 -20.5z" />
    <glyph glyph-name="c" unicode="c" horiz-adv-x="467" 
d="M281 -12q-103 0 -174 68t-71 192t77.5 192t180.5 68q46 0 81.5 -15t63.5 -38l-69 -95q-35 29 -67 29q-53 0 -84.5 -38.5t-31.5 -102.5t31.5 -102.5t79.5 -38.5q24 0 47 10.5t42 25.5l58 -96q-37 -32 -80 -45.5t-84 -13.5z" />
    <glyph glyph-name="ellipsis" unicode="&#x2026;" horiz-adv-x="978" 
d="M165 -12q-38 0 -63.5 26.5t-25.5 65.5q0 40 25.5 66.5t63.5 26.5t63.5 -26.5t25.5 -66.5q0 -39 -25.5 -65.5t-63.5 -26.5zM497 -12q-38 0 -63.5 26.5t-25.5 65.5q0 40 25.5 66.5t63.5 26.5t63.5 -26.5t25.5 -66.5q0 -39 -25.5 -65.5t-63.5 -26.5zM828 -12
q-38 0 -63.5 26.5t-25.5 65.5q0 40 25.5 66.5t63.5 26.5t63.5 -26.5t25.5 -66.5q0 -39 -25.5 -65.5t-63.5 -26.5z" />
    <glyph glyph-name="Iacute" unicode="&#xcd;" horiz-adv-x="301" 
d="M77 0v652h147v-652h-147zM141 680l-66 74l171 140l78 -95z" />
    <glyph glyph-name="L" unicode="L" horiz-adv-x="518" 
d="M77 0v652h147v-528h258v-124h-405z" />
    <glyph glyph-name="five" unicode="5" horiz-adv-x="528" 
d="M247 -12q-78 0 -132.5 26t-91.5 63l66 93q29 -26 63 -44.5t74 -18.5q49 0 78 25t29 74q0 48 -28 73t-72 25q-28 0 -46.5 -7t-47.5 -25l-66 42l18 321h360v-124h-233l-11 -119q33 15 71 15q82 0 142 -48t60 -149q0 -106 -70 -164t-163 -58z" />
    <glyph glyph-name="minus" unicode="&#x2212;" horiz-adv-x="528" 
d="M34 278v104h460v-104h-460z" />
    <glyph glyph-name="sterling" unicode="&#xa3;" horiz-adv-x="528" 
d="M497 124v-124h-449v91q45 20 75.5 60t30.5 93q0 13 -2 27h-100v86l68 5h6q-6 21 -11 41t-5 39q0 94 60.5 149.5t153.5 55.5q56 0 97.5 -21t75.5 -60l-80 -80q-35 42 -79 42q-40 0 -63.5 -23t-23.5 -71q0 -18 3 -36t8 -36h148v-91h-129q2 -14 2 -28q0 -64 -45 -115v-4h259
z" />
    <glyph glyph-name="j" unicode="j" horiz-adv-x="278" 
d="M140 569q-37 0 -61 21.5t-24 55.5t24 55t61 21t61 -21t24 -55t-24 -55.5t-61 -21.5zM36 -196q-31 0 -51.5 4t-35.5 10l26 108q10 -3 19.5 -5t19.5 -2q52 0 52 80v497h147v-493q0 -81 -38 -140t-139 -59z" />
    <glyph glyph-name="iacute" unicode="&#xed;" horiz-adv-x="276" 
d="M65 0v496h147v-496h-147zM148 572l-72 72l154 182l99 -97z" />
    <glyph glyph-name="g" unicode="g" horiz-adv-x="534" 
d="M253 246q29 0 48.5 21t19.5 62q0 39 -19.5 59.5t-48.5 20.5t-48.5 -20t-19.5 -60q0 -41 19.5 -62t48.5 -21zM242 -211q-87 0 -147.5 30t-60.5 96q0 60 71 100v4q-19 13 -32.5 33t-13.5 51q0 27 16 52t40 41v4q-26 18 -46.5 52t-20.5 77q0 89 62.5 134t142.5 45
q44 0 77 -12h181v-107h-79q16 -27 16 -65q0 -86 -56.5 -126.5t-138.5 -40.5q-29 0 -60 10q-18 -15 -18 -37q0 -19 17 -28t58 -9h80q92 0 140.5 -29.5t48.5 -96.5q0 -77 -74.5 -127.5t-202.5 -50.5zM265 -119q49 0 81.5 17.5t32.5 43.5q0 23 -19.5 31t-56.5 8h-51
q-46 0 -70 6q-27 -24 -27 -49q0 -28 30.5 -42.5t79.5 -14.5z" />
    <glyph glyph-name="plusminus" unicode="&#xb1;" horiz-adv-x="528" 
d="M210 158v136h-176v104h176v168h108v-168h176v-104h-176v-136h-108zM34 0v104h460v-104h-460z" />
    <glyph glyph-name="comma" unicode="," horiz-adv-x="300" 
d="M76 -194l-30 78q115 40 113 122h-8q-35 0 -62 21.5t-27 61.5q0 38 27 61t65 23q50 0 76 -37t26 -102q0 -82 -46 -142t-134 -86z" />
    <glyph glyph-name="ccedilla" unicode="&#xe7;" horiz-adv-x="467" 
d="M281 -12q-103 0 -174 68t-71 192t77.5 192t180.5 68q46 0 81.5 -15t63.5 -38l-69 -95q-35 29 -67 29q-53 0 -84.5 -38.5t-31.5 -102.5t31.5 -102.5t79.5 -38.5q24 0 47 10.5t42 25.5l58 -96q-37 -32 -80 -45.5t-84 -13.5zM181 -239l-11 59q58 3 80.5 13t22.5 31
q0 15 -15.5 25.5t-61.5 16.5l48 98h86l-28 -65q76 -18 76 -75q0 -51 -51.5 -75.5t-145.5 -27.5z" />
    <glyph glyph-name="Icircumflex" unicode="&#xce;" horiz-adv-x="301" 
d="M77 0v652h147v-652h-147zM-19 724l90 111h160l90 -111l-64 -39l-104 84h-4l-104 -84z" />
    <glyph glyph-name="guilsinglright" unicode="&#x203a;" horiz-adv-x="292" 
d="M109 56l-55 44l111 152l-111 152l55 44l134 -144v-104z" />
    <glyph glyph-name="b" unicode="b" horiz-adv-x="573" 
d="M325 -12q-70 0 -129 65h-4l-12 -53h-115v701h147v-172l-4 -76q61 55 131 55q90 0 142.5 -68.5t52.5 -182.5q0 -128 -64.5 -198.5t-144.5 -70.5zM291 108q38 0 65 35t27 111q0 134 -86 134q-44 0 -85 -45v-203q20 -18 40 -25t39 -7z" />
    <glyph glyph-name="bar" unicode="|" horiz-adv-x="268" 
d="M86 -250v1000h96v-1000h-96z" />
    <glyph glyph-name="Oacute" unicode="&#xd3;" horiz-adv-x="684" 
d="M342 -12q-132 0 -214 90.5t-82 250.5t82 247.5t214 87.5t214 -88t82 -247q0 -160 -82 -250.5t-214 -90.5zM342 115q67 0 106 58t39 156q0 97 -39 152.5t-106 55.5t-106 -55.5t-39 -152.5q0 -98 39 -156t106 -58zM332 680l-66 74l171 140l78 -95z" />
    <glyph glyph-name="i" unicode="i" horiz-adv-x="276" 
d="M138 569q-37 0 -61 21.5t-24 55.5t24 55t61 21q38 0 61.5 -21t23.5 -55t-23.5 -55.5t-61.5 -21.5zM65 0v496h147v-496h-147z" />
    <glyph glyph-name="space" unicode=" " horiz-adv-x="200" 
 />
    <glyph glyph-name="space" unicode="&#xa0;" horiz-adv-x="200" 
 />
    <glyph glyph-name="B" unicode="B" horiz-adv-x="605" 
d="M77 0v652h223q101 0 170.5 -34t69.5 -128q0 -44 -22.5 -85t-62.5 -56v-4q49 -13 83 -50.5t34 -102.5q0 -100 -73.5 -146t-179.5 -46h-242zM224 391h69q54 0 78.5 21t24.5 56q0 70 -102 70h-70v-147zM224 114h83q121 0 121 88q0 80 -121 80h-83v-168z" />
    <glyph glyph-name="agrave" unicode="&#xe0;" horiz-adv-x="527" 
d="M240 102q25 0 43.5 11t37.5 31v87q-78 -11 -108 -32t-30 -50q0 -47 57 -47zM190 -12q-68 0 -108 43.5t-40 106.5q0 78 66 122t213 59q-2 33 -19.5 52.5t-58.5 19.5q-31 0 -63 -12t-68 -33l-53 97q47 29 100 47t112 18q95 0 146 -55t51 -169v-284h-120l-10 51h-4
q-32 -28 -67 -45.5t-77 -17.5zM266 572l-181 157l99 97l154 -182z" />
    <glyph glyph-name="uacute" unicode="&#xfa;" horiz-adv-x="568" 
d="M214 -12q-81 0 -117.5 53.5t-36.5 146.5v308h147v-289q0 -53 15 -73.5t47 -20.5q28 0 47 13t41 42v328h147v-496h-120l-11 69h-3q-32 -37 -68.5 -59t-87.5 -22zM295 572l-72 72l154 182l99 -97z" />
    <glyph glyph-name="registered" unicode="&#xae;" horiz-adv-x="462" 
d="M231 311q-83 0 -141 56.5t-58 145.5t58 145.5t141 56.5q82 0 140 -56.5t58 -145.5t-58 -145.5t-140 -56.5zM231 360q63 0 103 41.5t40 111.5t-40 111.5t-103 41.5t-103.5 -41.5t-40.5 -111.5t40.5 -111.5t103.5 -41.5zM207 516h21q30 0 30 28q0 26 -30 26h-21v-54z
M150 416v197h89q35 0 58 -16t23 -50q0 -37 -35 -54l41 -77h-60l-30 60h-29v-60h-57z" />
    <glyph glyph-name="Y" unicode="Y" horiz-adv-x="525" 
d="M189 0v232l-197 420h158l58 -150q14 -37 27 -71.5t26 -72.5h4q14 38 27.5 72.5t27.5 71.5l59 150h154l-197 -420v-232h-147z" />
    <glyph glyph-name="semicolon" unicode=";" horiz-adv-x="300" 
d="M76 -194l-30 78q115 40 113 122h-8q-35 0 -62 21.5t-27 61.5q0 38 27 61t65 23q50 0 76 -37t26 -102q0 -82 -46 -142t-134 -86zM150 312q-38 0 -63.5 26.5t-25.5 65.5q0 40 25.5 66.5t63.5 26.5t63.5 -26.5t25.5 -66.5q0 -39 -25.5 -65.5t-63.5 -26.5z" />
    <glyph glyph-name="uni0302" 
d="M-183 613l108 131h150l108 -131l-56 -52l-125 92h-4l-125 -92z" />
    <glyph glyph-name="J" unicode="J" horiz-adv-x="509" 
d="M226 -12q-143 0 -210 118l100 74q35 -65 91 -65q40 0 60.5 24.5t20.5 89.5v423h147v-435q0 -95 -50.5 -162t-158.5 -67z" />
    <glyph glyph-name="p" unicode="p" horiz-adv-x="573" 
d="M291 108q38 0 65 35t27 111q0 134 -86 134q-43 0 -85 -45v-203q20 -18 40 -25t39 -7zM65 -184v680h120l10 -49h4q29 26 65.5 43.5t75.5 17.5q90 0 142 -68.5t52 -183.5q0 -128 -64.5 -198t-144.5 -70q-63 0 -118 52l5 -79v-145h-147z" />
    <glyph glyph-name="aacute" unicode="&#xe1;" horiz-adv-x="527" 
d="M240 102q25 0 43.5 11t37.5 31v87q-78 -11 -108 -32t-30 -50q0 -47 57 -47zM190 -12q-68 0 -108 43.5t-40 106.5q0 78 66 122t213 59q-2 33 -19.5 52.5t-58.5 19.5q-31 0 -63 -12t-68 -33l-53 97q47 29 100 47t112 18q95 0 146 -55t51 -169v-284h-120l-10 51h-4
q-32 -28 -67 -45.5t-77 -17.5zM286 572l-72 72l154 182l99 -97z" />
    <glyph glyph-name="quotedblright" unicode="&#x201d;" horiz-adv-x="537" 
d="M103 352l-32 64q90 45 90 127q-4 -1 -9 -1q-32 0 -54.5 19.5t-22.5 53.5q0 37 21.5 59.5t55.5 22.5q94 0 94 -131q0 -144 -143 -214zM340 352l-32 64q90 45 90 127q-4 -1 -9 -1q-32 0 -54.5 19.5t-22.5 53.5q0 37 21.5 59.5t55.5 22.5q94 0 94 -131q0 -144 -143 -214z
" />
    <glyph glyph-name="multiply" unicode="&#xd7;" horiz-adv-x="528" 
d="M121 112l-73 74l142 143l-142 144l73 74l143 -144l143 144l73 -74l-142 -144l142 -143l-73 -74l-143 144z" />
    <glyph glyph-name="y" unicode="y" horiz-adv-x="521" 
d="M120 -194q-22 0 -38.5 3t-31.5 7l26 112q7 -2 16 -4t17 -2q37 0 57 18t30 47l7 26l-191 483h148l71 -213q11 -34 20 -69t19 -72h4q8 35 16.5 70.5t17.5 70.5l60 213h141l-172 -501q-35 -94 -82 -141.5t-135 -47.5z" />
    <glyph glyph-name="circumflex" unicode="&#x2c6;" horiz-adv-x="555" 
d="M95 613l108 131h150l108 -131l-56 -52l-125 92h-4l-125 -92z" />
    <glyph glyph-name="uni0303" 
d="M66 573q-32 0 -55 16t-41 32t-33 16q-29 0 -35 -55l-92 5q4 152 124 152q32 0 55 -16t41 -32t33 -16q29 0 35 55l92 -5q-4 -152 -124 -152z" />
    <glyph glyph-name="uni0300.cap" 
d="M10 680l-183 119l78 95l171 -140z" />
    <glyph glyph-name="w" unicode="w" horiz-adv-x="776" 
d="M148 0l-124 496h146l48 -230q6 -37 11 -73.5t11 -73.5h4q7 37 13.5 74.5t15.5 72.5l55 230h127l56 -230q9 -37 16 -73.5t15 -73.5h4q7 37 11.5 73.5t11.5 73.5l47 230h136l-119 -496h-172l-45 198q-8 34 -14 69.5t-13 75.5h-4q-7 -40 -12.5 -75.5t-12.5 -69.5l-44 -198
h-168z" />
    <glyph glyph-name="thorn" unicode="&#xfe;" horiz-adv-x="573" 
d="M291 108q38 0 65 35t27 111q0 134 -86 134q-43 0 -85 -45v-203q20 -18 40 -25t39 -7zM65 -184v885h147v-172l-4 -70q57 49 124 49q94 0 148 -68.5t54 -183.5q0 -128 -64.5 -198t-144.5 -70q-36 0 -63.5 12t-53.5 35l4 -74v-145h-147z" />
    <glyph glyph-name="Ccedilla" unicode="&#xc7;" horiz-adv-x="582" 
d="M445 -136q0 -51 -51.5 -75.5t-145.5 -27.5l-11 59q59 3 81 13t22 31q0 15 -15.5 25.5t-61.5 16.5l42 85q-109 14 -184 98t-75 233q0 108 42.5 184.5t113 117t152.5 40.5q63 0 113 -25.5t83 -59.5l-78 -94q-25 23 -52.5 37.5t-62.5 14.5q-67 0 -113.5 -56t-46.5 -154
q0 -101 43 -156.5t115 -55.5q40 0 71.5 17.5t55.5 43.5l78 -92q-68 -79 -169 -93l-22 -52q76 -18 76 -75z" />
    <glyph glyph-name="quotedblleft" unicode="&#x201c;" horiz-adv-x="537" 
d="M149 338q-47 0 -70.5 35t-23.5 96q0 144 142 214l32 -64q-90 -45 -90 -127q5 1 10 1q31 0 54 -19.5t23 -53.5q0 -38 -22 -60t-55 -22zM386 338q-47 0 -70.5 35t-23.5 96q0 144 142 214l32 -64q-90 -45 -90 -127q5 1 10 1q31 0 54 -19.5t23 -53.5q0 -38 -22 -60t-55 -22z
" />
    <glyph glyph-name="F" unicode="F" horiz-adv-x="524" 
d="M77 0v652h411v-124h-264v-151h226v-124h-226v-253h-147z" />
    <glyph glyph-name="ucircumflex" unicode="&#xfb;" horiz-adv-x="568" 
d="M214 -12q-81 0 -117.5 53.5t-36.5 146.5v308h147v-289q0 -53 15 -73.5t47 -20.5q28 0 47 13t41 42v328h147v-496h-120l-11 69h-3q-32 -37 -68.5 -59t-87.5 -22zM102 613l108 131h150l108 -131l-56 -52l-125 92h-4l-125 -92z" />
    <glyph glyph-name="icircumflex" unicode="&#xee;" horiz-adv-x="276" 
d="M65 0v496h147v-496h-147zM-45 613l108 131h150l108 -131l-56 -52l-125 92h-4l-125 -92z" />
    <glyph glyph-name="Adieresis" unicode="&#xc4;" horiz-adv-x="573" 
d="M230 330l-16 -60h139l-15 60q-14 49 -27 104t-26 106h-4q-12 -52 -24.5 -106.5t-26.5 -103.5zM423 0l-40 155h-199l-40 -155h-150l204 652h177l204 -652h-156zM394 700q-31 0 -50.5 20t-19.5 50t19.5 50t50.5 20t50.5 -20t19.5 -50t-19.5 -50t-50.5 -20zM172 700
q-31 0 -50.5 20t-19.5 50t19.5 50t50.5 20t50.5 -20t19.5 -50t-19.5 -50t-50.5 -20z" />
    <glyph glyph-name="AE" unicode="&#xc6;" horiz-adv-x="845" 
d="M303 356l-42 -93h125v278h-4q-20 -48 -40 -95t-39 -90zM386 0v149h-177l-68 -149h-155l310 652h487v-124h-250v-131h211v-123h-211v-150h260v-124h-407z" />
    <glyph glyph-name="zero.dnom" horiz-adv-x="376" 
d="M188 -12q-70 0 -116 55t-46 153t46 152t116 54t116.5 -54t46.5 -152t-46.5 -153t-116.5 -55zM188 70q25 0 42.5 28t17.5 98t-17.5 97t-42.5 27t-42.5 -27t-17.5 -97t17.5 -98t42.5 -28z" />
    <glyph glyph-name="Odieresis" unicode="&#xd6;" horiz-adv-x="684" 
d="M342 -12q-132 0 -214 90.5t-82 250.5t82 247.5t214 87.5t214 -88t82 -247q0 -160 -82 -250.5t-214 -90.5zM342 115q67 0 106 58t39 156q0 97 -39 152.5t-106 55.5t-106 -55.5t-39 -152.5q0 -98 39 -156t106 -58zM453 700q-31 0 -50.5 20t-19.5 50t19.5 50t50.5 20
t50.5 -20t19.5 -50t-19.5 -50t-50.5 -20zM231 700q-31 0 -50.5 20t-19.5 50t19.5 50t50.5 20t50.5 -20t19.5 -50t-19.5 -50t-50.5 -20z" />
    <glyph glyph-name="backslash" unicode="\" horiz-adv-x="339" 
d="M230 -160l-202 870h96l202 -870h-96z" />
    <glyph glyph-name="quoteright" unicode="&#x2019;" horiz-adv-x="300" 
d="M103 352l-32 64q90 45 90 127q-4 -1 -9 -1q-32 0 -54.5 19.5t-22.5 53.5q0 37 21.5 59.5t55.5 22.5q94 0 94 -131q0 -144 -143 -214z" />
    <glyph glyph-name="tilde" unicode="&#x2dc;" horiz-adv-x="555" 
d="M344 573q-32 0 -55 16t-41 32t-33 16q-29 0 -35 -55l-92 5q4 152 124 152q32 0 55 -16t41 -32t33 -16q29 0 35 55l92 -5q-4 -152 -124 -152z" />
    <glyph glyph-name="Oslash" unicode="&#xd8;" horiz-adv-x="684" 
d="M116 -41l-76 58l544 676l76 -59zM343 -12q-132 0 -214 90.5t-82 250.5t82 247.5t214 87.5t214 -88t82 -247q0 -160 -82 -250.5t-214 -90.5zM343 115q67 0 106 58t39 156q0 97 -39 152.5t-106 55.5t-106 -55.5t-39 -152.5q0 -98 39 -156t106 -58z" />
    <glyph glyph-name="K" unicode="K" horiz-adv-x="614" 
d="M77 0v652h147v-267h4l194 267h162l-197 -260l233 -392h-161l-159 275l-76 -100v-175h-147z" />
    <glyph glyph-name="less" unicode="&#x3c;" horiz-adv-x="528" 
d="M494 104l-460 177v102l460 177v-121l-176 -58l-135 -47v-4l135 -47l176 -58v-121z" />
    <glyph glyph-name="grave" unicode="`" horiz-adv-x="555" 
d="M268 572l-181 157l99 97l154 -182z" />
    <glyph glyph-name="Udieresis" unicode="&#xdc;" horiz-adv-x="665" 
d="M334 -12q-127 0 -194 75t-67 239v350h148v-365q0 -96 29 -134t84 -38t85 38t30 134v365h142v-350q0 -164 -65.5 -239t-191.5 -75zM443 700q-31 0 -50.5 20t-19.5 50t19.5 50t50.5 20t50.5 -20t19.5 -50t-19.5 -50t-50.5 -20zM221 700q-31 0 -50.5 20t-19.5 50t19.5 50
t50.5 20t50.5 -20t19.5 -50t-19.5 -50t-50.5 -20z" />
    <glyph glyph-name="a" unicode="a" horiz-adv-x="527" 
d="M240 102q25 0 43.5 11t37.5 31v87q-78 -11 -108 -32t-30 -50q0 -47 57 -47zM190 -12q-68 0 -108 43.5t-40 106.5q0 78 66 122t213 59q-2 33 -19.5 52.5t-58.5 19.5q-31 0 -63 -12t-68 -33l-53 97q47 29 100 47t112 18q95 0 146 -55t51 -169v-284h-120l-10 51h-4
q-32 -28 -67 -45.5t-77 -17.5z" />
    <glyph glyph-name="percent" unicode="%" horiz-adv-x="857" 
d="M188 250q-70 0 -116 55t-46 153t46 152t116 54t116.5 -54t46.5 -152t-46.5 -153t-116.5 -55zM188 332q25 0 42.5 28t17.5 98t-17.5 97t-42.5 27t-42.5 -27t-17.5 -97t17.5 -98t42.5 -28zM210 -12l352 676h85l-352 -676h-85zM669 -12q-70 0 -116 55t-46 153t46 152t116 54
t116.5 -54t46.5 -152t-46.5 -153t-116.5 -55zM669 70q25 0 42.5 28t17.5 98t-17.5 97t-42.5 27t-42.5 -27t-17.5 -97t17.5 -98t42.5 -28z" />
    <glyph glyph-name="Thorn" unicode="&#xde;" horiz-adv-x="617" 
d="M77 0v652h147v-99h91q106 0 180.5 -45.5t74.5 -163.5q0 -116 -76 -168.5t-179 -52.5h-91v-123h-147zM224 240h82q120 0 120 104q0 51 -31 71.5t-89 20.5h-82v-196z" />
    <glyph glyph-name="acute" unicode="&#xb4;" horiz-adv-x="555" 
d="M288 572l-72 72l154 182l99 -97z" />
    <glyph glyph-name="bracketleft" unicode="[" horiz-adv-x="344" 
d="M87 -152v860h211v-78h-101v-704h101v-78h-211z" />
    <glyph glyph-name="three" unicode="3" horiz-adv-x="528" 
d="M243 -12q-77 0 -132 25t-89 65l68 93q28 -28 63 -46t76 -18q47 0 75 19.5t28 55.5q0 42 -34 66.5t-137 24.5v104q85 0 117.5 23.5t32.5 61.5q0 70 -78 70q-34 0 -61.5 -15t-57.5 -41l-74 90q44 38 93 59.5t107 21.5q98 0 158.5 -45.5t60.5 -128.5q0 -96 -106 -141v-4
q55 -16 90.5 -55t35.5 -100q0 -89 -70 -137t-166 -48z" />
    <glyph glyph-name="ampersand" unicode="&#x26;" horiz-adv-x="667" 
d="M613 -12q-81 16 -167 66q-41 -31 -92.5 -48.5t-112.5 -17.5q-106 0 -161.5 55.5t-55.5 130.5q0 68 35.5 110.5t83.5 73.5q-40 75 -40 135q0 70 47.5 120.5t129.5 50.5q73 0 116.5 -40t43.5 -108q0 -64 -42.5 -107t-93.5 -78q54 -63 131 -119q24 32 43.5 71t31.5 85h134
q-18 -59 -44.5 -114t-64.5 -106q65 -33 113 -41zM224 494q0 -35 21 -78q36 21 59.5 44t23.5 56q0 51 -45 51q-25 0 -42 -19.5t-17 -53.5zM260 100q39 0 82 26q-77 62 -135 135q-20 -17 -32 -36.5t-12 -41.5q0 -37 27 -60t70 -23z" />
    <glyph glyph-name="currency" unicode="&#xa4;" horiz-adv-x="528" 
d="M93 83l-73 74l61 62q-34 46 -34 111q0 63 33 109l-60 62l73 74l69 -70q48 25 102 25q52 0 102 -25l69 70l73 -74l-61 -62q34 -45 34 -109q0 -62 -34 -111l61 -62l-73 -74l-70 71q-47 -24 -101 -24t-101 24zM264 232q36 0 61 26.5t25 71.5q0 44 -25 71t-61 27t-61 -27
t-25 -71q0 -45 25 -71.5t61 -26.5z" />
    <glyph glyph-name="W" unicode="W" horiz-adv-x="813" 
d="M135 0l-121 652h151l45 -305q6 -51 13 -102.5t13 -103.5h4q10 52 19.5 103.5t19.5 102.5l70 305h125l70 -305q10 -49 19.5 -101t19.5 -105h4q7 53 13.5 104.5t13.5 101.5l45 305h141l-116 -652h-185l-64 296q-8 38 -14.5 76.5t-11.5 74.5h-4q-6 -36 -12.5 -74.5
t-14.5 -76.5l-61 -296h-182z" />
    <glyph glyph-name="n" unicode="n" horiz-adv-x="572" 
d="M65 0v496h120l10 -63h4q31 30 70 52.5t89 22.5q81 0 117.5 -53.5t36.5 -146.5v-308h-147v289q0 54 -14.5 74t-46.5 20q-28 0 -48 -12.5t-44 -35.5v-335h-147z" />
    <glyph glyph-name="asciicircum" unicode="^" horiz-adv-x="528" 
d="M50 274l155 396h118l155 -396h-121l-46 128l-45 135h-4l-45 -135l-46 -128h-121z" />
    <glyph glyph-name="oslash" unicode="&#xf8;" horiz-adv-x="555" 
d="M178 256q0 -38 7 -67l149 186q-22 19 -56 19q-46 0 -73 -38t-27 -100zM278 102q45 0 72 38t27 100q0 39 -7 68l-150 -186q23 -20 58 -20zM278 -12q-74 0 -134 40l-43 -53l-55 42l47 58q-26 32 -41.5 75.5t-15.5 97.5q0 82 34 140.5t89.5 89t118.5 30.5q73 0 132 -39
l44 54l55 -43l-47 -58q26 -33 41.5 -76.5t15.5 -97.5q0 -82 -34 -140.5t-89.5 -89t-117.5 -30.5z" />
    <glyph glyph-name="Ucircumflex" unicode="&#xdb;" horiz-adv-x="665" 
d="M334 -12q-127 0 -194 75t-67 239v350h148v-365q0 -96 29 -134t84 -38t85 38t30 134v365h142v-350q0 -164 -65.5 -239t-191.5 -75zM162 724l90 111h160l90 -111l-64 -39l-104 84h-4l-104 -84z" />
    <glyph glyph-name="exclam" unicode="!" horiz-adv-x="340" 
d="M122 231l-21 306l-5 133h148l-5 -133l-21 -306h-96zM170 -12q-38 0 -63.5 26.5t-25.5 65.5q0 40 25.5 66.5t63.5 26.5t63.5 -26.5t25.5 -66.5q0 -39 -25.5 -65.5t-63.5 -26.5z" />
    <glyph glyph-name="four.sups" unicode="&#x2074;" horiz-adv-x="376" 
d="M134 532h80v41l6 117h-4l-40 -77zM368 462h-58v-87h-96v87h-179v54l141 249h134v-233h58v-70z" />
    <glyph glyph-name="slash" unicode="/" horiz-adv-x="339" 
d="M13 -160l201 870h96l-201 -870h-96z" />
    <glyph glyph-name="yen" unicode="&#xa5;" horiz-adv-x="528" 
d="M190 0v147h-153v70h153v55h-153v70h122l-147 293h151l51 -133l24 -66t26 -65h4q13 33 25 66t25 65l50 133h148l-147 -293h122v-70h-154v-55h154v-70h-154v-147h-147z" />
    <glyph glyph-name="copyright" unicode="&#xa9;" horiz-adv-x="750" 
d="M375 -9q-89 0 -164 40.5t-120.5 115.5t-45.5 178t45.5 177t120.5 113.5t164 39.5t163.5 -39.5t120 -113.5t45.5 -177t-45.5 -178t-120 -115.5t-163.5 -40.5zM375 52q110 0 186 75t76 198t-76 196.5t-186 73.5t-186 -73.5t-76 -196.5t76 -198t186 -75zM387 127
q-84 0 -138.5 53t-54.5 144q0 88 58.5 140t134.5 52q46 0 77 -17.5t55 -41.5l-55 -61q-32 34 -68 34q-47 0 -72 -31t-25 -75q0 -51 25 -81t67 -30q25 0 43 9.5t37 24.5l48 -68q-29 -23 -61 -37.5t-71 -14.5z" />
    <glyph glyph-name="question" unicode="?" horiz-adv-x="463" 
d="M154 231q-8 51 10 89.5t45.5 68.5t49 56.5t21.5 54.5q0 31 -18.5 47t-48.5 16q-28 0 -49.5 -13t-41.5 -33l-81 74q35 41 84 66t107 25q80 0 134.5 -41t54.5 -130q0 -47 -22.5 -80t-51 -62t-49 -61t-15.5 -77h-129zM218 -12q-38 0 -63 26.5t-25 65.5q0 40 25 66.5t63 26.5
t63.5 -26.5t25.5 -66.5q0 -39 -25.5 -65.5t-63.5 -26.5z" />
    <glyph glyph-name="uni00B5" unicode="&#xb5;" horiz-adv-x="594" 
d="M65 -177v673h147v-289q0 -53 15 -73.5t46 -20.5q25 0 45 14.5t40 50.5v318h148q-2 -87 -6 -186t-4 -161q0 -42 44 -42q16 0 32 6l17 -109q-16 -7 -35.5 -11.5t-51.5 -4.5q-104 0 -128 83h-4q-37 -78 -105 -78q-18 0 -34 4.5t-28 18.5q1 -56 3 -98.5t7 -94.5h-148z" />
    <glyph glyph-name="Eth" unicode="&#xd0;" horiz-adv-x="660" 
d="M294 0h-192v301h-76v66l76 5v280h184q149 0 238 -77.5t89 -245.5t-88 -248.5t-231 -80.5zM249 119h28q83 0 134 46.5t51 163.5t-51 160.5t-134 43.5h-28v-161h125v-71h-125v-182z" />
    <glyph glyph-name="germandbls" unicode="&#xdf;" horiz-adv-x="632" 
d="M421 -12q-44 0 -79.5 12t-71.5 33l51 100q49 -36 95 -36q55 0 55 48q0 29 -26.5 46.5t-61.5 35t-61.5 45.5t-26.5 78q0 38 17.5 64t35.5 51t18 62q0 29 -16.5 48.5t-47.5 19.5q-46 0 -69 -33.5t-23 -91.5v-470h-145v487q0 97 58 160.5t179 63.5q103 0 154 -51.5
t51 -115.5q0 -48 -19.5 -77t-39 -51t-19.5 -48q0 -25 26.5 -40.5t61.5 -34.5t61.5 -51t26.5 -90q0 -68 -46.5 -116t-137.5 -48z" />
    <glyph glyph-name="OE" unicode="&#x152;" horiz-adv-x="871" 
d="M373 0q-139 0 -233 80.5t-94 248.5t95 245.5t240 77.5h427v-124h-247v-131h208v-123h-208v-150h257v-124h-445zM390 119h23v414h-23q-86 0 -139.5 -43t-53.5 -161q0 -119 53.5 -164.5t139.5 -45.5z" />
    <glyph glyph-name="h" unicode="h" horiz-adv-x="571" 
d="M65 0v701h147v-172l-7 -89q28 25 65.5 46.5t87.5 21.5q81 0 117.5 -53.5t36.5 -146.5v-308h-147v289q0 54 -14.5 74t-46.5 20q-28 0 -48 -12.5t-44 -35.5v-335h-147z" />
    <glyph glyph-name="adieresis" unicode="&#xe4;" horiz-adv-x="527" 
d="M240 102q25 0 43.5 11t37.5 31v87q-78 -11 -108 -32t-30 -50q0 -47 57 -47zM190 -12q-68 0 -108 43.5t-40 106.5q0 78 66 122t213 59q-2 33 -19.5 52.5t-58.5 19.5q-31 0 -63 -12t-68 -33l-53 97q47 29 100 47t112 18q95 0 146 -55t51 -169v-284h-120l-10 51h-4
q-32 -28 -67 -45.5t-77 -17.5zM385 569q-31 0 -51 20.5t-20 51.5q0 30 20 50.5t51 20.5t51.5 -20.5t20.5 -50.5q0 -31 -20.5 -51.5t-51.5 -20.5zM167 569q-31 0 -51.5 20.5t-20.5 51.5q0 30 20.5 50.5t51.5 20.5t51 -20.5t20 -50.5q0 -31 -20 -51.5t-51 -20.5z" />
    <glyph glyph-name="Ntilde" unicode="&#xd1;" horiz-adv-x="665" 
d="M77 0v652h151l170 -324l64 -144h4q-4 52 -11 116t-7 122v230h140v-652h-151l-170 325l-64 142h-4q5 -54 11.5 -116t6.5 -120v-231h-140zM404 692q-36 0 -60 14.5t-42 29t-35 14.5q-32 0 -37 -49l-95 7q4 76 39.5 110t87.5 34q36 0 60 -14.5t42 -29t35 -14.5q32 0 37 49
l95 -7q-4 -75 -39.5 -109.5t-87.5 -34.5z" />
    <glyph glyph-name="t" unicode="t" horiz-adv-x="383" 
d="M256 -12q-92 0 -131.5 53t-39.5 139v201h-68v109l76 6l17 132h122v-132h119v-115h-119v-199q0 -79 64 -79q12 0 24.5 3t22.5 7l23 -107q-20 -6 -47 -12t-63 -6z" />
    <glyph glyph-name="threequarters" unicode="&#xbe;" horiz-adv-x="818" 
d="M183 250q-106 0 -159 79l65 51q35 -48 83 -48q23 0 39.5 12t16.5 35q0 51 -93 51v62q36 0 57.5 11.5t21.5 36.5q0 42 -49 42q-19 0 -34.5 -11t-29.5 -28l-61 54q32 35 65 51t79 16q54 0 95 -29t41 -80q0 -57 -57 -90q30 -12 50.5 -35.5t20.5 -58.5q0 -54 -45.5 -87.5
t-105.5 -33.5zM207 -12l352 676h85l-352 -676h-85zM575 157h80v41l6 117h-4l-40 -77zM809 87h-58v-87h-96v87h-179v54l141 249h134v-233h58v-70z" />
    <glyph glyph-name="guilsinglleft" unicode="&#x2039;" horiz-adv-x="292" 
d="M183 56l-134 144v104l134 144l55 -44l-111 -152l111 -152z" />
    <glyph glyph-name="periodcentered" unicode="&#xb7;" horiz-adv-x="300" 
d="M150 228q-38 0 -63.5 26.5t-25.5 65.5q0 40 25.5 66.5t63.5 26.5t63.5 -26.5t25.5 -66.5q0 -39 -25.5 -65.5t-63.5 -26.5z" />
    <glyph glyph-name="acircumflex" unicode="&#xe2;" horiz-adv-x="527" 
d="M240 102q25 0 43.5 11t37.5 31v87q-78 -11 -108 -32t-30 -50q0 -47 57 -47zM190 -12q-68 0 -108 43.5t-40 106.5q0 78 66 122t213 59q-2 33 -19.5 52.5t-58.5 19.5q-31 0 -63 -12t-68 -33l-53 97q47 29 100 47t112 18q95 0 146 -55t51 -169v-284h-120l-10 51h-4
q-32 -28 -67 -45.5t-77 -17.5zM93 613l108 131h150l108 -131l-56 -52l-125 92h-4l-125 -92z" />
    <glyph glyph-name="plus" unicode="+" horiz-adv-x="528" 
d="M210 94v184h-176v104h176v184h108v-184h176v-104h-176v-184h-108z" />
    <glyph glyph-name="logicalnot" unicode="&#xac;" horiz-adv-x="528" 
d="M386 94v184h-352v104h460v-288h-108z" />
    <glyph glyph-name="uni00AD" unicode="&#xad;" horiz-adv-x="332" 
d="M43 201v104h246v-104h-246z" />
    <glyph glyph-name="Ograve" unicode="&#xd2;" horiz-adv-x="684" 
d="M342 -12q-132 0 -214 90.5t-82 250.5t82 247.5t214 87.5t214 -88t82 -247q0 -160 -82 -250.5t-214 -90.5zM342 115q67 0 106 58t39 156q0 97 -39 152.5t-106 55.5t-106 -55.5t-39 -152.5q0 -98 39 -156t106 -58zM352 680l-183 119l78 95l171 -140z" />
    <glyph glyph-name="Uacute" unicode="&#xda;" horiz-adv-x="665" 
d="M334 -12q-127 0 -194 75t-67 239v350h148v-365q0 -96 29 -134t84 -38t85 38t30 134v365h142v-350q0 -164 -65.5 -239t-191.5 -75zM322 680l-66 74l171 140l78 -95z" />
    <glyph glyph-name="quotedbl" unicode="&#x22;" horiz-adv-x="537" 
d="M110 354l-29 199l-5 133h148l-5 -133l-29 -199h-80zM347 354l-29 199l-5 133h148l-5 -133l-29 -199h-80z" />
    <glyph glyph-name="Z" unicode="Z" horiz-adv-x="541" 
d="M36 0v89l288 439h-261v124h442v-89l-288 -439h291v-124h-472z" />
    <glyph glyph-name="ordfeminine" unicode="&#xaa;" horiz-adv-x="359" 
d="M165 446q15 0 26.5 7t24.5 19v55q-50 -5 -69 -19.5t-19 -31.5q0 -30 37 -30zM130 367q-46 0 -73.5 29.5t-27.5 70.5q0 53 44.5 82t142.5 38q-5 44 -49 44q-20 0 -43 -8.5t-47 -21.5l-37 68q33 19 69.5 31.5t75.5 12.5q64 0 99.5 -37t35.5 -112v-189h-83l-10 34h-4
q-18 -18 -41.5 -30t-51.5 -12z" />
    <glyph glyph-name="A" unicode="A" horiz-adv-x="573" 
d="M230 330l-16 -60h139l-15 60q-14 49 -27 104t-26 106h-4q-12 -52 -24.5 -106.5t-26.5 -103.5zM423 0l-40 155h-199l-40 -155h-150l204 652h177l204 -652h-156z" />
    <glyph glyph-name="ae" unicode="&#xe6;" horiz-adv-x="786" 
d="M194 -12q-68 0 -107.5 43.5t-39.5 105.5q0 79 65 123.5t211 59.5q-2 32 -19 51.5t-58 19.5q-30 0 -62 -12t-68 -33l-52 97q47 29 98 47t105 18q92 0 138 -75q31 36 67 55.5t80 19.5q98 0 147.5 -70t49.5 -171q0 -20 -2 -36.5t-4 -25.5h-286q8 -52 41 -77t78 -25
q28 0 53 10t52 26l50 -95q-82 -56 -175 -56q-56 0 -98 21t-73 56q-53 -42 -97 -59.5t-94 -17.5zM457 295h167q0 45 -18 73t-59 28q-35 0 -59.5 -24.5t-30.5 -76.5zM244 102q49 0 93 42q-11 31 -14 66l-1 21q-73 -11 -104 -32t-31 -50q0 -47 57 -47z" />
    <glyph glyph-name="uni25CC" unicode="&#x25cc;" horiz-adv-x="577" 
d="M288 422q-16 0 -28 12t-12 32t12 31t28 11q43 0 43 -42q0 -44 -43 -44zM394 395q-16 0 -29 11.5t-13 31.5q0 21 13 32.5t29 11.5q17 0 30 -11.5t13 -32.5q0 -43 -43 -43zM183 396q-17 0 -29.5 11t-12.5 31q0 22 12.5 33t29.5 11t30 -11t13 -33q0 -42 -43 -42zM105 314
q-16 0 -28 12t-12 32q0 22 12 32.5t28 10.5q43 0 43 -43q0 -44 -43 -44zM473 314q-17 0 -30 11.5t-13 31.5q0 21 13 32t30 11t29.5 -11t12.5 -32q0 -43 -42 -43zM500 205q-18 0 -30.5 11.5t-12.5 32.5q0 20 12.5 31t30.5 11q16 0 29 -11t13 -31q0 -44 -42 -44zM77 205
q-17 0 -29 11.5t-12 32.5q0 20 12 31t29 11q44 0 44 -42q0 -44 -44 -44zM473 96q-17 0 -30 11.5t-13 31.5t13 31.5t30 11.5t29.5 -11.5t12.5 -31.5q0 -43 -42 -43zM105 96q-16 0 -28 11.5t-12 31.5t12 31.5t28 11.5q43 0 43 -43t-43 -43zM394 14q-16 0 -29 11.5t-13 33.5
q0 19 13 30t29 11q17 0 30 -11t13 -30q0 -45 -43 -45zM183 14q-17 0 -29.5 11.5t-12.5 33.5q0 19 12.5 30t29.5 11t30 -11t13 -30q0 -45 -43 -45zM288 -13q-16 0 -28 11.5t-12 33.5q0 20 12 30.5t28 10.5q43 0 43 -41q0 -45 -43 -45z" />
    <glyph glyph-name="two" unicode="2" horiz-adv-x="528" 
d="M37 0v84q121 115 198.5 199.5t77.5 152.5q0 46 -24.5 71t-65.5 25q-35 0 -62 -20t-51 -45l-80 79q47 50 96 75.5t117 25.5q94 0 152 -55.5t58 -146.5q0 -80 -63 -164t-140 -165q24 3 54 5.5t52 2.5h128v-124h-447z" />
    <glyph glyph-name="M" unicode="M" horiz-adv-x="762" 
d="M77 0v652h161l105 -290q10 -28 19 -59t19 -61h4q10 30 18.5 61t18.5 59l103 290h160v-652h-134v239q0 48 7 111.5t12 110.5h-4l-53 -155l-93 -249h-81l-93 249l-52 155h-4q5 -47 12 -110.5t7 -111.5v-239h-132z" />
    <glyph glyph-name="quotesinglbase" unicode="&#x201a;" horiz-adv-x="300" 
d="M103 -169l-32 64q90 45 90 127q-4 -1 -9 -1q-32 0 -54.5 19.5t-22.5 53.5q0 37 21.5 59.5t55.5 22.5q94 0 94 -131q0 -144 -143 -214z" />
    <glyph glyph-name="divide" unicode="&#xf7;" horiz-adv-x="528" 
d="M264 433q-34 0 -57.5 21.5t-23.5 55.5t23.5 55.5t57.5 21.5t57.5 -21.5t23.5 -55.5t-23.5 -55.5t-57.5 -21.5zM34 278v104h460v-104h-460zM264 73q-34 0 -57.5 21.5t-23.5 55.5t23.5 55.5t57.5 21.5t57.5 -21.5t23.5 -55.5t-23.5 -55.5t-57.5 -21.5z" />
    <glyph glyph-name="idieresis" unicode="&#xef;" horiz-adv-x="276" 
d="M65 0v496h147v-496h-147zM247 569q-31 0 -51 20.5t-20 51.5q0 30 20 50.5t51 20.5t51.5 -20.5t20.5 -50.5q0 -31 -20.5 -51.5t-51.5 -20.5zM29 569q-31 0 -51.5 20.5t-20.5 51.5q0 30 20.5 50.5t51.5 20.5t51 -20.5t20 -50.5q0 -31 -20 -51.5t-51 -20.5z" />
    <glyph glyph-name="d" unicode="d" horiz-adv-x="573" 
d="M280 108q48 0 81 45v203q-19 18 -40.5 25t-41.5 7q-35 0 -62 -34t-27 -104q0 -142 90 -142zM242 -12q-92 0 -147.5 69t-55.5 191t63.5 191t142.5 69q41 0 69 -14t53 -38l-6 76v169h147v-701h-120l-10 49h-4q-26 -26 -61 -43.5t-71 -17.5z" />
    <glyph glyph-name="cent" unicode="&#xa2;" horiz-adv-x="528" 
d="M486 113q-29 -25 -63 -40t-68 -19v-95h-81v95q-97 13 -156 78.5t-59 174.5q0 106 61 170.5t154 80.5v97h81v-93q76 -7 124 -56l-67 -90q-28 24 -57 27v-272q21 4 39 13.5t33 21.5zM202 307q0 -94 72 -125v250q-72 -31 -72 -125z" />
    <glyph glyph-name="f" unicode="f" horiz-adv-x="341" 
d="M326 381h-89v-381h-147v381h-66v109l66 5v27q0 79 41 135t142 56q31 0 57 -6t42 -12l-27 -108q-28 10 -51 10q-57 0 -57 -71v-30h89v-115z" />
    <glyph glyph-name="v" unicode="v" horiz-adv-x="523" 
d="M179 0l-167 496h148l64 -234q10 -37 19.5 -75.5t19.5 -77.5h4q17 75 38 153l65 234h141l-162 -496h-170z" />
    <glyph glyph-name="egrave" unicode="&#xe8;" horiz-adv-x="518" 
d="M287 -12q-107 0 -179 68.5t-72 191.5q0 80 33.5 138.5t87 90t113.5 31.5q106 0 158.5 -68.5t52.5 -169.5q0 -41 -6 -65h-297q10 -54 45 -79.5t84 -25.5q53 0 107 33l49 -89q-82 -56 -176 -56zM177 302h179q0 41 -19.5 67.5t-63.5 26.5q-35 0 -62 -23.5t-34 -70.5z
M260 572l-181 157l99 97l154 -182z" />
    <glyph glyph-name="at" unicode="@" horiz-adv-x="903" 
d="M428 -172q-100 0 -186.5 41t-139.5 125t-53 211q0 140 61.5 244.5t164 162t225.5 57.5q162 0 258 -99.5t96 -256.5q0 -91 -35 -152.5t-88 -92t-105 -30.5q-43 0 -75 20t-40 56h-2q-21 -29 -55 -47.5t-65 -18.5q-59 0 -95.5 40.5t-36.5 109.5q0 61 26.5 117t72.5 92
t103 36q52 0 76 -50h2l14 42h91l-46 -220q-21 -86 46 -86q45 0 82 48.5t37 131.5q0 71 -27.5 133t-87.5 100t-158 38q-86 0 -163.5 -46t-127 -129t-49.5 -196q0 -99 40.5 -163.5t107 -96.5t144.5 -32q39 0 79.5 11.5t72.5 27.5l32 -80q-89 -48 -196 -48zM420 140q32 0 66 45
l24 135q-15 29 -46 29q-45 0 -70.5 -48.5t-25.5 -93.5q0 -67 52 -67z" />
    <glyph glyph-name="X" unicode="X" horiz-adv-x="567" 
d="M11 0l181 335l-170 317h164l57 -123q11 -23 22 -48.5t25 -56.5h4q11 31 21.5 56.5t20.5 48.5l52 123h157l-169 -324l180 -328h-164l-65 133q-12 25 -23.5 51t-25.5 56h-4q-11 -30 -22.5 -56t-21.5 -51l-61 -133h-158z" />
    <glyph glyph-name="otilde" unicode="&#xf5;" horiz-adv-x="555" 
d="M278 -12q-63 0 -118.5 30.5t-89.5 89t-34 140.5t34 140.5t89.5 89t118.5 30.5q62 0 117.5 -30.5t89.5 -89t34 -140.5t-34 -140.5t-89.5 -89t-117.5 -30.5zM278 107q45 0 68 38.5t23 102.5t-23 102.5t-68 38.5q-46 0 -68.5 -38.5t-22.5 -102.5t22.5 -102.5t68.5 -38.5z
M344 573q-32 0 -55 16t-41 32t-33 16q-29 0 -35 -55l-92 5q4 152 124 152q32 0 55 -16t41 -32t33 -16q29 0 35 55l92 -5q-4 -152 -124 -152z" />
    <glyph glyph-name="Ugrave" unicode="&#xd9;" horiz-adv-x="665" 
d="M334 -12q-127 0 -194 75t-67 239v350h148v-365q0 -96 29 -134t84 -38t85 38t30 134v365h142v-350q0 -164 -65.5 -239t-191.5 -75zM342 680l-183 119l78 95l171 -140z" />
    <glyph glyph-name="k" unicode="k" horiz-adv-x="548" 
d="M65 0v701h143v-402h4l157 197h160l-174 -204l187 -292h-159l-112 193l-63 -71v-122h-143z" />
    <glyph glyph-name="ring" unicode="&#x2da;" horiz-adv-x="555" 
d="M278 564q-65 0 -98.5 30t-33.5 74t33.5 74t98.5 30t98.5 -30t33.5 -74t-33.5 -74t-98.5 -30zM278 619q18 0 30.5 13.5t12.5 35.5t-12.5 35.5t-30.5 13.5t-30.5 -13.5t-12.5 -35.5t12.5 -35.5t30.5 -13.5z" />
    <glyph glyph-name="Eacute" unicode="&#xc9;" horiz-adv-x="548" 
d="M77 0v652h408v-124h-261v-131h222v-123h-222v-150h271v-124h-418zM278 680l-66 74l171 140l78 -95z" />
    <glyph glyph-name="seven" unicode="7" horiz-adv-x="528" 
d="M159 0q6 106 23 190t52 161t95 160h-285v124h442v-90q-74 -89 -110 -166t-50 -166t-19 -213h-148z" />
    <glyph glyph-name="P" unicode="P" horiz-adv-x="596" 
d="M77 0v652h224q107 0 183 -46t76 -164q0 -115 -76 -168t-179 -53h-81v-221h-147zM224 338h72q120 0 120 104q0 51 -32 72t-92 21h-68v-197z" />
    <glyph glyph-name="period" unicode="." horiz-adv-x="300" 
d="M150 -12q-38 0 -63.5 26.5t-25.5 65.5q0 40 25.5 66.5t63.5 26.5t63.5 -26.5t25.5 -66.5q0 -39 -25.5 -65.5t-63.5 -26.5z" />
    <glyph glyph-name="section" unicode="&#xa7;" horiz-adv-x="528" 
d="M161 337q0 -31 27 -51t66.5 -36t78.5 -37q34 21 34 59q0 31 -26.5 51t-66 36t-78.5 36q-35 -22 -35 -58zM240 -84q-55 0 -107.5 20.5t-86.5 63.5l85 75q49 -51 109 -51t60 43q0 23 -26.5 39t-66 32t-78.5 38t-65.5 58t-26.5 92q0 37 21.5 71t58.5 57q-29 35 -29 83
q0 67 47 110t131 43q58 0 103.5 -20.5t76.5 -44.5l-67 -92q-23 20 -51 34t-54 14q-54 0 -54 -39q0 -21 27.5 -37t68 -32.5t80.5 -40t67.5 -59t27.5 -89.5q0 -83 -82 -133q23 -33 23 -77q0 -68 -49 -113t-143 -45z" />
    <glyph glyph-name="T" unicode="T" horiz-adv-x="556" 
d="M204 0v528h-179v124h506v-124h-179v-528h-148z" />
    <glyph glyph-name="four.dnom" horiz-adv-x="376" 
d="M134 157h80v41l6 117h-4l-40 -77zM368 87h-58v-87h-96v87h-179v54l141 249h134v-233h58v-70z" />
    <glyph glyph-name="underscore" unicode="_" horiz-adv-x="500" 
d="M12 -140v83h476v-83h-476z" />
    <glyph glyph-name="r" unicode="r" horiz-adv-x="398" 
d="M65 0v496h120l10 -87h4q27 50 65 74.5t76 24.5q21 0 34.5 -3t24.5 -7l-24 -127q-13 4 -25.5 6t-28.5 2q-28 0 -58.5 -20.5t-50.5 -70.5v-288h-147z" />
    <glyph glyph-name="odieresis" unicode="&#xf6;" horiz-adv-x="555" 
d="M278 -12q-63 0 -118.5 30.5t-89.5 89t-34 140.5t34 140.5t89.5 89t118.5 30.5q62 0 117.5 -30.5t89.5 -89t34 -140.5t-34 -140.5t-89.5 -89t-117.5 -30.5zM278 107q45 0 68 38.5t23 102.5t-23 102.5t-68 38.5q-46 0 -68.5 -38.5t-22.5 -102.5t22.5 -102.5t68.5 -38.5z
M387 569q-31 0 -51 20.5t-20 51.5q0 30 20 50.5t51 20.5t51.5 -20.5t20.5 -50.5q0 -31 -20.5 -51.5t-51.5 -20.5zM169 569q-31 0 -51.5 20.5t-20.5 51.5q0 30 20.5 50.5t51.5 20.5t51 -20.5t20 -50.5q0 -31 -20 -51.5t-51 -20.5z" />
    <glyph glyph-name="macron" unicode="&#xaf;" horiz-adv-x="555" 
d="M130 592v93h296v-93h-296z" />
    <glyph glyph-name="colon" unicode=":" horiz-adv-x="300" 
d="M150 312q-38 0 -63.5 26.5t-25.5 65.5q0 40 25.5 66.5t63.5 26.5t63.5 -26.5t25.5 -66.5q0 -39 -25.5 -65.5t-63.5 -26.5zM150 -12q-38 0 -63.5 26.5t-25.5 65.5q0 40 25.5 66.5t63.5 26.5t63.5 -26.5t25.5 -66.5q0 -39 -25.5 -65.5t-63.5 -26.5z" />
    <glyph glyph-name="q" unicode="q" horiz-adv-x="573" 
d="M361 -184v151l6 76q-25 -24 -58 -39.5t-67 -15.5q-92 0 -147.5 69t-55.5 191t63.5 191t142.5 69q75 0 132 -61h4l12 49h115v-680h-147zM280 108q48 0 81 45v203q-19 18 -40.5 25t-41.5 7q-35 0 -62 -34t-27 -104q0 -142 90 -142z" />
    <glyph glyph-name="s" unicode="s" horiz-adv-x="443" 
d="M211 -12q-49 0 -101 19t-89 50l66 92q69 -52 128 -52q63 0 63 42q0 25 -31.5 39t-69.5 29q-45 17 -88 51t-43 95q0 69 52 112t138 43q57 0 100 -19.5t75 -43.5l-66 -88q-27 19 -53 30.5t-52 11.5q-56 0 -56 -39q0 -24 29.5 -36.5t67.5 -26.5q47 -17 90.5 -49t43.5 -100
t-52 -114t-152 -46z" />
    <glyph glyph-name="U" unicode="U" horiz-adv-x="665" 
d="M334 -12q-127 0 -194 75t-67 239v350h148v-365q0 -96 29 -134t84 -38t85 38t30 134v365h142v-350q0 -164 -65.5 -239t-191.5 -75z" />
    <glyph glyph-name="O" unicode="O" horiz-adv-x="684" 
d="M342 -12q-132 0 -214 90.5t-82 250.5t82 247.5t214 87.5t214 -88t82 -247q0 -160 -82 -250.5t-214 -90.5zM342 115q67 0 106 58t39 156q0 97 -39 152.5t-106 55.5t-106 -55.5t-39 -152.5q0 -98 39 -156t106 -58z" />
    <glyph glyph-name="emdash" unicode="&#x2014;" horiz-adv-x="800" 
d="M43 206v94h714v-94h-714z" />
    <glyph glyph-name="guillemotright" unicode="&#xbb;" horiz-adv-x="480" 
d="M109 56l-55 44l111 152l-111 152l55 44l134 -144v-104zM297 56l-55 44l111 152l-111 152l55 44l134 -144v-104z" />
    <glyph glyph-name="endash" unicode="&#x2013;" horiz-adv-x="480" 
d="M43 206v94h394v-94h-394z" />
    <glyph glyph-name="uni0308" 
d="M109 569q-31 0 -51 20.5t-20 51.5q0 30 20 50.5t51 20.5t51.5 -20.5t20.5 -50.5q0 -31 -20.5 -51.5t-51.5 -20.5zM-109 569q-31 0 -51.5 20.5t-20.5 51.5q0 30 20.5 50.5t51.5 20.5t51 -20.5t20 -50.5q0 -31 -20 -51.5t-51 -20.5z" />
    <glyph glyph-name="H" unicode="H" horiz-adv-x="674" 
d="M77 0v652h147v-251h225v251h148v-652h-148v272h-225v-272h-147z" />
    <glyph glyph-name="aring" unicode="&#xe5;" horiz-adv-x="527" 
d="M240 102q25 0 43.5 11t37.5 31v87q-78 -11 -108 -32t-30 -50q0 -47 57 -47zM190 -12q-68 0 -108 43.5t-40 106.5q0 78 66 122t213 59q-2 33 -19.5 52.5t-58.5 19.5q-31 0 -63 -12t-68 -33l-53 97q47 29 100 47t112 18q95 0 146 -55t51 -169v-284h-120l-10 51h-4
q-32 -28 -67 -45.5t-77 -17.5zM276 564q-65 0 -98.5 30t-33.5 74t33.5 74t98.5 30t98.5 -30t33.5 -74t-33.5 -74t-98.5 -30zM276 619q18 0 30.5 13.5t12.5 35.5t-12.5 35.5t-30.5 13.5t-30.5 -13.5t-12.5 -35.5t12.5 -35.5t30.5 -13.5z" />
    <glyph glyph-name="ordmasculine" unicode="&#xba;" horiz-adv-x="373" 
d="M186 367q-64 0 -113 45.5t-49 126.5q0 82 49 128t113 46t113 -46t49 -128q0 -81 -49 -126.5t-113 -45.5zM186 449q29 0 43 24.5t14 65.5t-14 66.5t-43 25.5t-42.5 -25.5t-13.5 -66.5t13.5 -65.5t42.5 -24.5z" />
    <glyph glyph-name="quotesingle" unicode="'" horiz-adv-x="300" 
d="M110 354l-29 199l-5 133h148l-5 -133l-29 -199h-80z" />
    <glyph glyph-name="oe" unicode="&#x153;" horiz-adv-x="822" 
d="M267 -12q-95 0 -163 68t-68 192t70 192t164 68q52 0 92 -23t69 -64q63 87 157 87q98 0 148 -70t50 -171q0 -20 -2 -36.5t-4 -25.5h-287q8 -52 41 -77t78 -25q28 0 53 10t52 26l51 -95q-82 -56 -176 -56q-95 0 -160 87q-31 -43 -70.5 -65t-94.5 -22zM493 295h167
q0 45 -18 73t-59 28q-35 0 -59.5 -24.5t-30.5 -76.5zM270 107q40 0 63.5 38.5t23.5 102.5t-23.5 102.5t-63.5 38.5t-62.5 -38.5t-22.5 -102.5t22.5 -102.5t62.5 -38.5z" />
    <glyph glyph-name="one.dnom" horiz-adv-x="376" 
d="M165 0v281h-89v66q40 6 63.5 16t48.5 27h86v-390h-109z" />
    <glyph glyph-name="Otilde" unicode="&#xd5;" horiz-adv-x="684" 
d="M342 -12q-132 0 -214 90.5t-82 250.5t82 247.5t214 87.5t214 -88t82 -247q0 -160 -82 -250.5t-214 -90.5zM342 115q67 0 106 58t39 156q0 97 -39 152.5t-106 55.5t-106 -55.5t-39 -152.5q0 -98 39 -156t106 -58zM413 692q-35 0 -59.5 14.5t-43 29t-34.5 14.5
q-32 0 -37 -49l-95 7q4 76 39 110t88 34q35 0 59.5 -14.5t43 -29t34.5 -14.5q32 0 37 49l95 -7q-4 -75 -39 -109.5t-88 -34.5z" />
    <glyph glyph-name="six" unicode="6" horiz-adv-x="528" 
d="M492 201q0 -99 -62.5 -156t-148.5 -57q-61 0 -116 32.5t-89.5 102t-34.5 180.5q0 119 36.5 195t95 112.5t125.5 36.5q63 0 109 -22.5t76 -53.5l-77 -88q-16 18 -43.5 31.5t-55.5 13.5q-52 0 -89.5 -43.5t-41.5 -154.5q25 32 61 49.5t66 17.5q82 0 135.5 -47.5
t53.5 -148.5zM278 98q33 0 56.5 24.5t23.5 78.5q0 50 -23.5 71t-59.5 21q-25 0 -50.5 -14.5t-45.5 -48.5q10 -75 38 -103.5t61 -28.5z" />
    <glyph glyph-name="uni2215" unicode="&#x2215;" horiz-adv-x="96" 
d="M-171 -12l352 676h85l-352 -676h-85z" />
    <glyph glyph-name="R" unicode="R" horiz-adv-x="613" 
d="M224 352h76q119 0 119 97q0 48 -30.5 67t-88.5 19h-76v-183zM224 0h-147v652h235q104 0 177.5 -43.5t73.5 -159.5q0 -72 -32 -118t-84 -70l148 -261h-165l-125 235h-81v-235z" />
    <glyph glyph-name="three.sups" unicode="&#xb3;" horiz-adv-x="376" 
d="M186 363q-106 0 -159 79l65 51q35 -48 83 -48q23 0 39.5 12t16.5 35q0 51 -93 51v62q36 0 57.5 11.5t21.5 36.5q0 42 -49 42q-19 0 -34.5 -11t-29.5 -28l-61 54q32 35 65 51t79 16q54 0 95 -29t41 -80q0 -57 -57 -90q30 -12 50.5 -35.5t20.5 -58.5q0 -54 -45.5 -87.5
t-105.5 -33.5z" />
    <glyph glyph-name="braceleft" unicode="{" horiz-adv-x="344" 
d="M235 -152q-66 0 -97 30.5t-31 111.5q0 53 5 88.5t5 82.5q0 26 -18.5 49.5t-67.5 24.5v86q49 1 67.5 24.5t18.5 49.5q0 47 -5 82.5t-5 88.5q0 81 31 111.5t97 30.5h63v-78h-19q-31 0 -42 -14.5t-11 -55.5q0 -40 2 -78.5t2 -84.5q0 -57 -18 -82.5t-56 -34.5v-4
q38 -9 56 -34.5t18 -82.5q0 -46 -2 -84.5t-2 -78.5q0 -41 11 -55.5t42 -14.5h19v-78h-63z" />
    <glyph glyph-name="parenleft" unicode="(" horiz-adv-x="344" 
d="M204 -179q-63 103 -97.5 214t-34.5 243t34.5 243t97.5 214l92 -38q-55 -97 -80 -205t-25 -214t25 -214t80 -205z" />
    <glyph glyph-name="z" unicode="z" horiz-adv-x="460" 
d="M38 0v79l208 302h-185v115h368v-78l-208 -303h215v-115h-398z" />
    <glyph glyph-name="m" unicode="m" horiz-adv-x="857" 
d="M65 0v496h120l10 -64h4q31 31 66 53.5t84 22.5q53 0 85.5 -21.5t51.5 -61.5q33 34 69.5 58.5t86.5 24.5q80 0 117.5 -53.5t37.5 -146.5v-308h-147v289q0 54 -15 74t-46 20q-37 0 -85 -48v-335h-147v289q0 54 -14.5 74t-46.5 20q-38 0 -84 -48v-335h-147z" />
    <glyph glyph-name="onequarter" unicode="&#xbc;" horiz-adv-x="809" 
d="M135 262v281h-89v66q40 6 63.5 16t48.5 27h86v-390h-109zM185 -12l352 676h85l-352 -676h-85zM567 157h80v41l6 117h-4l-40 -77zM801 87h-58v-87h-96v87h-179v54l141 249h134v-233h58v-70z" />
    <glyph glyph-name="dotlessi" unicode="&#x131;" horiz-adv-x="276" 
d="M65 0v496h147v-496h-147z" />
    <glyph glyph-name="ntilde" unicode="&#xf1;" horiz-adv-x="572" 
d="M65 0v496h120l10 -63h4q31 30 70 52.5t89 22.5q81 0 117.5 -53.5t36.5 -146.5v-308h-147v289q0 54 -14.5 74t-46.5 20q-28 0 -48 -12.5t-44 -35.5v-335h-147zM374 573q-32 0 -55 16t-41 32t-33 16q-29 0 -35 -55l-92 5q4 152 124 152q32 0 55 -16t41 -32t33 -16
q29 0 35 55l92 -5q-4 -152 -124 -152z" />
    <glyph glyph-name="one.sups" unicode="&#xb9;" horiz-adv-x="376" 
d="M165 375v281h-89v66q40 6 63.5 16t48.5 27h86v-390h-109z" />
    <glyph glyph-name="hyphen" unicode="-" horiz-adv-x="332" 
d="M43 201v104h246v-104h-246z" />
    <glyph glyph-name="exclamdown" unicode="&#xa1;" horiz-adv-x="340" 
d="M170 323q-38 0 -63.5 26.5t-25.5 66.5q0 39 25.5 65.5t63.5 26.5t63.5 -26.5t25.5 -65.5q0 -40 -25.5 -66.5t-63.5 -26.5zM96 -174l5 133l21 306h96l21 -306l5 -133h-148z" />
    <glyph glyph-name="one" unicode="1" horiz-adv-x="528" 
d="M70 0v119h138v367h-119v91q52 10 88 24t70 34h108v-516h119v-119h-404z" />
    <glyph glyph-name="four" unicode="4" horiz-adv-x="528" 
d="M160 264h134v103q0 31 2 71.5t4 70.5h-4q-12 -26 -25 -53t-27 -54zM504 152h-73v-152h-137v152h-275v101l232 382h180v-371h73v-112z" />
    <glyph glyph-name="questiondown" unicode="&#xbf;" horiz-adv-x="463" 
d="M245 323q-38 0 -63.5 26.5t-25.5 66.5q0 39 25.5 65.5t63.5 26.5t63.5 -26.5t25.5 -65.5q0 -40 -25.5 -66.5t-63.5 -26.5zM232 -186q-81 0 -135.5 41.5t-54.5 130.5q0 46 22.5 79.5t51 62t49 61t16.5 76.5h128q7 -51 -10.5 -89.5t-45 -68.5t-49 -56.5t-21.5 -54.5
q0 -31 19 -47t48 -16q28 0 49.5 13t41.5 33l81 -74q-36 -41 -84 -66t-106 -25z" />
    <glyph glyph-name="quotedblbase" unicode="&#x201e;" horiz-adv-x="537" 
d="M103 -169l-32 64q90 45 90 127q-4 -1 -9 -1q-32 0 -54.5 19.5t-22.5 53.5q0 37 21.5 59.5t55.5 22.5q94 0 94 -131q0 -144 -143 -214zM340 -169l-32 64q90 45 90 127q-4 -1 -9 -1q-32 0 -54.5 19.5t-22.5 53.5q0 37 21.5 59.5t55.5 22.5q94 0 94 -131q0 -144 -143 -214z
" />
    <glyph glyph-name="e" unicode="e" horiz-adv-x="518" 
d="M287 -12q-107 0 -179 68.5t-72 191.5q0 80 33.5 138.5t87 90t113.5 31.5q106 0 158.5 -68.5t52.5 -169.5q0 -41 -6 -65h-297q10 -54 45 -79.5t84 -25.5q53 0 107 33l49 -89q-82 -56 -176 -56zM177 302h179q0 41 -19.5 67.5t-63.5 26.5q-35 0 -62 -23.5t-34 -70.5z" />
    <glyph glyph-name="bullet" unicode="&#x2022;" horiz-adv-x="345" 
d="M172 123q-56 0 -94 40t-38 99q0 60 38 99.5t94 39.5t94.5 -39.5t38.5 -99.5q0 -59 -38.5 -99t-94.5 -40z" />
    <glyph glyph-name="eight" unicode="8" horiz-adv-x="528" 
d="M263 -12q-95 0 -158 48.5t-63 125.5q0 58 31.5 95t76.5 61v4q-37 28 -61 64t-24 86q0 81 57.5 128t145.5 47q87 0 140 -47.5t53 -126.5q0 -46 -25 -81.5t-58 -57.5v-4q46 -25 78 -64t32 -102q0 -75 -62 -125.5t-163 -50.5zM303 370q39 45 39 93q0 37 -20.5 59.5
t-56.5 22.5q-29 0 -50 -18t-21 -55q0 -39 30 -61t79 -41zM266 90q37 0 61 19.5t24 59.5q0 42 -37 63.5t-97 47.5q-21 -20 -35 -46t-14 -55q0 -42 29 -65.5t69 -23.5z" />
    <glyph glyph-name="Ocircumflex" unicode="&#xd4;" horiz-adv-x="684" 
d="M342 -12q-132 0 -214 90.5t-82 250.5t82 247.5t214 87.5t214 -88t82 -247q0 -160 -82 -250.5t-214 -90.5zM342 115q67 0 106 58t39 156q0 97 -39 152.5t-106 55.5t-106 -55.5t-39 -152.5q0 -98 39 -156t106 -58zM172 724l90 111h160l90 -111l-64 -39l-104 84h-4l-104 -84
z" />
    <glyph glyph-name="eth" unicode="&#xf0;" horiz-adv-x="560" 
d="M273 -12q-93 0 -162 65t-69 175q0 107 62.5 167t140.5 60q29 0 57 -9.5t49 -32.5q-26 76 -85 133l-142 -71l-38 65l116 58q-38 26 -90 53l64 89q35 -18 70 -39t68 -46l143 72l38 -65l-120 -61q59 -60 97 -141.5t38 -193.5q0 -121 -63.5 -199.5t-173.5 -78.5zM278 107
q42 0 68.5 37t26.5 114q0 23 -1 45q-23 24 -47 33.5t-50 9.5q-43 0 -71 -29t-28 -89q0 -59 30.5 -90t71.5 -31z" />
    <glyph glyph-name="braceright" unicode="}" horiz-adv-x="344" 
d="M46 -152v78h19q31 0 42 14.5t11 55.5q0 40 -2 78.5t-2 84.5q0 57 18 82.5t56 34.5v4q-38 9 -56 34.5t-18 82.5q0 46 2 84.5t2 78.5q0 41 -11 55.5t-42 14.5h-19v78h63q66 0 97 -30.5t31 -111.5q0 -53 -5 -88.5t-5 -82.5q0 -26 18.5 -49.5t67.5 -24.5v-86
q-49 -1 -67.5 -24.5t-18.5 -49.5q0 -47 5 -82.5t5 -88.5q0 -81 -31 -111.5t-97 -30.5h-63z" />
    <glyph glyph-name="degree" unicode="&#xb0;" horiz-adv-x="365" 
d="M183 398q-60 0 -102 40.5t-42 103.5t42 103.5t102 40.5q61 0 103 -40.5t42 -103.5t-42 -103.5t-103 -40.5zM183 468q30 0 48.5 20.5t18.5 53.5q0 32 -18.5 52.5t-48.5 20.5q-29 0 -48 -20.5t-19 -52.5q0 -33 19 -53.5t48 -20.5z" />
    <glyph glyph-name="dollar" unicode="$" horiz-adv-x="528" 
d="M312 -110h-97v100q-44 5 -92 24.5t-84 51.5l64 99q38 -29 72.5 -43.5t70.5 -14.5q81 0 81 69q0 31 -26.5 52t-66 39.5t-79 42t-66 58.5t-26.5 89q0 74 40.5 122.5t111.5 62.5v103h97v-101q48 -7 84 -29t65 -53l-74 -84q-27 25 -52 37.5t-57 12.5q-74 0 -74 -64
q0 -28 26.5 -47.5t66 -37t79 -40.5t66 -59.5t26.5 -93.5q0 -72 -39.5 -123.5t-116.5 -68.5v-104z" />
    <glyph glyph-name="x" unicode="x" horiz-adv-x="514" 
d="M14 0l152 258l-143 238h158l44 -80q10 -21 20.5 -42.5t21.5 -42.5h4q7 21 16.5 42.5t17.5 42.5l34 80h152l-144 -255l153 -241h-158l-48 82q-12 21 -23.5 43t-23.5 43h-4q-9 -21 -19 -42.5t-19 -43.5l-39 -82h-152z" />
    <glyph glyph-name="brokenbar" unicode="&#xa6;" horiz-adv-x="268" 
d="M86 312v438h96v-438h-96zM86 -250v454h96v-454h-96z" />
    <glyph glyph-name="uni0301.cap" 
d="M-10 680l-66 74l171 140l78 -95z" />
    <glyph glyph-name="Idieresis" unicode="&#xcf;" horiz-adv-x="301" 
d="M77 0v652h147v-652h-147zM262 700q-31 0 -50.5 20t-19.5 50t19.5 50t50.5 20t50.5 -20t19.5 -50t-19.5 -50t-50.5 -20zM40 700q-31 0 -50.5 20t-19.5 50t19.5 50t50.5 20t50.5 -20t19.5 -50t-19.5 -50t-50.5 -20z" />
    <glyph glyph-name="Ecircumflex" unicode="&#xca;" horiz-adv-x="548" 
d="M77 0v652h408v-124h-261v-131h222v-123h-222v-150h271v-124h-418zM118 724l90 111h160l90 -111l-64 -39l-104 84h-4l-104 -84z" />
    <glyph glyph-name="greater" unicode="&#x3e;" horiz-adv-x="528" 
d="M34 104v121l176 58l135 47v4l-135 47l-176 58v121l460 -177v-102z" />
    <glyph glyph-name="Agrave" unicode="&#xc0;" horiz-adv-x="573" 
d="M230 330l-16 -60h139l-15 60q-14 49 -27 104t-26 106h-4q-12 -52 -24.5 -106.5t-26.5 -103.5zM423 0l-40 155h-199l-40 -155h-150l204 652h177l204 -652h-156zM293 680l-183 119l78 95l171 -140z" />
    <glyph glyph-name="two.dnom" horiz-adv-x="376" 
d="M45 0v58q75 62 123 109.5t48 84.5q0 61 -57 61q-35 0 -71 -47l-61 56q60 80 149 80q64 0 104 -34.5t40 -97.5q0 -47 -31.5 -90.5t-72.5 -89.5h118v-90h-289z" />
    <glyph glyph-name="V" unicode="V" horiz-adv-x="556" 
d="M190 0l-197 652h156l78 -304q15 -53 26.5 -104t26.5 -105h4q14 54 26 105t26 104l77 304h150l-196 -652h-177z" />
    <glyph glyph-name="G" unicode="G" horiz-adv-x="638" 
d="M365 -12q-134 0 -226.5 85t-92.5 249q0 108 43 184.5t115.5 117t159.5 40.5q70 0 121.5 -26t83.5 -59l-77 -94q-25 22 -53 37t-70 15q-76 0 -124 -56t-48 -154q0 -101 45.5 -156.5t137.5 -55.5q45 0 70 20v112h-108v120h238v-300q-34 -33 -90.5 -56t-124.5 -23z" />
    <glyph glyph-name="yacute" unicode="&#xfd;" horiz-adv-x="521" 
d="M120 -194q-22 0 -38.5 3t-31.5 7l26 112q7 -2 16 -4t17 -2q37 0 57 18t30 47l7 26l-191 483h148l71 -213q11 -34 20 -69t19 -72h4q8 35 16.5 70.5t17.5 70.5l60 213h141l-172 -501q-35 -94 -82 -141.5t-135 -47.5zM277 572l-72 72l154 182l99 -97z" />
    <glyph glyph-name="ograve" unicode="&#xf2;" horiz-adv-x="555" 
d="M278 -12q-63 0 -118.5 30.5t-89.5 89t-34 140.5t34 140.5t89.5 89t118.5 30.5q62 0 117.5 -30.5t89.5 -89t34 -140.5t-34 -140.5t-89.5 -89t-117.5 -30.5zM278 107q45 0 68 38.5t23 102.5t-23 102.5t-68 38.5q-46 0 -68.5 -38.5t-22.5 -102.5t22.5 -102.5t68.5 -38.5z
M268 572l-181 157l99 97l154 -182z" />
    <glyph glyph-name="uni0301" 
d="M10 572l-72 72l154 182l99 -97z" />
    <glyph glyph-name="uni0300" 
d="M-10 572l-181 157l99 97l154 -182z" />
    <glyph glyph-name="cedilla" unicode="&#xb8;" horiz-adv-x="555" 
d="M177 -239l-11 59q59 3 81 13t22 31q0 15 -15.5 25.5t-61.5 16.5l48 98h86l-28 -65q76 -18 76 -75q0 -51 -51.5 -75.5t-145.5 -27.5z" />
    <glyph glyph-name="three.dnom" horiz-adv-x="376" 
d="M186 -12q-106 0 -159 79l65 51q35 -48 83 -48q23 0 39.5 12t16.5 35q0 51 -93 51v62q36 0 57.5 11.5t21.5 36.5q0 42 -49 42q-19 0 -34.5 -11t-29.5 -28l-61 54q32 35 65 51t79 16q54 0 95 -29t41 -80q0 -57 -57 -90q30 -12 50.5 -35.5t20.5 -58.5q0 -54 -45.5 -87.5
t-105.5 -33.5z" />
    <glyph glyph-name="Egrave" unicode="&#xc8;" horiz-adv-x="548" 
d="M77 0v652h408v-124h-261v-131h222v-123h-222v-150h271v-124h-418zM298 680l-183 119l78 95l171 -140z" />
    <glyph glyph-name="paragraph" unicode="&#xb6;" horiz-adv-x="636" 
d="M297 197q-107 0 -182.5 58.5t-75.5 173.5q0 126 75 174.5t179 48.5h44v-455h-40zM393 -80v732h147v-732h-147z" />
    <glyph glyph-name="bracketright" unicode="]" horiz-adv-x="344" 
d="M46 -152v78h102v704h-102v78h211v-860h-211z" />
    <glyph glyph-name="Yacute" unicode="&#xdd;" horiz-adv-x="525" 
d="M189 0v232l-197 420h158l58 -150q14 -37 27 -71.5t26 -72.5h4q14 38 27.5 72.5t27.5 71.5l59 150h154l-197 -420v-232h-147zM252 680l-66 74l171 140l78 -95z" />
    <glyph glyph-name="zero" unicode="0" horiz-adv-x="528" 
d="M264 -12q-102 0 -164.5 85t-62.5 247t62.5 244.5t164.5 82.5t164.5 -82.5t62.5 -244.5t-62.5 -247t-164.5 -85zM264 102q38 0 63 44t25 174t-25 171.5t-63 41.5q-37 0 -62.5 -41.5t-25.5 -171.5t25.5 -174t62.5 -44z" />
    <glyph glyph-name="o" unicode="o" horiz-adv-x="555" 
d="M278 -12q-63 0 -118.5 30.5t-89.5 89t-34 140.5t34 140.5t89.5 89t118.5 30.5q62 0 117.5 -30.5t89.5 -89t34 -140.5t-34 -140.5t-89.5 -89t-117.5 -30.5zM278 107q45 0 68 38.5t23 102.5t-23 102.5t-68 38.5q-46 0 -68.5 -38.5t-22.5 -102.5t22.5 -102.5t68.5 -38.5z
" />
    <glyph glyph-name="ugrave" unicode="&#xf9;" horiz-adv-x="568" 
d="M214 -12q-81 0 -117.5 53.5t-36.5 146.5v308h147v-289q0 -53 15 -73.5t47 -20.5q28 0 47 13t41 42v328h147v-496h-120l-11 69h-3q-32 -37 -68.5 -59t-87.5 -22zM275 572l-181 157l99 97l154 -182z" />
    <glyph glyph-name="fraction" unicode="&#x2044;" horiz-adv-x="96" 
d="M-171 -12l352 676h85l-352 -676h-85z" />
    <glyph glyph-name="u" unicode="u" horiz-adv-x="568" 
d="M214 -12q-81 0 -117.5 53.5t-36.5 146.5v308h147v-289q0 -53 15 -73.5t47 -20.5q28 0 47 13t41 42v328h147v-496h-120l-11 69h-3q-32 -37 -68.5 -59t-87.5 -22z" />
    <glyph glyph-name="equal" unicode="=" horiz-adv-x="528" 
d="M34 394v104h460v-104h-460zM34 162v104h460v-104h-460z" />
    <glyph glyph-name="oacute" unicode="&#xf3;" horiz-adv-x="555" 
d="M278 -12q-63 0 -118.5 30.5t-89.5 89t-34 140.5t34 140.5t89.5 89t118.5 30.5q62 0 117.5 -30.5t89.5 -89t34 -140.5t-34 -140.5t-89.5 -89t-117.5 -30.5zM278 107q45 0 68 38.5t23 102.5t-23 102.5t-68 38.5q-46 0 -68.5 -38.5t-22.5 -102.5t22.5 -102.5t68.5 -38.5z
M288 572l-72 72l154 182l99 -97z" />
    <glyph glyph-name="D" unicode="D" horiz-adv-x="635" 
d="M77 0v652h184q149 0 238 -77.5t89 -245.5t-88 -248.5t-231 -80.5h-192zM224 119h28q83 0 134 46.5t51 163.5t-51 160.5t-134 43.5h-28v-414z" />
    <glyph glyph-name="quoteleft" unicode="&#x2018;" horiz-adv-x="300" 
d="M149 338q-47 0 -70.5 35t-23.5 96q0 144 142 214l32 -64q-90 -45 -90 -127q5 1 10 1q31 0 54 -19.5t23 -53.5q0 -38 -22 -60t-55 -22z" />
    <glyph glyph-name="E" unicode="E" horiz-adv-x="548" 
d="M77 0v652h408v-124h-261v-131h222v-123h-222v-150h271v-124h-418z" />
    <glyph glyph-name="uni030A" 
d="M0 564q-65 0 -98.5 30t-33.5 74t33.5 74t98.5 30t98.5 -30t33.5 -74t-33.5 -74t-98.5 -30zM0 619q18 0 30.5 13.5t12.5 35.5t-12.5 35.5t-30.5 13.5t-30.5 -13.5t-12.5 -35.5t12.5 -35.5t30.5 -13.5z" />
    <glyph glyph-name="dieresis" unicode="&#xa8;" horiz-adv-x="555" 
d="M387 569q-31 0 -51 20.5t-20 51.5q0 30 20 50.5t51 20.5t51.5 -20.5t20.5 -50.5q0 -31 -20.5 -51.5t-51.5 -20.5zM169 569q-31 0 -51.5 20.5t-20.5 51.5q0 30 20.5 50.5t51.5 20.5t51 -20.5t20 -50.5q0 -31 -20 -51.5t-51 -20.5z" />
    <glyph glyph-name="guillemotleft" unicode="&#xab;" horiz-adv-x="480" 
d="M183 56l-134 144v104l134 144l55 -44l-111 -152l111 -152zM371 56l-134 144v104l134 144l55 -44l-111 -152l111 -152z" />
    <glyph glyph-name="parenright" unicode=")" horiz-adv-x="344" 
d="M140 -179l-92 38q56 97 81 205t25 214t-25 214t-81 205l92 38q63 -103 97.5 -214t34.5 -243t-34.5 -243t-97.5 -214z" />
    <glyph glyph-name="igrave" unicode="&#xec;" horiz-adv-x="276" 
d="M65 0v496h147v-496h-147zM128 572l-181 157l99 97l154 -182z" />
    <glyph glyph-name="asterisk" unicode="*" horiz-adv-x="457" 
d="M148 349l-61 44l59 104l-108 49l23 72l116 -24l13 118h77l13 -119l115 25l24 -72l-108 -49l59 -104l-61 -44l-80 89z" />
    <glyph glyph-name="Igrave" unicode="&#xcc;" horiz-adv-x="301" 
d="M77 0v652h147v-652h-147zM161 680l-183 119l78 95l171 -140z" />
    <glyph glyph-name="atilde" unicode="&#xe3;" horiz-adv-x="527" 
d="M240 102q25 0 43.5 11t37.5 31v87q-78 -11 -108 -32t-30 -50q0 -47 57 -47zM190 -12q-68 0 -108 43.5t-40 106.5q0 78 66 122t213 59q-2 33 -19.5 52.5t-58.5 19.5q-31 0 -63 -12t-68 -33l-53 97q47 29 100 47t112 18q95 0 146 -55t51 -169v-284h-120l-10 51h-4
q-32 -28 -67 -45.5t-77 -17.5zM342 573q-32 0 -55 16t-41 32t-33 16q-29 0 -35 -55l-92 5q4 152 124 152q32 0 55 -16t41 -32t33 -16q29 0 35 55l92 -5q-4 -152 -124 -152z" />
    <glyph glyph-name="Edieresis" unicode="&#xcb;" horiz-adv-x="548" 
d="M77 0v652h408v-124h-261v-131h222v-123h-222v-150h271v-124h-418zM399 700q-31 0 -50.5 20t-19.5 50t19.5 50t50.5 20t50.5 -20t19.5 -50t-19.5 -50t-50.5 -20zM177 700q-31 0 -50.5 20t-19.5 50t19.5 50t50.5 20t50.5 -20t19.5 -50t-19.5 -50t-50.5 -20z" />
    <glyph glyph-name="S" unicode="S" horiz-adv-x="556" 
d="M276 -12q-64 0 -128 24t-113 70l84 101q35 -30 78 -49t83 -19q91 0 91 63q0 31 -25.5 45.5t-68.5 32.5l-85 36q-50 20 -90.5 63.5t-40.5 114.5q0 81 65 137.5t167 56.5q56 0 112 -22t98 -64l-75 -93q-32 25 -64 38.5t-71 13.5q-38 0 -60.5 -15.5t-22.5 -43.5
q0 -30 28.5 -45t70.5 -32l84 -34q59 -24 94 -66t35 -111q0 -81 -64.5 -141.5t-181.5 -60.5z" />
    <glyph glyph-name="uni0671" unicode="&#x671;" horiz-adv-x="260" 
d="M56 1v623h148v-461q0 -64 -35 -113t-113 -49zM197 813q-13 4 -34 -13t-46 -49h96v22q-1 25 -6 31t-10 9zM-41 677v74h66q22 30 50.5 67.5t65.5 58.5t84 4q32 -14 46.5 -42.5t15.5 -64.5v-33q2 -27 -17.5 -45.5t-45.5 -18.5h-265z" />
    <glyph glyph-name="uni0679" unicode="&#x679;" horiz-adv-x="822" 
d="M248 0q-72 0 -132 50t-60 131v140h148v-140q0 -9 11 -21.5t33 -12.5h370v174h148v-195q0 -52 -37 -89t-89 -37h-392zM496 567q-13 4 -34 -13t-46 -49h95l1 22q-1 25 -6 31t-10 9zM253 431v74h44v238h74v-174q29 36 66.5 60t85.5 6q32 -14 46.5 -42.5t15.5 -64.5l1 -33
q1 -27 -18 -45.5t-45 -18.5h-270z" />
    <glyph glyph-name="uni0629" unicode="&#x629;" horiz-adv-x="537" 
d="M198 0q-63 0 -110 42q-42 38 -48.5 103.5t45.5 115.5q38 36 65 60t48 51.5t40 71.5l138 -55l-2 -4h90v-259q0 -52 -36.5 -89t-89.5 -37h-140zM185 152q-12 -9 -4 -6q2 0 5 0.5t8 0.5h122v137q-27 -36 -58.5 -65t-72.5 -67zM224 494q-30 0 -52 22t-22 52t22 52t52 22
t52 -22t22 -52t-22 -52t-52 -22zM416 494q-30 0 -52 22t-22 52t22 52t52 22t52 -22t22 -52t-22 -52t-52 -22z" />
    <glyph glyph-name="uni0634" unicode="&#x634;" horiz-adv-x="1047" 
d="M179 -220q-55 0 -89 40t-34 90v297h148v-280h221v473h148v-253h61v251h147v-251h62v251h148v-272q0 -53 -38 -89.5t-90 -36.5h-94v72q-15 -32 -45.5 -52t-68.5 -20h-82v-94q0 -53 -37.5 -89.5t-89.5 -36.5h-267zM605 470q-30 0 -52 22t-22 52t22 52t52 22t52 -22t22 -52
t-22 -52t-52 -22zM797 470q-30 0 -52 22t-22 52t22 52t52 22t52 -22t22 -52t-22 -52t-52 -22zM701 624q-30 0 -52 22t-22 52t22 52t52 22t52 -22t22 -52t-22 -52t-52 -22z" />
    <glyph glyph-name="uni0642" unicode="&#x642;" horiz-adv-x="836" 
d="M511 176q12 -20 33.5 -32.5t87.5 -10.5v73q0 26 -12.5 40.5t-30.5 19.5q-34 11 -62 -13q-16 -14 -21.5 -37t5.5 -40zM229 -199q-68 0 -120.5 46t-52.5 122v242h148v-260q-7 -9 4 -3h424v70q-69 -4 -137.5 5.5t-109.5 77.5q-33 54 -29.5 109t31 100.5t65.5 70.5
q42 27 99 33t111 -15t88 -76q30 -49 30 -110v-284q0 -52 -37.5 -90t-91.5 -38h-422zM467 456q-30 0 -52 22t-22 52t22 52t52 22t52 -22t22 -52t-22 -52t-52 -22zM659 456q-30 0 -52 22t-22 52t22 52t52 22t52 -22t22 -52t-22 -52t-52 -22z" />
    <glyph glyph-name="uni0625" unicode="&#x625;" horiz-adv-x="260" 
d="M56 1v623h148v-461q0 -64 -35 -113t-113 -49zM119 -41h100v-89h-48l14 -32q4 -8 9 -23t-7 -32q-10 -16 -27 -20t-23 -4h-110v89h56l-15 30l-7.5 20.5t8.5 39.5q7 8 19.5 14.5t30.5 6.5z" />
    <glyph glyph-name="uni0698" unicode="&#x698;" horiz-adv-x="371" 
d="M167 2v207h148v-207q0 -88 -59.5 -154.5t-153.5 -66.5h-102v147h102q28 0 46.5 19.5t18.5 54.5zM143 334q-30 0 -52 22t-22 52t22 52t52 22t52 -22t22 -52t-22 -52t-52 -22zM335 334q-30 0 -52 22t-22 52t22 52t52 22t52 -22t22 -52t-22 -52t-52 -22zM239 488
q-30 0 -52 22t-22 52t22 52t52 22t52 -22t22 -52t-22 -52t-52 -22z" />
    <glyph glyph-name="uni0638" unicode="&#x638;" horiz-adv-x="780" 
d="M56 0v147h90v477h148v-514h-92v-110h-146zM544 272q-26 9 -68 -25.5t-93 -99.5h192v44q-1 50 -11 63t-20 18zM176 0v147h25q32 46 72.5 101t89 101.5t107 66t128.5 -6.5q65 -27 93.5 -85.5t30.5 -129.5l2 -66q2 -53 -36 -90.5t-91 -37.5h-421zM488 460q-30 0 -52 22
t-22 52t22 52t52 22t52 -22t22 -52t-22 -52t-52 -22z" />
    <glyph glyph-name="uni0644" unicode="&#x644;" horiz-adv-x="628" 
d="M185 -148q-53 0 -91 36.5t-38 90.5v189h148v-169h220v625h148v-644q0 -52 -37 -90t-91 -38h-259z" />
    <glyph glyph-name="uni0691" unicode="&#x691;" horiz-adv-x="371" 
d="M167 2v207h148v-207q0 -88 -59.5 -154.5t-153.5 -66.5h-102v147h102q28 0 46.5 19.5t18.5 54.5zM324 544q-13 4 -34 -13t-46 -49h95l1 22q-1 25 -6 31t-10 9zM81 408v74h44v238h74v-174q29 36 66.5 60t85.5 6q32 -14 46.5 -42.5t15.5 -64.5l1 -33q1 -27 -18 -45.5
t-45 -18.5h-270z" />
    <glyph glyph-name="uni066E" unicode="&#x66e;" horiz-adv-x="822" 
d="M248 0q-72 0 -132 50t-60 131v140h148v-140q0 -9 11 -21.5t33 -12.5h370v174h148v-195q0 -52 -37 -89t-89 -37h-392z" />
    <glyph glyph-name="uni0636" unicode="&#x636;" horiz-adv-x="1116" 
d="M179 -220q-55 0 -89 40t-34 90v297h148v-280h221v372h148v-393q0 -53 -37.5 -89.5t-89.5 -36.5h-267zM880 272q-26 9 -68 -25.5t-93 -99.5h192v44q-1 50 -11 63t-20 18zM512 0v147h25q32 46 72.5 101t89 101.5t107 66t128.5 -6.5q65 -27 93.5 -85.5t30.5 -129.5l2 -66
q2 -53 -36 -90.5t-91 -37.5h-421zM624 446q-30 0 -52 22t-22 52t22 52t52 22t52 -22t22 -52t-22 -52t-52 -22z" />
    <glyph glyph-name="uni0628" unicode="&#x628;" horiz-adv-x="822" 
d="M248 0q-72 0 -132 50t-60 131v140h148v-140q0 -9 11 -21.5t33 -12.5h370v174h148v-195q0 -52 -37 -89t-89 -37h-392zM431 -209q-30 0 -52 22t-22 52t22 52t52 22t52 -22t22 -52t-22 -52t-52 -22z" />
    <glyph glyph-name="uni0646" unicode="&#x646;" horiz-adv-x="624" 
d="M304 -187q-64 0 -120.5 23.5t-92 69.5t-35.5 113v190h148v-190q0 -19 22.5 -39t77.5 -20h116v250h148v-271q0 -53 -36 -89.5t-89 -36.5h-139zM315 279q-30 0 -52 22t-22 52t22 52t52 22t52 -22t22 -52t-22 -52t-52 -22z" />
    <glyph glyph-name="uni062E" unicode="&#x62e;" horiz-adv-x="624" 
d="M455 -336h-240q-67 0 -113 45t-46 110v163q0 62 44.5 113.5t119.5 51.5h110q-4 5 -7 9t-7 8q-29 34 -59.5 68t-89.5 56l52 137q67 -25 111 -61.5t71 -70t41 -49.5q34 -38 61 -39.5t64 -1.5v-74q0 -3 -1.5 -23t-11 -44.5t-33 -43t-67.5 -18.5h-250q-2 3 -3 2.5t2 -1.5
v-189h252v-148zM313 477q-30 0 -52 22t-22 52t22 52t52 22t52 -22t22 -52t-22 -52t-52 -22z" />
    <glyph glyph-name="uni0645" unicode="&#x645;" horiz-adv-x="777" 
d="M56 147h140l123 -147h-140zM454 251v-104h38q52 0 66.5 14t14.5 21q0 8 -9.5 31t-43.5 58q-12 13 -28 14t-25 -4q-8 -3 -10.5 -11.5t-2.5 -18.5zM324 0h-128v147h110v112q0 76 52 126q56 53 135 49t134 -62q44 -46 69 -93t25 -96q0 -67 -37.5 -107t-90.5 -58t-101 -18
h-66v46q-15 -21 -40.5 -33.5t-61.5 -12.5z" />
    <glyph glyph-name="uni0637" unicode="&#x637;" horiz-adv-x="780" 
d="M56 0v147h90v477h148v-514h-92v-110h-146zM544 272q-26 9 -68 -25.5t-93 -99.5h192v44q-1 50 -11 63t-20 18zM176 0v147h25q32 46 72.5 101t89 101.5t107 66t128.5 -6.5q65 -27 93.5 -85.5t30.5 -129.5l2 -66q2 -53 -36 -90.5t-91 -37.5h-421z" />
    <glyph glyph-name="uni0633" unicode="&#x633;" horiz-adv-x="1047" 
d="M179 -220q-55 0 -89 40t-34 90v297h148v-280h221v473h148v-253h61v251h147v-251h62v251h148v-272q0 -53 -38 -89.5t-90 -36.5h-94v72q-15 -32 -45.5 -52t-68.5 -20h-82v-94q0 -53 -37.5 -89.5t-89.5 -36.5h-267z" />
    <glyph glyph-name="uni06A4" unicode="&#x6a4;" horiz-adv-x="906" 
d="M581 176q12 -21 33.5 -33t87.5 -10v73q0 26 -12.5 40.5t-30.5 19.5q-33 11 -62 -13q-16 -14 -21.5 -37t5.5 -40zM229 -199q-68 0 -120.5 46t-52.5 122v152h148v-170q-7 -9 4 -3h494v70q-69 -4 -137.5 5t-109.5 77q-33 54 -29.5 109t31 101t65.5 71q42 27 99 33t111 -15.5
t88 -75.5q30 -51 30 -111v-283q0 -52 -37.5 -90t-91.5 -38h-492zM537 456q-30 0 -52 22t-22 52t22 52t52 22t52 -22t22 -52t-22 -52t-52 -22zM729 456q-30 0 -52 22t-22 52t22 52t52 22t52 -22t22 -52t-22 -52t-52 -22zM633 610q-30 0 -52 22t-22 52t22 52t52 22t52 -22
t22 -52t-22 -52t-52 -22z" />
    <glyph glyph-name="uni062B" unicode="&#x62b;" horiz-adv-x="822" 
d="M248 0q-72 0 -132 50t-60 131v140h148v-140q0 -9 11 -21.5t33 -12.5h370v174h148v-195q0 -52 -37 -89t-89 -37h-392zM315 357q-30 0 -52 22t-22 52t22 52t52 22t52 -22t22 -52t-22 -52t-52 -22zM507 357q-30 0 -52 22t-22 52t22 52t52 22t52 -22t22 -52t-22 -52t-52 -22z
M411 511q-30 0 -52 22t-22 52t22 52t52 22t52 -22t22 -52t-22 -52t-52 -22z" />
    <glyph glyph-name="uni06A9" unicode="&#x6a9;" horiz-adv-x="820" 
d="M56 147h140l123 -147h-140zM179 0v147h402l-238 243q-27 28 -37 68t1 77.5t48 59.5q60 37 137.5 63t145.5 41t97 15l4 -147q-9 0 -58.5 -11.5t-112 -30t-109.5 -41.5l270 -277q39 -39 36 -87.5t-36 -84t-88 -35.5h-462z" />
    <glyph glyph-name="uni06AF" unicode="&#x6af;" horiz-adv-x="820" 
d="M56 147h140l123 -147h-140zM179 0v147h402l-238 243q-27 28 -37 68t1 77.5t48 59.5q60 37 137.5 63t145.5 41t97 15l4 -147q-9 0 -58.5 -11.5t-112 -30t-109.5 -41.5l270 -277q39 -39 36 -87.5t-36 -84t-88 -35.5h-462zM735 769q-9 0 -47.5 -9t-90 -23t-102 -32.5
t-82.5 -38.5l-48 76q56 35 132.5 60.5t142.5 40t92 14.5z" />
    <glyph glyph-name="uni0626" unicode="&#x626;" horiz-adv-x="684" 
d="M271 -129q-42 0 -92.5 19t-86.5 62.5t-36 116.5v215h148v-215q0 -49 71 -51h163l-62 75q-36 45 -32 91.5t38.5 78t87.5 29.5h157v-147h-103l75 -91q34 -41 27 -82.5t-41.5 -70.5t-83.5 -30h-230zM264 576h100v-89h-48l14 -32q4 -8 9 -23t-7 -32q-10 -16 -27 -20t-23 -4
h-110v89h56l-15 30l-7.5 20.5t8.5 39.5q7 8 19.5 14.5t30.5 6.5z" />
    <glyph glyph-name="uni064A" unicode="&#x64a;" horiz-adv-x="684" 
d="M271 -129q-42 0 -92.5 19t-86.5 62.5t-36 116.5v215h148v-215q0 -49 71 -51h163l-62 75q-36 45 -32 91.5t38.5 78t87.5 29.5h157v-147h-103l75 -91q34 -41 27 -82.5t-41.5 -70.5t-83.5 -30h-230zM276 -333q-30 0 -52 22t-22 52t22 52t52 22t52 -22t22 -52t-22 -52
t-52 -22zM468 -333q-30 0 -52 22t-22 52t22 52t52 22t52 -22t22 -52t-22 -52t-52 -22z" />
    <glyph glyph-name="uni068E" unicode="&#x68e;" horiz-adv-x="514" 
d="M285 157q-11 48 -50 78t-81 51l65 132q35 -18 88 -52.5t95 -92t44 -145.5q2 -54 -34.5 -91t-91.5 -37h-264v147h231q9 -1 6 3.5t-8 6.5zM100 482q-30 0 -52 22t-22 52t22 52t52 22t52 -22t22 -52t-22 -52t-52 -22zM292 482q-30 0 -52 22t-22 52t22 52t52 22t52 -22
t22 -52t-22 -52t-52 -22zM196 636q-30 0 -52 22t-22 52t22 52t52 22t52 -22t22 -52t-22 -52t-52 -22z" />
    <glyph glyph-name="uni06C1" unicode="&#x6c1;" horiz-adv-x="537" 
d="M198 0q-63 0 -110 42q-42 38 -48.5 103.5t45.5 115.5q38 36 65 60t48 51.5t40 71.5l138 -55l-2 -4h90v-259q0 -52 -36.5 -89t-89.5 -37h-140zM185 152q-12 -9 -4 -6q2 0 5 0.5t8 0.5h122v137q-27 -36 -58.5 -65t-72.5 -67z" />
    <glyph glyph-name="uni062C" unicode="&#x62c;" horiz-adv-x="624" 
d="M455 -336h-240q-67 0 -113 45t-46 110v163q0 62 44.5 113.5t119.5 51.5h110q-4 5 -7 9t-7 8q-29 34 -59.5 68t-89.5 56l52 137q67 -25 111 -61.5t71 -70t41 -49.5q34 -38 61 -39.5t64 -1.5v-74q0 -3 -1.5 -23t-11 -44.5t-33 -43t-67.5 -18.5h-250q-2 3 -3 2.5t2 -1.5
v-189h252v-148zM314 -170q-30 0 -52 22t-22 52t22 52t52 22t52 -22t22 -52t-22 -52t-52 -22z" />
    <glyph glyph-name="uni0624" unicode="&#x624;" horiz-adv-x="524" 
d="M62 -218v147h193q26 0 45 20.5t19 50.5h-86q-76 0 -129 54t-49 128q7 75 45.5 128t92.5 81t109 28q66 0 115 -45.5t49 -118.5v-253q0 -54 -25.5 -104.5t-72.5 -83t-113 -32.5h-193zM233 147h86v100q0 25 -20 25q-25 -2 -56.5 -25.5t-38.5 -67.5q-2 -11 5 -21.5t24 -10.5z
M297 729h100v-89h-48l14 -32q4 -8 9 -23t-7 -32q-10 -16 -27 -20t-23 -4h-110v89h56l-15 30l-7.5 20.5t8.5 39.5q7 8 19.5 14.5t30.5 6.5z" />
    <glyph glyph-name="uni0630" unicode="&#x630;" horiz-adv-x="514" 
d="M285 157q-11 48 -50 78t-81 51l65 132q35 -18 88 -52.5t95 -92t44 -145.5q2 -54 -34.5 -91t-91.5 -37h-264v147h231q9 -1 6 3.5t-8 6.5zM196 482q-30 0 -52 22t-22 52t22 52t52 22t52 -22t22 -52t-22 -52t-52 -22z" />
    <glyph glyph-name="uni062A" unicode="&#x62a;" horiz-adv-x="822" 
d="M248 0q-72 0 -132 50t-60 131v140h148v-140q0 -9 11 -21.5t33 -12.5h370v174h148v-195q0 -52 -37 -89t-89 -37h-392zM315 357q-30 0 -52 22t-22 52t22 52t52 22t52 -22t22 -52t-22 -52t-52 -22zM507 357q-30 0 -52 22t-22 52t22 52t52 22t52 -22t22 -52t-22 -52t-52 -22z
" />
    <glyph glyph-name="uni062F" unicode="&#x62f;" horiz-adv-x="514" 
d="M285 157q-11 48 -50 78t-81 51l65 132q35 -18 88 -52.5t95 -92t44 -145.5q2 -54 -34.5 -91t-91.5 -37h-264v147h231q9 -1 6 3.5t-8 6.5z" />
    <glyph glyph-name="uni0641" unicode="&#x641;" horiz-adv-x="906" 
d="M581 176q12 -21 33.5 -33t87.5 -10v73q0 26 -12.5 40.5t-30.5 19.5q-33 11 -62 -13q-16 -14 -21.5 -37t5.5 -40zM229 -199q-68 0 -120.5 46t-52.5 122v152h148v-170q-7 -9 4 -3h494v70q-69 -4 -137.5 5t-109.5 77q-33 54 -29.5 109t31 101t65.5 71q42 27 99 33t111 -15.5
t88 -75.5q30 -51 30 -111v-283q0 -52 -37.5 -90t-91.5 -38h-492zM633 456q-30 0 -52 22t-22 52t22 52t52 22t52 -22t22 -52t-22 -52t-52 -22z" />
    <glyph glyph-name="uni06D2" unicode="&#x6d2;" horiz-adv-x="980" 
d="M318 298q53 49 111.5 53.5t108.5 -13.5t76 -34l-79 -125q-36 23 -73 27.5t-64 -33.5q-2 -5 -16 -32.5t-49 -59t-99 -48.5q-23 -6 -30.5 -21.5t-4.5 -25.5q1 -5 16.5 -20.5t76.5 -15.5h626v-147h-626q-91 0 -154.5 39.5t-81.5 106.5q-20 73 21 140t119 87q41 11 51 26.5
t20 38.5t51 57z" />
    <glyph glyph-name="uni06C0" unicode="&#x6c0;" horiz-adv-x="537" 
d="M198 0q-63 0 -110 42q-42 38 -48.5 103.5t45.5 115.5q38 36 65 60t48 51.5t40 71.5l138 -55l-2 -4h90v-259q0 -52 -36.5 -89t-89.5 -37h-140zM185 152q-12 -9 -4 -6q2 0 5 0.5t8 0.5h122v137q-27 -36 -58.5 -65t-72.5 -67zM316 682h100v-89h-48l14 -32q4 -8 9 -23t-7 -32
q-10 -16 -27 -20t-23 -4h-110v89h56l-15 30l-7.5 20.5t8.5 39.5q7 8 19.5 14.5t30.5 6.5z" />
    <glyph glyph-name="uni0622" unicode="&#x622;" horiz-adv-x="260" 
d="M56 1v623h148v-461q0 -64 -35 -113t-113 -49zM-61 677v53q0 35 25 58.5t59 23.5h239v-89h-234v-46h-89z" />
    <glyph glyph-name="uni0688" unicode="&#x688;" horiz-adv-x="514" 
d="M285 157q-11 48 -50 78t-81 51l65 132q35 -18 88 -52.5t95 -92t44 -145.5q2 -54 -34.5 -91t-91.5 -37h-264v147h231q9 -1 6 3.5t-8 6.5zM281 692q-13 4 -34 -13t-46 -49h95l1 22q-1 25 -6 31t-10 9zM38 556v74h44v238h74v-174q29 36 66.5 60t85.5 6q32 -14 46.5 -42.5
t15.5 -64.5l1 -33q1 -27 -18 -45.5t-45 -18.5h-270z" />
    <glyph glyph-name="uni0632" unicode="&#x632;" horiz-adv-x="371" 
d="M167 2v207h148v-207q0 -88 -59.5 -154.5t-153.5 -66.5h-102v147h102q28 0 46.5 19.5t18.5 54.5zM239 334q-30 0 -52 22t-22 52t22 52t52 22t52 -22t22 -52t-22 -52t-52 -22z" />
    <glyph glyph-name="uni0647" unicode="&#x647;" horiz-adv-x="537" 
d="M198 0q-63 0 -110 42q-42 38 -48.5 103.5t45.5 115.5q38 36 65 60t48 51.5t40 71.5l138 -55l-2 -4h90v-259q0 -52 -36.5 -89t-89.5 -37h-140zM185 152q-12 -9 -4 -6q2 0 5 0.5t8 0.5h122v137q-27 -36 -58.5 -65t-72.5 -67z" />
    <glyph glyph-name="uni06BE" unicode="&#x6be;" horiz-adv-x="759" 
d="M321 147q19 0 19 15q-7 21 -21 40q-19 26 -37.5 30.5t-26.5 2.5q-9 -1 -9 -16v-72h75zM0 0v147h98v74q0 43 19.5 79.5t51.5 58.5q69 46 150.5 18t132.5 -106q19 -28 28.5 -60t5.5 -64h69q-7 70 -42 134.5t-98 106.5t-154 42l1 147q115 0 198.5 -44.5t138 -114.5t80 -148
t24.5 -145q-1 -55 -38.5 -90t-87.5 -35h-577z" />
    <glyph glyph-name="uni066F" unicode="&#x66f;" horiz-adv-x="836" 
d="M511 176q12 -20 33.5 -32.5t87.5 -10.5v73q0 26 -12.5 40.5t-30.5 19.5q-34 11 -62 -13q-16 -14 -21.5 -37t5.5 -40zM229 -199q-68 0 -120.5 46t-52.5 122v242h148v-260q-7 -9 4 -3h424v70q-69 -4 -137.5 5.5t-109.5 77.5q-33 54 -29.5 109t31 100.5t65.5 70.5
q42 27 99 33t111 -15t88 -76q30 -49 30 -110v-284q0 -52 -37.5 -90t-91.5 -38h-422z" />
    <glyph glyph-name="uni0635" unicode="&#x635;" horiz-adv-x="1116" 
d="M179 -220q-55 0 -89 40t-34 90v297h148v-280h221v372h148v-393q0 -53 -37.5 -89.5t-89.5 -36.5h-267zM880 272q-26 9 -68 -25.5t-93 -99.5h192v44q-1 50 -11 63t-20 18zM512 0v147h25q32 46 72.5 101t89 101.5t107 66t128.5 -6.5q65 -27 93.5 -85.5t30.5 -129.5l2 -66
q2 -53 -36 -90.5t-91 -37.5h-421z" />
    <glyph glyph-name="uni0623" unicode="&#x623;" horiz-adv-x="260" 
d="M56 1v623h148v-461q0 -64 -35 -113t-113 -49zM119 878h100v-89h-48l14 -32q4 -8 9 -23t-7 -32q-10 -16 -27 -20t-23 -4h-110v89h56l-15 30l-7.5 20.5t8.5 39.5q7 8 19.5 14.5t30.5 6.5z" />
    <glyph glyph-name="uni06A1" unicode="&#x6a1;" horiz-adv-x="906" 
d="M581 176q12 -21 33.5 -33t87.5 -10v73q0 26 -12.5 40.5t-30.5 19.5q-33 11 -62 -13q-16 -14 -21.5 -37t5.5 -40zM229 -199q-68 0 -120.5 46t-52.5 122v152h148v-170q-7 -9 4 -3h494v70q-69 -4 -137.5 5t-109.5 77q-33 54 -29.5 109t31 101t65.5 71q42 27 99 33t111 -15.5
t88 -75.5q30 -51 30 -111v-283q0 -52 -37.5 -90t-91.5 -38h-492z" />
    <glyph glyph-name="uni067E" unicode="&#x67e;" horiz-adv-x="822" 
d="M248 0q-72 0 -132 50t-60 131v140h148v-140q0 -9 11 -21.5t33 -12.5h370v174h148v-195q0 -52 -37 -89t-89 -37h-392zM431 -359q-30 0 -52 22t-22 52t22 52t52 22t52 -22t22 -52t-22 -52t-52 -22zM335 -209q-30 0 -52 22t-22 52t22 52t52 22t52 -22t22 -52t-22 -52
t-52 -22zM527 -209q-30 0 -52 22t-22 52t22 52t52 22t52 -22t22 -52t-22 -52t-52 -22z" />
    <glyph glyph-name="uni0648" unicode="&#x648;" horiz-adv-x="524" 
d="M62 -218v147h193q26 0 45 20.5t19 50.5h-86q-76 0 -129 54t-49 128q7 75 45.5 128t92.5 81t109 28q66 0 115 -45.5t49 -118.5v-253q0 -54 -25.5 -104.5t-72.5 -83t-113 -32.5h-193zM233 147h86v100q0 25 -20 25q-25 -2 -56.5 -25.5t-38.5 -67.5q-2 -11 5 -21.5t24 -10.5z
" />
    <glyph glyph-name="uni063A" unicode="&#x63a;" horiz-adv-x="516" 
d="M459 -272h-288q-50 0 -83 36.5t-33 84.5v178q0 46 30 80.5t76 38.5q-27 53 -27 105.5t41 94.5q40 42 99 47t118 -12q14 -4 28.5 -9t27.5 -10l-56 -138q-25 11 -40 15q-27 7 -43 6.5t-23 -2.5q1 -8 9 -31.5t45 -64.5h119v-147h-256v-125h256v-147zM268 446q-30 0 -52 22
t-22 52t22 52t52 22t52 -22t22 -52t-22 -52t-52 -22z" />
    <glyph glyph-name="uni062D" unicode="&#x62d;" horiz-adv-x="624" 
d="M455 -336h-240q-67 0 -113 45t-46 110v163q0 62 44.5 113.5t119.5 51.5h110q-4 5 -7 9t-7 8q-29 34 -59.5 68t-89.5 56l52 137q67 -25 111 -61.5t71 -70t41 -49.5q34 -38 61 -39.5t64 -1.5v-74q0 -3 -1.5 -23t-11 -44.5t-33 -43t-67.5 -18.5h-250q-2 3 -3 2.5t2 -1.5
v-189h252v-148z" />
    <glyph glyph-name="uni0627" unicode="&#x627;" horiz-adv-x="260" 
d="M56 1v623h148v-461q0 -64 -35 -113t-113 -49z" />
    <glyph glyph-name="uni06D3" unicode="&#x6d3;" horiz-adv-x="980" 
d="M318 298q53 49 111.5 53.5t108.5 -13.5t76 -34l-79 -125q-36 23 -73 27.5t-64 -33.5q-2 -5 -16 -32.5t-49 -59t-99 -48.5q-23 -6 -30.5 -21.5t-4.5 -25.5q1 -5 16.5 -20.5t76.5 -15.5h626v-147h-626q-91 0 -154.5 39.5t-81.5 106.5q-20 73 21 140t119 87q41 11 51 26.5
t20 38.5t51 57zM422 609h100v-89h-48l14 -32q4 -8 9 -23t-7 -32q-10 -16 -27 -20t-23 -4h-110v89h56l-15 30l-7.5 20.5t8.5 39.5q7 8 19.5 14.5t30.5 6.5z" />
    <glyph glyph-name="uni0686" unicode="&#x686;" horiz-adv-x="624" 
d="M204 -327q-63 0 -105.5 42t-42.5 104v163q0 62 44.5 113.5t119.5 51.5h110q-4 5 -7 9t-7 8q-29 34 -59.5 68t-89.5 56l52 137q67 -25 111 -61.5t71 -70t41 -49.5q34 -38 61 -39.5t64 -1.5v-74q0 -3 -1.5 -23t-11 -44.5t-33 -43t-67.5 -18.5h-250v-327zM204 1zM412 -344
q-30 0 -52 22t-22 52t22 52t52 22t52 -22t22 -52t-22 -52t-52 -22zM316 -194q-30 0 -52 22t-22 52t22 52t52 22t52 -22t22 -52t-22 -52t-52 -22zM508 -194q-30 0 -52 22t-22 52t22 52t52 22t52 -22t22 -52t-22 -52t-52 -22z" />
    <glyph glyph-name="uni0643" unicode="&#x643;" horiz-adv-x="685" 
d="M179 0l-123 147h426v477h147v-498q0 -53 -37.5 -89.5t-89.5 -36.5h-323zM283 497h100v-89h-48l14 -32q4 -8 9 -23t-7 -32q-10 -16 -27 -20t-23 -4h-110v89h56l-15 30l-7.5 20.5t8.5 39.5q7 8 19.5 14.5t30.5 6.5z" />
    <glyph glyph-name="uni0649" unicode="&#x649;" horiz-adv-x="684" 
d="M271 -129q-42 0 -92.5 19t-86.5 62.5t-36 116.5v215h148v-215q0 -49 71 -51h163l-62 75q-36 45 -32 91.5t38.5 78t87.5 29.5h157v-147h-103l75 -91q34 -41 27 -82.5t-41.5 -70.5t-83.5 -30h-230z" />
    <glyph glyph-name="uni0631" unicode="&#x631;" horiz-adv-x="371" 
d="M167 2v207h148v-207q0 -88 -59.5 -154.5t-153.5 -66.5h-102v147h102q28 0 46.5 19.5t18.5 54.5z" />
    <glyph glyph-name="uni06BB" unicode="&#x6bb;" horiz-adv-x="624" 
d="M304 -187q-64 0 -120.5 23.5t-92 69.5t-35.5 113v190h148v-190q0 -19 22.5 -39t77.5 -20h116v250h148v-271q0 -53 -36 -89.5t-89 -36.5h-139zM400 489q-13 4 -34 -13t-46 -49h95l1 22q-1 25 -6 31t-10 9zM157 353v74h44v238h74v-174q29 36 66.5 60t85.5 6
q32 -14 46.5 -42.5t15.5 -64.5l1 -33q1 -27 -18 -45.5t-45 -18.5h-270z" />
    <glyph glyph-name="uni0639" unicode="&#x639;" horiz-adv-x="516" 
d="M459 -272h-288q-50 0 -83 36.5t-33 84.5v178q0 46 30 80.5t76 38.5q-27 53 -27 105.5t41 94.5q40 42 99 47t118 -12q14 -4 28.5 -9t27.5 -10l-56 -138q-25 11 -40 15q-27 7 -43 6.5t-23 -2.5q1 -8 9 -31.5t45 -64.5h119v-147h-256v-125h256v-147z" />
    <glyph glyph-name="uni06CC" unicode="&#x6cc;" horiz-adv-x="684" 
d="M271 -129q-42 0 -92.5 19t-86.5 62.5t-36 116.5v215h148v-215q0 -49 71 -51h163l-62 75q-36 45 -32 91.5t38.5 78t87.5 29.5h157v-147h-103l75 -91q34 -41 27 -82.5t-41.5 -70.5t-83.5 -30h-230z" />
    <glyph glyph-name="uni06BA" unicode="&#x6ba;" horiz-adv-x="624" 
d="M304 -187q-64 0 -120.5 23.5t-92 69.5t-35.5 113v190h148v-190q0 -19 22.5 -39t77.5 -20h116v250h148v-271q0 -53 -36 -89.5t-89 -36.5h-139z" />
    <glyph glyph-name="uni060C" unicode="&#x60c;" horiz-adv-x="300" 
d="M224 355l30 -78q-115 -40 -113 -122h8q35 0 62 -21.5t27 -61.5q0 -38 -27 -61t-65 -23q-50 0 -76 37t-26 102q0 82 46 142t134 86z" />
    <glyph glyph-name="uni061B" unicode="&#x61b;" horiz-adv-x="300" 
d="M224 679l30 -78q-115 -40 -113 -122h8q35 0 62 -21.5t27 -61.5q0 -38 -27 -61t-65 -23q-50 0 -76 37t-26 102q0 82 46 142t134 86zM150 173q38 0 63.5 -26.5t25.5 -65.5q0 -40 -25.5 -66.5t-63.5 -26.5t-63.5 26.5t-25.5 66.5q0 39 25.5 65.5t63.5 26.5z" />
    <glyph glyph-name="uni061F" unicode="&#x61f;" horiz-adv-x="463" 
d="M309 231q8 51 -10 89.5t-45.5 68.5t-49 56.5t-21.5 54.5q0 31 18.5 47t48.5 16q28 0 49.5 -13t41.5 -33l81 74q-35 41 -84 66t-107 25q-80 0 -134.5 -41t-54.5 -130q0 -47 22.5 -80t51 -62t49 -61t15.5 -77h129zM245 -12q38 0 63 26.5t25 65.5q0 40 -25 66.5t-63 26.5
t-63.5 -26.5t-25.5 -66.5q0 -39 25.5 -65.5t63.5 -26.5z" />
    </font>
</defs>
</svg>
