<svg xmlns="http://www.w3.org/2000/svg">
<defs>
<font id="ITCAvantGardeStd-Bk" horiz-adv-x="554" >
  <font-face 
    font-family="ITC Avant Garde Std Bk"
    font-weight="300"
    font-stretch="normal"
    units-per-em="1000"
    panose-1="2 11 5 2 2 2 2 2 2 4"
    ascent="740"
    descent="-260"
    x-height="547"
    cap-height="740"
    bbox="-113 -230 1226 987"
    underline-thickness="50"
    underline-position="-100"
    stemh="67"
    stemv="74"
    unicode-range="U+000D-FB04"
  />
<missing-glyph horiz-adv-x="500" 
d="M487 0h-475v665h475v-665zM250 375l161 243h-323zM60 91l161 242l-161 242v-484zM440 90v485l-162 -242zM411 48l-161 242l-162 -242h323z" />
    <glyph glyph-name="fi" unicode="fi" horiz-adv-x="487" 
d="M422 614h-70v126h70v-126zM422 0h-70v484h-178v-484h-70v484h-85v63h85v8c0 155 95 198 210 198v-65c-88 0 -140 -31 -140 -129v-12h248v-547z" />
    <glyph glyph-name="fl" unicode="fl" horiz-adv-x="485" 
d="M420 0h-70v484h-176v-484h-70v484h-85v63h85v8c0 155 95 198 210 198v-65c-88 0 -140 -31 -140 -129v-12h176v193h70v-740z" />
    <glyph glyph-name="f_f" unicode="ff" horiz-adv-x="562" 
d="M422 0h-70v484h-178v-484h-70v484h-85v63h85v8c0 155 95 198 210 198v-65c-88 0 -140 -31 -140 -129v-12h178v8c0 155 95 198 210 198v-65c-88 0 -140 -31 -140 -129v-12h140v-63h-140v-484z" />
    <glyph glyph-name="f_f_i" unicode="ffi" horiz-adv-x="742" 
d="M670 614h-70v126h70v-126zM670 0h-70v484h-178v-484h-70v484h-178v-484h-70v484h-85v63h85v8c0 155 95 198 210 198v-65c-88 0 -140 -31 -140 -129v-12h178v8c0 155 95 198 210 198v-65c-88 0 -140 -31 -140 -129v-12h248v-547z" />
    <glyph glyph-name="f_f_l" unicode="ffl" horiz-adv-x="667" 
d="M595 0h-70v479h-152v-479h-70v479h-152v-479h-70v479h-66v64h66v38c0 124 103 165 185 165v-65c-68 0 -115 -28 -115 -100v-38h152v38c0 124 103 165 185 165v-65c-68 0 -115 -28 -115 -100v-38h152v197h70v-740z" />
    <glyph glyph-name="f_t" unicode="ft" horiz-adv-x="562" 
d="M422 0h-70v484h-178v-484h-70v484h-85v63h85v8c0 155 95 198 210 198v-65c-88 0 -140 -31 -140 -129v-12h178v193h70v-193h131v-63h-131v-484z" />
    <glyph glyph-name="f_f_t" unicode="fft" horiz-adv-x="810" 
d="M670 0h-70v484h-178v-484h-70v484h-178v-484h-70v484h-85v63h85v8c0 155 95 198 210 198v-65c-88 0 -140 -31 -140 -129v-12h178v8c0 155 95 198 210 198v-65c-88 0 -140 -31 -140 -129v-12h178v193h70v-193h131v-63h-131v-484z" />
    <glyph glyph-name=".notdef" horiz-adv-x="500" 
d="M487 0h-475v665h475v-665zM250 375l161 243h-323zM60 91l161 242l-161 242v-484zM440 90v485l-162 -242zM411 48l-161 242l-162 -242h323z" />
    <glyph glyph-name="NULL" horiz-adv-x="0" 
 />
    <glyph glyph-name="NULL" horiz-adv-x="0" 
 />
    <glyph glyph-name="CR" unicode="&#xd;" horiz-adv-x="277" 
 />
    <glyph glyph-name="space" unicode=" " horiz-adv-x="277" 
 />
    <glyph glyph-name="exclam" unicode="!" horiz-adv-x="295" 
d="M185 193h-74v547h74v-547zM185 0h-74v126h74v-126z" />
    <glyph glyph-name="quotedbl" unicode="&#x22;" horiz-adv-x="309" 
d="M105 444h-57l-12 296h81zM261 444h-57l-12 296h81z" />
    <glyph glyph-name="numbersign" unicode="#" 
d="M363 0h-69l29 206h-124l-29 -206h-69l29 206h-97v67h107l26 193h-107v68h117l29 206h69l-29 -206h124l29 206h69l-29 -206h83v-68h-93l-27 -193h92v-67h-101zM332 273l27 193h-123l-27 -193h123z" />
    <glyph glyph-name="dollar" unicode="$" 
d="M315 -70h-74v99c-96 12 -171 92 -171 189v10h74c0 -85 52 -138 137 -138c80 0 130 53 130 133c0 72 -42 116 -133 138c-146 35 -187 93 -187 190c0 91 58 159 150 176v84h74v-81c96 -13 158 -82 163 -186h-74c0 76 -52 121 -125 121c-71 0 -114 -47 -114 -115
c0 -65 33 -97 116 -118c144 -36 204 -104 204 -208c0 -100 -68 -184 -170 -195v-99z" />
    <glyph glyph-name="percent" unicode="%" horiz-adv-x="775" 
d="M383 572c0 -97 -80 -179 -181 -179c-99 0 -181 81 -181 179c0 99 84 179 181 179c96 0 181 -78 181 -179zM206 0h-68l424 740h68zM202 449c68 0 121 56 121 123s-53 123 -122 123c-67 0 -120 -56 -120 -123s53 -123 121 -123zM753 166c0 -98 -81 -179 -181 -179
s-181 81 -181 179c0 97 81 179 181 179c101 0 181 -82 181 -179zM572 43c68 0 121 55 121 123c0 66 -51 123 -122 123c-63 0 -120 -52 -120 -123c0 -69 55 -123 121 -123z" />
    <glyph glyph-name="ampersand" unicode="&#x26;" horiz-adv-x="757" 
d="M736 39l-53 -51l-169 165c-60 -116 -132 -165 -225 -165c-126 0 -233 100 -233 226c0 95 55 168 171 220c-61 59 -83 102 -83 155c0 92 83 164 178 164s177 -79 177 -173c0 -73 -57 -137 -144 -168l140 -138l108 208h83l-137 -261zM302 464c92 33 123 68 123 123
s-45 96 -105 96c-52 0 -102 -41 -102 -93c0 -37 24 -75 84 -126zM458 206l-178 175c-96 -35 -150 -99 -150 -171c0 -81 71 -152 153 -152c68 0 119 37 175 148z" />
    <glyph glyph-name="quotesingle" unicode="'" horiz-adv-x="198" 
d="M128 444h-57l-12 296h81z" />
    <glyph glyph-name="parenleft" unicode="(" horiz-adv-x="369" 
d="M355 -133v-72c-172 59 -308 272 -308 481c0 199 122 413 308 481v-75c-141 -85 -234 -252 -234 -406c0 -158 91 -322 234 -409z" />
    <glyph glyph-name="parenright" unicode=")" horiz-adv-x="369" 
d="M14 -206v73c147 89 234 255 234 409s-92 321 -234 406v75c183 -66 308 -281 308 -479c0 -202 -119 -411 -308 -484z" />
    <glyph glyph-name="asterisk" unicode="*" horiz-adv-x="425" 
d="M325 480l-47 -34l-67 94l-66 -93l-47 34l69 92l-109 34l18 56l109 -38l-1 115h58l-2 -116l109 37l18 -55l-110 -34z" />
    <glyph glyph-name="plus" unicode="+" horiz-adv-x="606" 
d="M337 0h-68v219h-218v68h218v219h68v-219h218v-68h-218v-219z" />
    <glyph glyph-name="comma" unicode="," horiz-adv-x="277" 
d="M88 -67h-74l88 193h74z" />
    <glyph glyph-name="hyphen" unicode="-" horiz-adv-x="332" 
d="M302 248h-272v67h272v-67z" />
    <glyph glyph-name="period" unicode="." horiz-adv-x="277" 
d="M176 0h-74v126h74v-126z" />
    <glyph glyph-name="slash" unicode="/" horiz-adv-x="437" 
d="M120 -100h-76l280 840h79z" />
    <glyph glyph-name="zero" unicode="0" 
d="M525 493v-231c0 -184 -112 -275 -248 -275c-137 0 -248 91 -248 276v231c0 164 116 259 248 259c130 0 248 -92 248 -260zM451 268v207c0 164 -101 211 -176 211c-72 0 -172 -52 -172 -211v-203c0 -170 88 -218 174 -218c83 0 174 45 174 214z" />
    <glyph glyph-name="one" unicode="1" 
d="M336 0h-74v673h-127v67h201v-740z" />
    <glyph glyph-name="two" unicode="2" 
d="M510 0h-470v67l309 297c51 49 91 104 91 165c0 85 -73 157 -160 157c-96 0 -157 -68 -160 -185h-74c0 177 120 252 238 252c140 0 230 -115 230 -226c0 -100 -64 -164 -136 -233l-238 -227h370v-67z" />
    <glyph glyph-name="three" unicode="3" 
d="M249 389h-29v65c22 -1 26 -1 29 -1c76 0 134 44 134 116c0 68 -48 117 -115 117c-64 0 -110 -52 -111 -131h-74c4 118 82 198 187 198c108 0 187 -84 187 -190c0 -56 -23 -98 -76 -139c77 -41 125 -115 125 -196c0 -130 -96 -241 -232 -241c-115 0 -236 79 -240 245h74
c5 -118 81 -178 165 -178c95 0 159 73 159 170c0 88 -72 165 -183 165z" />
    <glyph glyph-name="four" unicode="4" 
d="M461 0h-74v135h-373v67l359 538h88v-538h67v-67h-67v-135zM387 202v436h-2l-286 -436h288z" />
    <glyph glyph-name="five" unicode="5" 
d="M468 673h-274l-37 -204c40 22 79 35 126 35c139 0 247 -115 247 -259c0 -140 -109 -258 -251 -258c-102 0 -232 66 -253 246h74c12 -106 84 -179 179 -179c103 0 177 91 177 191c0 105 -75 193 -176 193c-59 0 -113 -31 -154 -84l-58 21l67 365h333v-67z" />
    <glyph glyph-name="six" unicode="6" 
d="M210 488l2 -1c21 10 45 16 69 16c141 0 249 -112 249 -257c0 -141 -104 -259 -253 -259s-253 114 -253 263c0 65 28 126 60 174l213 315h84zM277 54c106 0 179 86 179 191c0 103 -73 191 -180 191c-102 0 -178 -89 -178 -193c0 -105 79 -189 179 -189z" />
    <glyph glyph-name="seven" unicode="7" 
d="M188 0h-78l305 673h-352v67h428v-67z" />
    <glyph glyph-name="eight" unicode="8" 
d="M385 413c83 -41 128 -114 128 -198c0 -123 -104 -228 -235 -228c-125 0 -237 98 -237 228c0 86 52 168 127 198c-55 35 -87 89 -87 148c0 107 85 192 196 192c114 0 196 -90 196 -194c0 -57 -33 -115 -88 -146zM399 564c0 66 -53 122 -121 122c-70 0 -123 -56 -123 -122
c0 -65 57 -120 123 -120s121 54 121 120zM279 54c90 0 160 74 160 161c0 85 -69 160 -164 160c-82 0 -160 -71 -160 -157c0 -94 70 -164 164 -164z" />
    <glyph glyph-name="nine" unicode="9" 
d="M257 0h-84l171 251l-2 1c-21 -11 -43 -16 -70 -16c-140 0 -248 114 -248 257c0 146 110 259 253 259c150 0 253 -115 253 -263c0 -50 -6 -96 -92 -222zM277 303c107 0 179 90 179 193c0 102 -77 189 -180 189c-101 0 -178 -85 -178 -191c0 -105 77 -191 179 -191z" />
    <glyph glyph-name="colon" unicode=":" horiz-adv-x="277" 
d="M176 422h-74v126h74v-126zM176 0h-74v126h74v-126z" />
    <glyph glyph-name="semicolon" unicode=";" horiz-adv-x="277" 
d="M176 422h-74v126h74v-126zM88 -67h-74l88 193h74z" />
    <glyph glyph-name="less" unicode="&#x3c;" horiz-adv-x="606" 
d="M554 -8l-508 230v62l508 230v-68l-425 -193l425 -193v-68z" />
    <glyph glyph-name="equal" unicode="=" horiz-adv-x="606" 
d="M555 320h-504v68h504v-68zM555 118h-504v68h504v-68z" />
    <glyph glyph-name="greater" unicode="&#x3e;" horiz-adv-x="606" 
d="M560 222l-508 -230v68l425 193l-425 193v68l508 -230v-62z" />
    <glyph glyph-name="question" unicode="?" horiz-adv-x="591" 
d="M337 193h-74v6c0 72 35 131 95 186s94 95 94 148c0 83 -74 149 -156 149c-80 0 -158 -59 -158 -157v-17h-74v14c0 139 115 230 235 230c126 0 227 -95 227 -222c0 -67 -32 -114 -92 -169s-96 -105 -97 -168zM337 0h-74v126h74v-126z" />
    <glyph glyph-name="at" unicode="@" horiz-adv-x="867" 
d="M701 93l15 -51c-80 -37 -166 -55 -253 -55c-259 0 -398 169 -398 375c0 227 165 391 395 391c200 0 343 -131 343 -329c0 -134 -78 -268 -181 -268c-48 0 -79 34 -80 80h-2c-32 -52 -77 -80 -138 -80c-95 0 -156 80 -156 180c0 118 81 226 195 226c63 0 105 -28 124 -89
h2l14 75h60l-48 -269c-2 -9 -3 -17 -3 -26c0 -21 12 -41 35 -41c67 0 118 105 118 211c0 168 -119 274 -291 274c-189 0 -327 -139 -327 -328c0 -200 134 -326 338 -326c83 0 162 15 238 50zM414 212c83 0 131 89 131 182c0 64 -41 112 -100 112c-83 0 -139 -80 -139 -168
c0 -77 40 -126 108 -126z" />
    <glyph glyph-name="A" unicode="A" horiz-adv-x="740" 
d="M729 0h-81l-107 249h-344l-108 -249h-77l316 740h83zM512 316l-142 340l-145 -340h287z" />
    <glyph glyph-name="B" unicode="B" horiz-adv-x="574" 
d="M294 0h-220v740h190c155 0 238 -85 238 -197c0 -61 -22 -102 -81 -149c79 -33 123 -103 123 -182c0 -101 -57 -212 -250 -212zM148 421h117c142 0 163 82 163 125c0 55 -32 127 -169 127h-111v-252zM148 67h140c95 0 182 38 182 145c0 84 -73 142 -182 142h-140v-287z
" />
    <glyph glyph-name="C" unicode="C" horiz-adv-x="813" 
d="M688 194h83c-72 -129 -201 -207 -341 -207c-211 0 -387 167 -387 382c0 217 173 383 386 383c137 0 280 -79 339 -202h-83c-57 85 -157 135 -257 135c-165 0 -311 -146 -311 -317c0 -166 146 -314 312 -314c101 0 192 51 259 140z" />
    <glyph glyph-name="D" unicode="D" horiz-adv-x="744" 
d="M290 0h-216v740h219c89 0 179 -22 245 -65c100 -66 161 -184 161 -309c0 -92 -35 -181 -107 -255c-72 -75 -177 -111 -302 -111zM148 67h136c123 0 205 32 259 89c56 60 82 137 82 214c0 96 -40 180 -118 240c-52 40 -131 63 -226 63h-133v-606z" />
    <glyph glyph-name="E" unicode="E" horiz-adv-x="536" 
d="M475 0h-405v740h405v-67h-331v-266h320v-67h-320v-273h331v-67z" />
    <glyph glyph-name="F" unicode="F" horiz-adv-x="485" 
d="M144 0h-74v740h374v-67h-300v-268h289v-67h-289v-338z" />
    <glyph glyph-name="G" unicode="G" horiz-adv-x="872" 
d="M739 273h-413v67h502c-16 -199 -185 -353 -391 -353c-203 0 -397 162 -397 383c0 212 179 383 396 383c166 0 307 -106 350 -210h-86c-51 87 -157 143 -263 143c-174 0 -323 -140 -323 -317c0 -179 150 -315 326 -315c134 0 265 91 299 219z" />
    <glyph glyph-name="H" unicode="H" horiz-adv-x="683" 
d="M607 0h-74v347h-383v-347h-74v740h74v-326h383v326h74v-740z" />
    <glyph glyph-name="I" unicode="I" horiz-adv-x="226" 
d="M150 0h-74v740h74v-740z" />
    <glyph glyph-name="J" unicode="J" horiz-adv-x="482" 
d="M328 227v513h74v-545c0 -142 -93 -208 -197 -208c-107 0 -193 73 -199 189h73c7 -75 60 -122 129 -122c81 0 120 44 120 173z" />
    <glyph glyph-name="K" unicode="K" horiz-adv-x="591" 
d="M591 0h-93l-247 321l-96 -118v-203h-74v740h74v-425h2l339 425h95l-293 -361z" />
    <glyph glyph-name="L" unicode="L" horiz-adv-x="462" 
d="M462 0h-380v740h74v-673h306v-67z" />
    <glyph glyph-name="M" unicode="M" horiz-adv-x="919" 
d="M843 0h-74v659h-2l-277 -659h-63l-275 659h-2v-659h-74v740h114l269 -630l270 630h114v-740z" />
    <glyph glyph-name="N" unicode="N" horiz-adv-x="740" 
d="M664 0h-74l-439 651h-2v-651h-74v740h100l413 -614h2v614h74v-740z" />
    <glyph glyph-name="O" unicode="O" horiz-adv-x="869" 
d="M826 370c0 -209 -177 -383 -392 -383c-202 0 -391 164 -391 379c0 213 174 387 391 387c215 0 392 -172 392 -383zM752 369c0 171 -141 317 -319 317c-175 0 -316 -148 -316 -320c0 -167 145 -312 317 -312c177 0 318 145 318 315z" />
    <glyph glyph-name="P" unicode="P" horiz-adv-x="592" 
d="M149 0h-74v740h224c204 0 265 -121 265 -223c0 -99 -64 -219 -266 -219h-149v-298zM149 365h165c103 0 176 62 176 154c0 74 -47 154 -192 154h-149v-308z" />
    <glyph glyph-name="Q" unicode="Q" horiz-adv-x="871" 
d="M825 -13h-3c-73 0 -114 19 -162 64c-65 -43 -143 -64 -222 -64c-209 0 -398 160 -398 380c0 221 178 386 399 386c214 0 398 -156 398 -389c0 -105 -46 -198 -122 -270c28 -25 61 -40 105 -40h5v-67zM661 142c63 62 102 136 102 224c0 177 -144 320 -325 320
c-176 0 -324 -140 -324 -323c0 -31 4 -56 13 -84c53 17 101 25 157 25c134 0 233 -38 377 -162zM603 102c-51 41 -88 67 -112 81c-49 28 -131 54 -220 54c-39 0 -73 -4 -114 -21c37 -73 139 -162 283 -162c59 0 115 13 163 48z" />
    <glyph glyph-name="R" unicode="R" horiz-adv-x="607" 
d="M561 0h-93l-251 335h72c131 0 209 67 209 168c0 70 -43 170 -213 170h-141v-673h-74v740h223c193 0 279 -114 279 -239c0 -120 -90 -215 -220 -225z" />
    <glyph glyph-name="S" unicode="S" horiz-adv-x="498" 
d="M455 552h-74c0 76 -62 134 -131 134c-76 0 -134 -57 -134 -129c0 -63 38 -102 143 -129c160 -41 214 -124 214 -224c0 -121 -99 -217 -223 -217c-131 0 -226 88 -228 220h74c5 -95 65 -153 154 -153c84 0 149 66 149 147c0 80 -53 125 -150 153c-106 30 -207 65 -207 200
c0 117 94 199 208 199c115 0 205 -87 205 -201z" />
    <glyph glyph-name="T" unicode="T" horiz-adv-x="426" 
d="M250 0h-74v673h-170v67h413v-67h-169v-673z" />
    <glyph glyph-name="U" unicode="U" horiz-adv-x="655" 
d="M505 268v472h74v-469c0 -187 -109 -284 -252 -284c-141 0 -252 94 -252 286v467h74v-471c0 -149 80 -215 178 -215c85 0 178 53 178 214z" />
    <glyph glyph-name="V" unicode="V" horiz-adv-x="702" 
d="M386 0h-73l-305 740h82l261 -648l262 648h80z" />
    <glyph glyph-name="W" unicode="W" horiz-adv-x="960" 
d="M738 0h-94l-163 607h-2l-162 -607h-95l-211 740h76l181 -645h2l176 645h69l177 -644h2l181 644h75z" />
    <glyph glyph-name="X" unicode="X" horiz-adv-x="609" 
d="M602 0h-88l-208 316l-211 -316h-87l251 378l-237 362h87l197 -296l195 296h86l-238 -362z" />
    <glyph glyph-name="Y" unicode="Y" horiz-adv-x="592" 
d="M332 0h-74v247l-257 493h82l211 -415l217 415h81l-260 -493v-247z" />
    <glyph glyph-name="Z" unicode="Z" horiz-adv-x="480" 
d="M470 0h-458v67l364 606h-353v67h436v-67l-363 -606h374v-67z" />
    <glyph glyph-name="bracketleft" unicode="[" horiz-adv-x="351" 
d="M337 -104v-75c-127 34 -204 142 -204 272v386c0 144 92 244 204 274v-75c-92 -41 -130 -108 -130 -199v-374c0 -109 38 -169 130 -209z" />
    <glyph glyph-name="backslash" unicode="\" horiz-adv-x="605" 
d="M477 -100h-76l-283 840h79z" />
    <glyph glyph-name="bracketright" unicode="]" horiz-adv-x="351" 
d="M14 -179v75c93 40 130 101 130 209v374c0 91 -38 158 -130 199v75c113 -30 204 -131 204 -274v-386c0 -133 -80 -239 -204 -272z" />
    <glyph glyph-name="asciicircum" unicode="^" horiz-adv-x="606" 
d="M553 307h-70l-181 360l-178 -360h-71l218 433h64z" />
    <glyph glyph-name="underscore" unicode="_" horiz-adv-x="500" 
d="M500 -125h-500v50h500v-50z" />
    <glyph glyph-name="grave" unicode="`" horiz-adv-x="378" 
d="M267 599l-198 107l32 60l199 -109z" />
    <glyph glyph-name="a" unicode="a" horiz-adv-x="683" 
d="M621 0h-70v96h-2c-45 -68 -124 -109 -213 -109c-164 0 -294 124 -294 288s134 286 294 286c91 0 169 -41 213 -110h2v96h70v-547zM336 50c122 0 219 100 219 223c0 122 -96 225 -220 225c-126 0 -223 -96 -223 -226c0 -126 95 -222 224 -222z" />
    <glyph glyph-name="b" unicode="b" horiz-adv-x="682" 
d="M138 0h-70v740h70v-289h2c47 67 125 110 213 110c160 0 294 -122 294 -286c0 -163 -128 -288 -294 -288c-85 0 -164 38 -213 109h-2v-96zM577 272c0 129 -95 226 -225 226c-120 0 -218 -101 -218 -225c0 -122 96 -223 219 -223c130 0 224 97 224 222z" />
    <glyph glyph-name="c" unicode="c" horiz-adv-x="647" 
d="M530 161h77c-56 -111 -145 -174 -272 -174c-163 0 -294 121 -294 292c0 150 132 282 294 282c120 0 227 -67 272 -179h-77c-41 76 -114 116 -193 116c-126 0 -226 -99 -226 -223c0 -126 99 -225 226 -225c83 0 154 38 193 111z" />
    <glyph glyph-name="d" unicode="d" horiz-adv-x="685" 
d="M618 0h-70v96h-2c-48 -71 -128 -109 -213 -109c-164 0 -294 124 -294 288s134 286 294 286c85 0 166 -40 213 -108h2v287h70v-740zM333 50c121 0 219 99 219 223c0 122 -95 225 -220 225c-128 0 -223 -97 -223 -226c0 -125 94 -222 224 -222z" />
    <glyph glyph-name="e" unicode="e" horiz-adv-x="650" 
d="M608 248h-498c6 -109 106 -198 212 -198c85 0 166 49 196 129h74c-42 -118 -152 -192 -269 -192c-155 0 -285 126 -285 286c0 159 131 288 284 288c164 0 287 -141 287 -292c0 -7 -1 -14 -1 -21zM110 311h427c-20 110 -107 187 -215 187c-102 0 -193 -74 -212 -187z" />
    <glyph glyph-name="f" unicode="f" horiz-adv-x="314" 
d="M174 0h-70v484h-85v63h85c0 150 71 203 210 206v-65h-2c-97 0 -138 -40 -138 -137v-4h140v-63h-140v-484z" />
    <glyph glyph-name="g" unicode="g" horiz-adv-x="673" 
d="M536 48v52h-2c-39 -72 -123 -113 -211 -113c-156 0 -286 124 -286 284s129 290 286 290c88 0 166 -41 211 -112h2v98h70v-489c0 -198 -144 -273 -267 -273c-135 0 -243 74 -280 201h74c36 -89 110 -138 205 -138c124 0 198 84 198 200zM323 50c123 0 217 105 217 223
c0 119 -94 225 -218 225c-118 0 -215 -103 -215 -225c0 -119 94 -223 216 -223z" />
    <glyph glyph-name="h" unicode="h" horiz-adv-x="610" 
d="M543 0h-70v305c0 123 -74 193 -170 193c-106 0 -171 -81 -171 -188v-310h-70v740h70v-263h2c35 53 97 84 168 84c151 0 241 -104 241 -256v-305z" />
    <glyph glyph-name="i" unicode="i" horiz-adv-x="200" 
d="M135 614h-70v126h70v-126zM135 0h-70v547h70v-547z" />
    <glyph glyph-name="j" unicode="j" horiz-adv-x="203" 
d="M137 614h-70v126h70v-126zM-37 -192h-7v69h2c55 0 109 26 109 150v520h70v-542c0 -144 -96 -197 -174 -197z" />
    <glyph glyph-name="k" unicode="k" horiz-adv-x="502" 
d="M498 0h-90l-180 216l-88 -112v-104h-70v740h70v-527h2l255 334h90l-216 -276z" />
    <glyph glyph-name="l" unicode="l" horiz-adv-x="200" 
d="M135 0h-70v740h70v-740z" />
    <glyph glyph-name="m" unicode="m" horiz-adv-x="938" 
d="M872 0h-70v321c0 104 -50 177 -149 177c-96 0 -149 -72 -149 -179v-319h-70v320c0 107 -52 178 -149 178s-149 -71 -149 -178v-320h-70v547h70v-63c33 52 89 77 149 77c79 0 145 -37 184 -105c43 67 104 105 184 105c141 0 219 -104 219 -233v-328z" />
    <glyph glyph-name="n" unicode="n" horiz-adv-x="610" 
d="M546 0h-70v305c0 123 -74 193 -170 193c-106 0 -171 -81 -171 -188v-310h-70v547h70v-70h2c35 53 97 84 168 84c151 0 241 -104 241 -256v-305z" />
    <glyph glyph-name="o" unicode="o" horiz-adv-x="655" 
d="M327 -13c-155 0 -285 131 -285 283c0 161 130 291 285 291c159 0 287 -134 287 -287c0 -159 -133 -287 -287 -287zM328 50c123 0 216 102 216 227c0 119 -96 221 -217 221c-119 0 -215 -103 -215 -227c0 -120 97 -221 216 -221z" />
    <glyph glyph-name="p" unicode="p" horiz-adv-x="682" 
d="M134 -192h-70v739h70v-96h2c51 72 126 110 213 110c166 0 294 -127 294 -286c0 -161 -126 -288 -294 -288c-85 0 -164 38 -213 109h-2v-288zM573 272c0 126 -92 226 -225 226c-118 0 -218 -100 -218 -225c0 -122 95 -223 219 -223c130 0 224 97 224 222z" />
    <glyph glyph-name="q" unicode="q" horiz-adv-x="682" 
d="M616 -192h-70v288h-2c-44 -68 -122 -109 -213 -109c-164 0 -294 123 -294 288c0 164 134 286 294 286c89 0 168 -41 213 -110h2v96h70v-739zM331 50c126 0 219 103 219 223c0 122 -95 225 -220 225c-126 0 -223 -96 -223 -226c0 -126 95 -222 224 -222z" />
    <glyph glyph-name="r" unicode="r" horiz-adv-x="301" 
d="M135 0h-70v547h70v-79h2c24 57 66 88 154 93v-74h-1c-101 -10 -155 -76 -155 -164v-323z" />
    <glyph glyph-name="s" unicode="s" horiz-adv-x="388" 
d="M345 412h-70c-4 53 -37 86 -82 86c-46 0 -83 -35 -83 -82c0 -40 28 -68 95 -90c133 -44 159 -97 159 -175c0 -100 -67 -164 -172 -164c-94 0 -168 67 -168 171v4h70c1 -73 39 -112 98 -112c63 0 102 35 102 98c0 53 -34 82 -97 105c-96 35 -157 62 -157 156
c0 88 66 152 156 152c82 0 149 -62 149 -149z" />
    <glyph glyph-name="t" unicode="t" horiz-adv-x="339" 
d="M199 0h-70v484h-115v63h115v193h70v-193h131v-63h-131v-484z" />
    <glyph glyph-name="u" unicode="u" horiz-adv-x="608" 
d="M541 0h-66v85h-2c-31 -63 -95 -98 -174 -98c-117 0 -237 62 -237 247v313h70v-305c0 -124 53 -192 167 -192c94 0 172 66 172 197v300h70v-547z" />
    <glyph glyph-name="v" unicode="v" 
d="M315 0h-77l-231 547h75l193 -460l196 460h75z" />
    <glyph glyph-name="w" unicode="w" horiz-adv-x="831" 
d="M611 0h-79l-116 364h-2l-114 -364h-79l-208 547h73l172 -458h2l125 392h61l126 -392h2l174 458h72z" />
    <glyph glyph-name="x" unicode="x" horiz-adv-x="480" 
d="M468 0h-83l-145 219l-145 -219h-83l187 278l-187 269h84l144 -211l143 211h85l-187 -269z" />
    <glyph glyph-name="y" unicode="y" horiz-adv-x="536" 
d="M206 -192h-73l95 210l-213 529h74l174 -436l186 436h74z" />
    <glyph glyph-name="z" unicode="z" horiz-adv-x="425" 
d="M415 0h-405v61l303 423h-293v63h377v-63l-300 -421h318v-63z" />
    <glyph glyph-name="braceleft" unicode="{" horiz-adv-x="351" 
d="M331 -189h-68c-63 0 -104 58 -104 129v186c0 59 -36 116 -89 117v64c54 2 89 62 89 117v187c0 71 41 129 104 129h68v-60h-51c-31 0 -47 -32 -47 -83v-189c0 -58 -35 -118 -87 -131v-3c47 -8 87 -58 87 -130v-190c0 -52 16 -83 47 -83h51v-60z" />
    <glyph glyph-name="bar" unicode="|" horiz-adv-x="672" 
d="M373 -222h-74v1000h74v-1000z" />
    <glyph glyph-name="braceright" unicode="}" horiz-adv-x="351" 
d="M88 -189h-68v60h51c31 0 47 31 47 83v190c0 72 40 122 87 130v3c-52 13 -87 73 -87 131v189c0 51 -16 83 -47 83h-51v60h68c63 0 104 -58 104 -129v-187c0 -55 35 -115 89 -117v-64c-53 -1 -89 -58 -89 -117v-186c0 -71 -41 -129 -104 -129z" />
    <glyph glyph-name="asciitilde" unicode="~" horiz-adv-x="606" 
d="M498 319l36 -50c-45 -65 -78 -86 -125 -86c-81 0 -137 72 -217 72c-35 0 -61 -25 -84 -76l-36 50c29 57 72 86 125 86c80 0 163 -72 213 -72c29 0 53 21 88 76z" />
    <glyph glyph-name="uni00A0" unicode="&#xa0;" horiz-adv-x="277" 
 />
    <glyph glyph-name="exclamdown" unicode="&#xa1;" horiz-adv-x="295" 
d="M184 422h-74v126h74v-126zM184 -192h-74v547h74v-547z" />
    <glyph glyph-name="cent" unicode="&#xa2;" 
d="M320 62h-74v94c-117 18 -198 114 -198 227s81 209 198 227v97h74v-96c87 -11 159 -68 190 -148h-81c-32 56 -80 84 -143 84c-89 0 -164 -74 -164 -164c0 -87 72 -164 163 -164c59 0 104 21 136 72h83c-29 -71 -97 -125 -184 -136v-93z" />
    <glyph glyph-name="sterling" unicode="&#xa3;" 
d="M306 0h-277v63h148c23 35 35 77 35 120c0 72 -55 115 -102 166h-106v63h59c-15 35 -22 62 -22 98c0 134 97 243 235 243c119 0 223 -85 237 -212h-72c-17 92 -84 149 -165 149c-96 0 -161 -77 -161 -181c0 -40 7 -64 29 -97h285v-63h-225v-2c49 -44 82 -100 82 -167
c0 -33 -6 -58 -30 -117h38c128 0 184 62 184 153c0 17 -4 33 -9 52h74c6 -20 9 -35 9 -55c0 -123 -88 -213 -246 -213z" />
    <glyph glyph-name="currency" unicode="&#xa4;" horiz-adv-x="576" 
d="M507 83l-78 78c-43 -32 -90 -49 -141 -49c-52 0 -100 18 -141 49l-79 -78l-41 41l80 79c-31 40 -50 88 -50 139s18 101 50 140l-81 80l40 41l82 -81c41 32 88 50 140 50c49 0 100 -18 139 -49l80 80l41 -41l-79 -80c32 -40 50 -88 50 -140c0 -51 -18 -99 -51 -139l80 -79
zM447 342c0 87 -73 159 -159 159c-87 0 -160 -73 -160 -160s76 -157 161 -157c86 0 158 73 158 158z" />
    <glyph glyph-name="yen" unicode="&#xa5;" 
d="M314 0h-74v227h-207v63h207v58l-17 26h-190v63h152l-181 303h80l194 -325l192 325h80l-181 -303h152v-63h-190l-17 -26v-58h207v-63h-207v-227z" />
    <glyph glyph-name="brokenbar" unicode="&#xa6;" horiz-adv-x="672" 
d="M373 353h-74v350h74v-350zM373 -147h-74v350h74v-350z" />
    <glyph glyph-name="section" unicode="&#xa7;" horiz-adv-x="615" 
d="M109 64h74c6 -88 54 -138 129 -138c64 0 114 42 114 101c0 43 -20 71 -63 95c-173 98 -278 115 -278 225c0 53 24 96 89 144c-27 28 -40 64 -40 101c0 95 81 161 178 161c103 0 170 -56 170 -147h-74c0 49 -39 80 -96 80c-63 0 -104 -38 -104 -97c0 -29 3 -58 77 -95
c142 -72 244 -96 244 -213c0 -47 -32 -103 -81 -135c39 -33 52 -71 52 -119c0 -98 -89 -168 -188 -168c-113 0 -198 80 -203 205zM393 366l-175 87c-39 -23 -59 -62 -59 -102c0 -37 21 -61 48 -74l192 -96c35 21 56 59 56 99s-29 70 -62 86z" />
    <glyph glyph-name="dieresis" unicode="&#xa8;" horiz-adv-x="369" 
d="M147 619h-74v126h74v-126zM295 619h-74v126h74v-126z" />
    <glyph glyph-name="copyright" unicode="&#xa9;" horiz-adv-x="747" 
d="M374 -12c-213 0 -383 172 -383 382c0 216 178 382 383 382c209 0 381 -171 381 -382c0 -201 -162 -382 -381 -382zM373 39c185 0 327 152 327 331s-143 331 -328 331c-178 0 -326 -147 -326 -331c0 -181 144 -331 327 -331zM516 295h55c-10 -89 -96 -152 -193 -152
c-126 0 -214 94 -214 228c0 132 88 228 214 228c95 0 183 -62 193 -152h-55c-15 68 -60 101 -137 101c-99 0 -160 -69 -160 -177s61 -177 160 -177c77 0 122 33 137 101z" />
    <glyph glyph-name="ordfeminine" unicode="&#xaa;" horiz-adv-x="434" 
d="M389 415h-60v52h-2c-21 -37 -63 -60 -120 -60c-96 0 -177 78 -177 174c0 95 81 172 177 172c48 0 93 -17 120 -60h2v52h60v-330zM332 581c0 66 -56 116 -123 116c-65 0 -119 -53 -119 -118c0 -66 57 -116 120 -116c70 0 122 50 122 118z" />
    <glyph glyph-name="guillemotleft" unicode="&#xab;" horiz-adv-x="425" 
d="M212 114l-59 -33l-113 201l113 199l59 -31l-94 -168zM386 114l-59 -33l-113 201l113 199l59 -31l-95 -168z" />
    <glyph glyph-name="logicalnot" unicode="&#xac;" horiz-adv-x="606" 
d="M555 109h-68v211h-436v68h504v-279z" />
    <glyph glyph-name="uni00AD" unicode="&#xad;" horiz-adv-x="332" 
d="M302 248h-272v67h272v-67z" />
    <glyph glyph-name="registered" unicode="&#xae;" horiz-adv-x="747" 
d="M554 148h-55c-8 12 -13 43 -13 73c0 93 -26 112 -112 112h-109v-185h-55v437h191c87 0 147 -40 147 -119c0 -55 -27 -93 -81 -106v-2c52 -15 73 -41 73 -125c0 -45 5 -70 14 -85zM265 383h119c67 0 109 25 109 80c0 48 -35 71 -104 71h-124v-151zM374 -12
c-213 0 -383 172 -383 382c0 216 178 382 383 382c209 0 381 -171 381 -382c0 -201 -162 -382 -381 -382zM373 39c185 0 327 152 327 331s-143 331 -328 331c-178 0 -326 -147 -326 -331c0 -181 144 -331 327 -331z" />
    <glyph glyph-name="macron" unicode="&#xaf;" horiz-adv-x="485" 
d="M411 629h-338v67h338v-67z" />
    <glyph glyph-name="degree" unicode="&#xb0;" horiz-adv-x="400" 
d="M200 421c-77 0 -144 63 -144 144c0 79 64 144 144 144c79 0 144 -65 144 -144c0 -80 -65 -144 -144 -144zM294 565c0 52 -41 94 -94 94c-52 0 -94 -42 -94 -94c0 -53 42 -94 94 -94s94 41 94 94z" />
    <glyph glyph-name="plusminus" unicode="&#xb1;" horiz-adv-x="606" 
d="M555 272h-218v-178h-68v178h-218v68h218v178h68v-178h218v-68zM555 -24h-504v68h504v-68z" />
    <glyph glyph-name="twosuperior" unicode="&#xb2;" horiz-adv-x="352" 
d="M320 421h-298v49l190 176c33 30 49 60 49 88c0 47 -42 84 -87 84c-57 0 -88 -36 -88 -107h-60v4c0 97 59 157 150 157c82 0 145 -63 145 -139c0 -42 -12 -76 -82 -140l-129 -118h210v-54z" />
    <glyph glyph-name="threesuperior" unicode="&#xb3;" horiz-adv-x="348" 
d="M158 645h-21v54h18c60 0 80 28 80 58c0 37 -25 61 -62 61c-36 0 -58 -30 -59 -75h-60c2 80 53 129 121 129c69 0 120 -49 120 -117c0 -37 -14 -59 -41 -80c43 -27 70 -64 70 -115c0 -84 -67 -146 -148 -146c-89 0 -150 61 -152 156h60c0 -63 39 -102 92 -102
c52 0 88 36 88 91c0 37 -30 86 -106 86z" />
    <glyph glyph-name="acute" unicode="&#xb4;" horiz-adv-x="375" 
d="M309 706l-198 -107l-33 58l199 109z" />
    <glyph glyph-name="mu" unicode="&#xb5;" horiz-adv-x="608" 
d="M543 0h-66v85h-2c-31 -63 -96 -98 -176 -98c-79 0 -132 24 -165 69v-248h-70v739h70v-305c0 -125 55 -192 166 -192c100 0 173 71 173 197v300h70v-547z" />
    <glyph glyph-name="paragraph" unicode="&#xb6;" horiz-adv-x="564" 
d="M487 -110h-62v794h-120v-794h-62v458h-13c-127 0 -208 81 -208 194c0 91 54 198 230 198h299v-56h-64v-794z" />
    <glyph glyph-name="periodcentered" unicode="&#xb7;" horiz-adv-x="277" 
d="M176 190h-74v126h74v-126z" />
    <glyph glyph-name="cedilla" unicode="&#xb8;" horiz-adv-x="324" 
d="M125 -105l-36 21l46 87l42 -3l-28 -56c11 3 21 4 33 4c43 0 72 -37 72 -86s-37 -84 -92 -84c-43 0 -75 29 -83 77l42 2c4 -22 22 -42 46 -42c30 0 46 24 46 52c0 32 -19 47 -48 47c-19 0 -28 -6 -40 -19z" />
    <glyph glyph-name="onesuperior" unicode="&#xb9;" horiz-adv-x="214" 
d="M149 421h-60v390h-75v54h135v-444z" />
    <glyph glyph-name="ordmasculine" unicode="&#xba;" horiz-adv-x="404" 
d="M202 407c-95 0 -172 78 -172 170c0 95 76 176 172 176c93 0 172 -79 172 -172s-74 -174 -172 -174zM203 463c64 0 111 50 111 118c0 63 -48 116 -111 116c-64 0 -113 -53 -113 -118s50 -116 113 -116z" />
    <glyph glyph-name="guillemotright" unicode="&#xbb;" horiz-adv-x="425" 
d="M97 81l-58 33l94 168l-94 168l58 31l114 -199zM271 81l-58 33l94 168l-94 168l58 31l114 -199z" />
    <glyph glyph-name="onequarter" unicode="&#xbc;" horiz-adv-x="635" 
d="M149 296h-60v390h-75v54h135v-444zM132 0h-60l333 740h60zM562 0h-59v78h-225v49l219 317h65v-312h41v-54h-41v-78zM503 132v222h-2l-149 -222h151z" />
    <glyph glyph-name="onehalf" unicode="&#xbd;" horiz-adv-x="684" 
d="M149 296h-60v390h-75v54h135v-444zM132 0h-60l333 740h60zM652 0h-298v49l190 176c33 30 49 60 49 88c0 47 -42 84 -87 84c-57 0 -88 -36 -88 -107h-60v4c0 97 59 157 150 157c82 0 145 -63 145 -139c0 -42 -12 -76 -82 -140l-129 -118h210v-54z" />
    <glyph glyph-name="threequarters" unicode="&#xbe;" horiz-adv-x="784" 
d="M158 520h-21v54h18c60 0 80 28 80 58c0 37 -25 61 -62 61c-36 0 -58 -30 -59 -75h-60c2 80 53 129 121 129c69 0 120 -49 120 -117c0 -37 -14 -59 -41 -80c43 -27 70 -64 70 -115c0 -84 -67 -146 -148 -146c-89 0 -150 61 -152 156h60c0 -63 39 -102 92 -102
c52 0 88 36 88 91c0 37 -30 86 -106 86zM281 0h-60l333 740h60zM711 0h-59v78h-225v49l219 317h65v-312h41v-54h-41v-78zM652 132v222h-2l-149 -222h151z" />
    <glyph glyph-name="questiondown" unicode="&#xbf;" horiz-adv-x="591" 
d="M527 39v-14c0 -139 -115 -230 -235 -230c-126 0 -227 95 -227 222c0 67 32 115 92 170s96 105 97 168h74v-6c0 -72 -35 -131 -95 -186s-94 -96 -94 -149c0 -83 74 -149 156 -149c80 0 158 59 158 157v17h74zM328 422h-74v126h74v-126z" />
    <glyph glyph-name="Agrave" unicode="&#xc0;" horiz-adv-x="740" 
d="M729 0h-81l-107 249h-344l-108 -249h-77l316 740h83zM512 316l-142 340l-145 -340h287zM448 782l-198 107l32 60l199 -109z" />
    <glyph glyph-name="Aacute" unicode="&#xc1;" horiz-adv-x="740" 
d="M729 0h-81l-107 249h-344l-108 -249h-77l316 740h83zM512 316l-142 340l-145 -340h287zM492 889l-198 -107l-33 58l199 109z" />
    <glyph glyph-name="Acircumflex" unicode="&#xc2;" horiz-adv-x="740" 
d="M729 0h-81l-107 249h-344l-108 -249h-77l316 740h83zM512 316l-142 340l-145 -340h287zM547 802h-89l-86 73l-88 -73h-91l145 125h66z" />
    <glyph glyph-name="Atilde" unicode="&#xc3;" horiz-adv-x="740" 
d="M729 0h-81l-107 249h-344l-108 -249h-77l316 740h83zM512 316l-142 340l-145 -340h287zM507 892l36 -49c-28 -20 -63 -39 -98 -39c-60 0 -101 41 -145 41c-25 0 -50 -14 -67 -30l-35 50c28 27 64 42 104 42c55 0 99 -41 142 -41c24 0 43 14 63 26z" />
    <glyph glyph-name="Adieresis" unicode="&#xc4;" horiz-adv-x="740" 
d="M729 0h-81l-107 249h-344l-108 -249h-77l316 740h83zM512 316l-142 340l-145 -340h287zM333 802h-74v126h74v-126zM481 802h-74v126h74v-126z" />
    <glyph glyph-name="Aring" unicode="&#xc5;" horiz-adv-x="740" 
d="M729 0h-81l-107 249h-344l-108 -249h-77l316 740h83zM512 316l-142 340l-145 -340h287zM473 851c0 -56 -47 -103 -104 -103s-103 49 -103 103c0 58 50 104 103 104c57 0 104 -45 104 -104zM421 851c0 29 -23 52 -52 52c-28 0 -51 -24 -51 -52c0 -27 22 -51 51 -51
c28 0 52 22 52 51z" />
    <glyph glyph-name="AE" unicode="&#xc6;" horiz-adv-x="992" 
d="M907 0h-391v250h-273l-174 -250h-89l515 740h412v-67h-317v-266h306v-67h-306v-273h317v-67zM516 317v328h-2l-224 -328h226z" />
    <glyph glyph-name="Ccedilla" unicode="&#xc7;" horiz-adv-x="813" 
d="M688 194h83c-71 -129 -201 -207 -339 -207c-7 0 -13 1 -18 1l-21 -44c12 3 21 4 33 4c41 0 72 -37 72 -86c0 -50 -39 -84 -92 -84c-43 0 -75 29 -83 77l42 2c4 -23 22 -42 46 -42c31 0 46 24 46 52c0 32 -19 47 -48 47c-17 0 -28 -6 -40 -19l-36 21l40 76
c-188 26 -330 186 -330 377c0 217 173 383 386 383c137 0 280 -79 339 -202h-83c-57 85 -157 135 -257 135c-165 0 -311 -146 -311 -317c0 -166 146 -314 312 -314c101 0 192 51 259 140z" />
    <glyph glyph-name="Egrave" unicode="&#xc8;" horiz-adv-x="536" 
d="M475 0h-405v740h405v-67h-331v-266h320v-67h-320v-273h331v-67zM346 782l-198 107l32 60l199 -109z" />
    <glyph glyph-name="Eacute" unicode="&#xc9;" horiz-adv-x="536" 
d="M475 0h-405v740h405v-67h-331v-266h320v-67h-320v-273h331v-67zM390 889l-198 -107l-33 58l199 109z" />
    <glyph glyph-name="Ecircumflex" unicode="&#xca;" horiz-adv-x="536" 
d="M475 0h-405v740h405v-67h-331v-266h320v-67h-320v-273h331v-67zM445 802h-89l-86 73l-88 -73h-91l145 125h66z" />
    <glyph glyph-name="Edieresis" unicode="&#xcb;" horiz-adv-x="536" 
d="M475 0h-405v740h405v-67h-331v-266h320v-67h-320v-273h331v-67zM231 801h-74v126h74v-126zM379 801h-74v126h74v-126z" />
    <glyph glyph-name="Igrave" unicode="&#xcc;" horiz-adv-x="226" 
d="M150 0h-74v740h74v-740zM151 782l-198 107l32 60l199 -109z" />
    <glyph glyph-name="Iacute" unicode="&#xcd;" horiz-adv-x="226" 
d="M150 0h-74v740h74v-740zM274 889l-198 -107l-33 58l199 109z" />
    <glyph glyph-name="Icircumflex" unicode="&#xce;" horiz-adv-x="226" 
d="M150 0h-74v740h74v-740zM290 802h-89l-86 73l-88 -73h-91l145 125h66z" />
    <glyph glyph-name="Idieresis" unicode="&#xcf;" horiz-adv-x="226" 
d="M150 0h-74v740h74v-740zM76 801h-74v126h74v-126zM224 801h-74v126h74v-126z" />
    <glyph glyph-name="Eth" unicode="&#xd0;" horiz-adv-x="810" 
d="M350 0h-216v347h-74v67h74v326h219c89 0 179 -22 245 -65c100 -66 161 -184 161 -309c0 -92 -35 -181 -107 -255c-72 -75 -177 -111 -302 -111zM208 67h136c123 0 205 32 259 89c56 60 82 137 82 214c0 96 -40 180 -118 240c-52 40 -131 63 -226 63h-133v-259h210v-67
h-210v-280z" />
    <glyph glyph-name="Ntilde" unicode="&#xd1;" horiz-adv-x="740" 
d="M664 0h-74l-439 651h-2v-651h-74v740h100l413 -614h2v614h74v-740zM507 892l36 -49c-28 -20 -63 -39 -98 -39c-60 0 -101 41 -145 41c-25 0 -50 -14 -67 -30l-35 50c28 27 64 42 104 42c55 0 99 -41 142 -41c24 0 43 14 63 26z" />
    <glyph glyph-name="Ograve" unicode="&#xd2;" horiz-adv-x="869" 
d="M826 370c0 -209 -177 -383 -392 -383c-202 0 -391 164 -391 379c0 213 174 387 391 387c215 0 392 -172 392 -383zM752 369c0 171 -141 317 -319 317c-175 0 -316 -148 -316 -320c0 -167 145 -312 317 -312c177 0 318 145 318 315zM513 782l-198 107l32 60l199 -109z" />
    <glyph glyph-name="Oacute" unicode="&#xd3;" horiz-adv-x="869" 
d="M826 370c0 -209 -177 -383 -392 -383c-202 0 -391 164 -391 379c0 213 174 387 391 387c215 0 392 -172 392 -383zM752 369c0 171 -141 317 -319 317c-175 0 -316 -148 -316 -320c0 -167 145 -312 317 -312c177 0 318 145 318 315zM596 889l-198 -107l-33 58l199 109z
" />
    <glyph glyph-name="Ocircumflex" unicode="&#xd4;" horiz-adv-x="869" 
d="M826 370c0 -209 -177 -383 -392 -383c-202 0 -391 164 -391 379c0 213 174 387 391 387c215 0 392 -172 392 -383zM752 369c0 171 -141 317 -319 317c-175 0 -316 -148 -316 -320c0 -167 145 -312 317 -312c177 0 318 145 318 315zM612 802h-89l-86 73l-88 -73h-91
l145 125h66z" />
    <glyph glyph-name="Otilde" unicode="&#xd5;" horiz-adv-x="869" 
d="M826 370c0 -209 -177 -383 -392 -383c-202 0 -391 164 -391 379c0 213 174 387 391 387c215 0 392 -172 392 -383zM752 369c0 171 -141 317 -319 317c-175 0 -316 -148 -316 -320c0 -167 145 -312 317 -312c177 0 318 145 318 315zM571 892l36 -49
c-28 -20 -63 -39 -98 -39c-60 0 -101 41 -145 41c-25 0 -50 -14 -67 -30l-35 50c28 27 64 42 104 42c55 0 99 -41 142 -41c24 0 43 14 63 26z" />
    <glyph glyph-name="Odieresis" unicode="&#xd6;" horiz-adv-x="869" 
d="M826 370c0 -209 -177 -383 -392 -383c-202 0 -391 164 -391 379c0 213 174 387 391 387c215 0 392 -172 392 -383zM752 369c0 171 -141 317 -319 317c-175 0 -316 -148 -316 -320c0 -167 145 -312 317 -312c177 0 318 145 318 315zM398 802h-74v126h74v-126zM546 802h-74
v126h74v-126z" />
    <glyph glyph-name="multiply" unicode="&#xd7;" horiz-adv-x="606" 
d="M485 24l-181 182l-182 -182l-48 48l182 182l-181 180l48 48l181 -180l180 180l48 -48l-180 -180l181 -182z" />
    <glyph glyph-name="Oslash" unicode="&#xd8;" horiz-adv-x="868" 
d="M139 -83l-55 40l93 126c-89 80 -134 182 -134 287c0 213 181 383 391 383c75 0 139 -18 204 -57l92 123l55 -40l-92 -123c85 -75 133 -173 133 -286c0 -208 -175 -383 -392 -383c-73 0 -138 19 -201 56zM219 139l377 502c-49 29 -102 45 -163 45
c-169 0 -316 -143 -316 -317c0 -89 37 -170 102 -230zM651 600l-377 -502c51 -28 104 -44 161 -44c174 0 317 144 317 315c0 91 -36 167 -101 231z" />
    <glyph glyph-name="Ugrave" unicode="&#xd9;" horiz-adv-x="655" 
d="M505 268v472h74v-469c0 -187 -109 -284 -252 -284c-141 0 -252 94 -252 286v467h74v-471c0 -149 80 -215 178 -215c85 0 178 53 178 214zM386 782l-198 107l32 60l199 -109z" />
    <glyph glyph-name="Uacute" unicode="&#xda;" horiz-adv-x="655" 
d="M505 268v472h74v-469c0 -187 -109 -284 -252 -284c-141 0 -252 94 -252 286v467h74v-471c0 -149 80 -215 178 -215c85 0 178 53 178 214zM469 889l-198 -107l-33 58l199 109z" />
    <glyph glyph-name="Ucircumflex" unicode="&#xdb;" horiz-adv-x="655" 
d="M505 268v472h74v-469c0 -187 -109 -284 -252 -284c-141 0 -252 94 -252 286v467h74v-471c0 -149 80 -215 178 -215c85 0 178 53 178 214zM505 802h-89l-86 73l-88 -73h-91l145 125h66z" />
    <glyph glyph-name="Udieresis" unicode="&#xdc;" horiz-adv-x="655" 
d="M505 268v472h74v-469c0 -187 -109 -284 -252 -284c-141 0 -252 94 -252 286v467h74v-471c0 -149 80 -215 178 -215c85 0 178 53 178 214zM290 802h-74v126h74v-126zM438 802h-74v126h74v-126z" />
    <glyph glyph-name="Yacute" unicode="&#xdd;" horiz-adv-x="592" 
d="M332 0h-74v247l-257 493h82l211 -415l217 415h81l-260 -493v-247zM438 889l-198 -107l-33 58l199 109z" />
    <glyph glyph-name="Thorn" unicode="&#xde;" horiz-adv-x="592" 
d="M134 0h-74v740h74v-149h150c204 0 265 -121 265 -223c0 -99 -64 -219 -266 -219h-149v-149zM134 216h165c103 0 176 62 176 154c0 74 -47 154 -192 154h-149v-308z" />
    <glyph glyph-name="germandbls" unicode="&#xdf;" 
d="M131 0h-70v531c0 156 115 222 208 222c118 0 204 -87 204 -209c0 -70 -25 -121 -88 -154c89 -31 140 -95 140 -190c0 -123 -87 -213 -208 -213c-85 0 -156 46 -184 122h-2v-109zM131 203h51c3 -86 58 -153 134 -153c79 0 139 64 139 143c0 61 -30 149 -187 149h-44v67
c113 0 179 47 179 142c0 81 -58 139 -135 139c-68 0 -137 -46 -137 -185v-302z" />
    <glyph glyph-name="agrave" unicode="&#xe0;" horiz-adv-x="683" 
d="M621 0h-70v96h-2c-45 -68 -124 -109 -213 -109c-164 0 -294 124 -294 288s134 286 294 286c91 0 169 -41 213 -110h2v96h70v-547zM336 50c122 0 219 100 219 223c0 122 -96 225 -220 225c-126 0 -223 -96 -223 -226c0 -126 95 -222 224 -222zM420 619l-198 107l32 60
l199 -109z" />
    <glyph glyph-name="aacute" unicode="&#xe1;" horiz-adv-x="683" 
d="M621 0h-70v96h-2c-45 -68 -124 -109 -213 -109c-164 0 -294 124 -294 288s134 286 294 286c91 0 169 -41 213 -110h2v96h70v-547zM336 50c122 0 219 100 219 223c0 122 -96 225 -220 225c-126 0 -223 -96 -223 -226c0 -126 95 -222 224 -222zM463 726l-198 -107l-33 58
l199 109z" />
    <glyph glyph-name="acircumflex" unicode="&#xe2;" horiz-adv-x="683" 
d="M621 0h-70v96h-2c-45 -68 -124 -109 -213 -109c-164 0 -294 124 -294 288s134 286 294 286c91 0 169 -41 213 -110h2v96h70v-547zM336 50c122 0 219 100 219 223c0 122 -96 225 -220 225c-126 0 -223 -96 -223 -226c0 -126 95 -222 224 -222zM519 639h-89l-86 73l-88 -73
h-91l145 125h66z" />
    <glyph glyph-name="atilde" unicode="&#xe3;" horiz-adv-x="683" 
d="M621 0h-70v96h-2c-45 -68 -124 -109 -213 -109c-164 0 -294 124 -294 288s134 286 294 286c91 0 169 -41 213 -110h2v96h70v-547zM336 50c122 0 219 100 219 223c0 122 -96 225 -220 225c-126 0 -223 -96 -223 -226c0 -126 95 -222 224 -222zM478 739l36 -49
c-28 -20 -63 -39 -98 -39c-60 0 -101 41 -145 41c-25 0 -50 -14 -67 -30l-35 50c28 27 64 42 104 42c55 0 99 -41 142 -41c24 0 43 14 63 26z" />
    <glyph glyph-name="adieresis" unicode="&#xe4;" horiz-adv-x="683" 
d="M621 0h-70v96h-2c-45 -68 -124 -109 -213 -109c-164 0 -294 124 -294 288s134 286 294 286c91 0 169 -41 213 -110h2v96h70v-547zM336 50c122 0 219 100 219 223c0 122 -96 225 -220 225c-126 0 -223 -96 -223 -226c0 -126 95 -222 224 -222zM304 639h-74v126h74v-126z
M452 639h-74v126h74v-126z" />
    <glyph glyph-name="aring" unicode="&#xe5;" horiz-adv-x="683" 
d="M621 0h-70v96h-2c-45 -68 -124 -109 -213 -109c-164 0 -294 124 -294 288s134 286 294 286c91 0 169 -41 213 -110h2v96h70v-547zM336 50c122 0 219 100 219 223c0 122 -96 225 -220 225c-126 0 -223 -96 -223 -226c0 -126 95 -222 224 -222zM445 703
c0 -56 -47 -103 -104 -103s-103 49 -103 103c0 58 50 104 103 104c57 0 104 -45 104 -104zM393 703c0 29 -23 52 -52 52c-28 0 -51 -24 -51 -52c0 -27 22 -51 51 -51c28 0 52 22 52 51z" />
    <glyph glyph-name="ae" unicode="&#xe6;" horiz-adv-x="1157" 
d="M1113 247h-495c12 -114 106 -197 213 -197c86 0 166 53 194 128h70c-33 -112 -148 -191 -264 -191c-86 0 -173 45 -214 112h-2v-99h-70v99h-2c-52 -77 -125 -112 -217 -112c-178 0 -292 142 -292 286c0 134 109 288 293 288c93 0 172 -38 216 -115h2v101h70v-101h2
c38 70 132 115 213 115c180 0 284 -162 284 -287c0 -15 -1 -24 -1 -27zM548 272c0 124 -91 226 -222 226c-121 0 -222 -103 -222 -228c0 -123 102 -220 222 -220c127 0 222 98 222 222zM618 310h425c-19 113 -107 188 -213 188c-100 0 -192 -73 -212 -188z" />
    <glyph glyph-name="ccedilla" unicode="&#xe7;" horiz-adv-x="647" 
d="M295 -105l-36 21l39 74c-145 14 -257 138 -257 285c0 150 132 286 294 286c120 0 227 -67 272 -179h-77c-41 76 -114 116 -193 116c-126 0 -226 -99 -226 -223c0 -126 99 -225 226 -225c83 0 154 38 193 111h77c-56 -108 -138 -170 -266 -173l-22 -44c11 4 21 4 32 4
c44 0 73 -38 73 -86c0 -49 -39 -84 -92 -84c-43 0 -75 29 -83 77l42 2c4 -23 22 -42 46 -42c31 0 46 24 46 52c0 32 -17 47 -48 47c-16 0 -31 -6 -40 -19z" />
    <glyph glyph-name="egrave" unicode="&#xe8;" horiz-adv-x="650" 
d="M608 248h-498c6 -109 106 -198 212 -198c85 0 166 49 196 129h74c-42 -118 -152 -192 -269 -192c-155 0 -285 126 -285 286c0 159 131 288 284 288c164 0 287 -141 287 -292c0 -7 -1 -14 -1 -21zM110 311h427c-20 110 -107 187 -215 187c-102 0 -193 -74 -212 -187z
M403 619l-198 107l32 60l199 -109z" />
    <glyph glyph-name="eacute" unicode="&#xe9;" horiz-adv-x="650" 
d="M608 248h-498c6 -109 106 -198 212 -198c85 0 166 49 196 129h74c-42 -118 -152 -192 -269 -192c-155 0 -285 126 -285 286c0 159 131 288 284 288c164 0 287 -141 287 -292c0 -7 -1 -14 -1 -21zM110 311h427c-20 110 -107 187 -215 187c-102 0 -193 -74 -212 -187z
M447 726l-198 -107l-33 58l199 109z" />
    <glyph glyph-name="ecircumflex" unicode="&#xea;" horiz-adv-x="650" 
d="M608 248h-498c6 -109 106 -198 212 -198c85 0 166 49 196 129h74c-42 -118 -152 -192 -269 -192c-155 0 -285 126 -285 286c0 159 131 288 284 288c164 0 287 -141 287 -292c0 -7 -1 -14 -1 -21zM110 311h427c-20 110 -107 187 -215 187c-102 0 -193 -74 -212 -187z
M502 639h-89l-86 73l-88 -73h-91l145 125h66z" />
    <glyph glyph-name="edieresis" unicode="&#xeb;" horiz-adv-x="650" 
d="M608 248h-498c6 -109 106 -198 212 -198c85 0 166 49 196 129h74c-42 -118 -152 -192 -269 -192c-155 0 -285 126 -285 286c0 159 131 288 284 288c164 0 287 -141 287 -292c0 -7 -1 -14 -1 -21zM110 311h427c-20 110 -107 187 -215 187c-102 0 -193 -74 -212 -187z
M288 639h-74v126h74v-126zM436 639h-74v126h74v-126z" />
    <glyph glyph-name="igrave" unicode="&#xec;" horiz-adv-x="200" 
d="M135 0h-70v547h70v-547zM138 619l-198 107l32 60l199 -109z" />
    <glyph glyph-name="iacute" unicode="&#xed;" horiz-adv-x="200" 
d="M135 0h-70v547h70v-547zM261 726l-198 -107l-33 58l199 109z" />
    <glyph glyph-name="icircumflex" unicode="&#xee;" horiz-adv-x="200" 
d="M135 0h-70v547h70v-547zM277 639h-89l-86 73l-88 -73h-91l145 125h66z" />
    <glyph glyph-name="idieresis" unicode="&#xef;" horiz-adv-x="200" 
d="M135 0h-70v547h70v-547zM63 639h-74v126h74v-126zM211 639h-74v126h74v-126z" />
    <glyph glyph-name="eth" unicode="&#xf0;" horiz-adv-x="655" 
d="M468 512l2 2c-37 51 -91 91 -146 124l-155 -61l-50 39l145 55c-39 20 -76 37 -117 49l78 33c43 -12 84 -32 119 -51l133 51l48 -37l-125 -49c146 -105 214 -232 214 -380c0 -170 -125 -299 -287 -299c-159 0 -285 128 -285 288c0 158 130 282 280 282
c56 0 99 -13 146 -46zM326 51c126 0 218 104 218 228c0 123 -96 216 -217 216c-105 0 -215 -74 -215 -223c0 -118 91 -221 214 -221z" />
    <glyph glyph-name="ntilde" unicode="&#xf1;" horiz-adv-x="610" 
d="M546 0h-70v305c0 123 -74 193 -170 193c-106 0 -171 -81 -171 -188v-310h-70v547h70v-70h2c35 53 97 84 168 84c151 0 241 -104 241 -256v-305zM442 739l36 -49c-28 -20 -63 -39 -98 -39c-60 0 -101 41 -145 41c-25 0 -50 -14 -67 -30l-35 50c28 27 64 42 104 42
c55 0 99 -41 142 -41c24 0 43 14 63 26z" />
    <glyph glyph-name="ograve" unicode="&#xf2;" horiz-adv-x="655" 
d="M327 -13c-155 0 -285 131 -285 283c0 161 130 291 285 291c159 0 287 -134 287 -287c0 -159 -133 -287 -287 -287zM328 50c123 0 216 102 216 227c0 119 -96 221 -217 221c-119 0 -215 -103 -215 -227c0 -120 97 -221 216 -221zM406 619l-198 107l32 60l199 -109z" />
    <glyph glyph-name="oacute" unicode="&#xf3;" horiz-adv-x="655" 
d="M327 -13c-155 0 -285 131 -285 283c0 161 130 291 285 291c159 0 287 -134 287 -287c0 -159 -133 -287 -287 -287zM328 50c123 0 216 102 216 227c0 119 -96 221 -217 221c-119 0 -215 -103 -215 -227c0 -120 97 -221 216 -221zM479 726l-198 -107l-33 58l199 109z" />
    <glyph glyph-name="ocircumflex" unicode="&#xf4;" horiz-adv-x="655" 
d="M327 -13c-155 0 -285 131 -285 283c0 161 130 291 285 291c159 0 287 -134 287 -287c0 -159 -133 -287 -287 -287zM328 50c123 0 216 102 216 227c0 119 -96 221 -217 221c-119 0 -215 -103 -215 -227c0 -120 97 -221 216 -221zM505 639h-89l-86 73l-88 -73h-91l145 125
h66z" />
    <glyph glyph-name="otilde" unicode="&#xf5;" horiz-adv-x="655" 
d="M327 -13c-155 0 -285 131 -285 283c0 161 130 291 285 291c159 0 287 -134 287 -287c0 -159 -133 -287 -287 -287zM328 50c123 0 216 102 216 227c0 119 -96 221 -217 221c-119 0 -215 -103 -215 -227c0 -120 97 -221 216 -221zM464 739l36 -49c-28 -20 -63 -39 -98 -39
c-60 0 -101 41 -145 41c-25 0 -50 -14 -67 -30l-35 50c28 27 64 42 104 42c55 0 99 -41 142 -41c24 0 43 14 63 26z" />
    <glyph glyph-name="odieresis" unicode="&#xf6;" horiz-adv-x="655" 
d="M327 -13c-155 0 -285 131 -285 283c0 161 130 291 285 291c159 0 287 -134 287 -287c0 -159 -133 -287 -287 -287zM328 50c123 0 216 102 216 227c0 119 -96 221 -217 221c-119 0 -215 -103 -215 -227c0 -120 97 -221 216 -221zM290 639h-74v126h74v-126zM438 639h-74
v126h74v-126z" />
    <glyph glyph-name="divide" unicode="&#xf7;" horiz-adv-x="606" 
d="M340 393h-74v126h74v-126zM555 219h-504v68h504v-68zM340 -13h-74v126h74v-126z" />
    <glyph glyph-name="oslash" unicode="&#xf8;" horiz-adv-x="653" 
d="M110 -64l-54 38l72 95c-56 56 -87 125 -87 201c0 160 130 291 285 291c51 0 100 -13 144 -41l72 94l55 -41l-72 -94c56 -56 88 -128 88 -205c0 -159 -133 -287 -287 -287c-51 0 -102 14 -145 42zM169 123l262 345c-31 19 -66 30 -105 30c-116 0 -215 -101 -215 -227
c0 -56 19 -107 58 -148zM485 426l-264 -345c32 -20 69 -31 106 -31c123 0 216 102 216 227c0 56 -19 109 -58 149z" />
    <glyph glyph-name="ugrave" unicode="&#xf9;" horiz-adv-x="608" 
d="M541 0h-66v85h-2c-31 -63 -95 -98 -174 -98c-117 0 -237 62 -237 247v313h70v-305c0 -124 53 -192 167 -192c94 0 172 66 172 197v300h70v-547zM362 619l-198 107l32 60l199 -109z" />
    <glyph glyph-name="uacute" unicode="&#xfa;" horiz-adv-x="608" 
d="M541 0h-66v85h-2c-31 -63 -95 -98 -174 -98c-117 0 -237 62 -237 247v313h70v-305c0 -124 53 -192 167 -192c94 0 172 66 172 197v300h70v-547zM446 726l-198 -107l-33 58l199 109z" />
    <glyph glyph-name="ucircumflex" unicode="&#xfb;" horiz-adv-x="608" 
d="M541 0h-66v85h-2c-31 -63 -95 -98 -174 -98c-117 0 -237 62 -237 247v313h70v-305c0 -124 53 -192 167 -192c94 0 172 66 172 197v300h70v-547zM481 639h-89l-86 73l-88 -73h-91l145 125h66z" />
    <glyph glyph-name="udieresis" unicode="&#xfc;" horiz-adv-x="608" 
d="M541 0h-66v85h-2c-31 -63 -95 -98 -174 -98c-117 0 -237 62 -237 247v313h70v-305c0 -124 53 -192 167 -192c94 0 172 66 172 197v300h70v-547zM267 639h-74v126h74v-126zM415 639h-74v126h74v-126z" />
    <glyph glyph-name="yacute" unicode="&#xfd;" horiz-adv-x="536" 
d="M206 -192h-73l95 210l-213 529h74l174 -436l186 436h74zM410 726l-198 -107l-33 58l199 109z" />
    <glyph glyph-name="thorn" unicode="&#xfe;" horiz-adv-x="682" 
d="M134 -192h-70v932h70v-289h2c51 72 126 110 213 110c166 0 294 -127 294 -286c0 -161 -126 -288 -294 -288c-85 0 -164 38 -213 109h-2v-288zM573 272c0 126 -92 226 -225 226c-118 0 -218 -100 -218 -225c0 -122 95 -223 219 -223c130 0 224 97 224 222z" />
    <glyph glyph-name="ydieresis" unicode="&#xff;" horiz-adv-x="536" 
d="M206 -192h-73l95 210l-213 529h74l174 -436l186 436h74zM231 639h-74v126h74v-126zM379 639h-74v126h74v-126z" />
    <glyph glyph-name="dotlessi" unicode="&#x131;" horiz-adv-x="200" 
d="M135 0h-70v547h70v-547z" />
    <glyph glyph-name="Lslash" unicode="&#x141;" horiz-adv-x="517" 
d="M517 0h-380v313l-78 -56v77l78 56v350h74v-296l153 111v-77l-153 -111v-300h306v-67z" />
    <glyph glyph-name="lslash" unicode="&#x142;" horiz-adv-x="300" 
d="M183 0h-70v335l-70 -52v71l70 51v335h70v-284l76 55v-70l-76 -55v-386z" />
    <glyph glyph-name="OE" unicode="&#x152;" horiz-adv-x="1194" 
d="M1142 0h-391v151h-2c-55 -101 -187 -164 -309 -164c-224 0 -395 166 -395 384c0 215 177 382 387 382c125 0 263 -63 317 -160h2v147h391v-67h-317v-267h306v-67h-306v-272h317v-67zM752 371c0 169 -135 315 -317 315c-172 0 -316 -137 -316 -312s135 -320 312 -320
c176 0 321 139 321 317z" />
    <glyph glyph-name="oe" unicode="&#x153;" horiz-adv-x="1137" 
d="M1104 248h-497c6 -106 101 -198 213 -198c82 0 168 52 194 129h74c-40 -119 -154 -192 -267 -192c-105 0 -202 57 -253 151c-54 -99 -149 -151 -250 -151c-162 0 -284 140 -284 279c0 164 126 295 285 295c103 0 198 -56 251 -152c52 96 148 152 250 152
c158 0 285 -136 285 -288c0 -9 -1 -20 -1 -25zM320 50c120 0 217 102 217 221s-91 227 -218 227c-118 0 -215 -101 -215 -227c0 -118 94 -221 216 -221zM609 311h425c-18 111 -105 187 -213 187c-101 0 -194 -75 -212 -187z" />
    <glyph glyph-name="Scaron" unicode="&#x160;" horiz-adv-x="498" 
d="M455 552h-74c0 76 -62 134 -131 134c-76 0 -134 -57 -134 -129c0 -63 38 -102 143 -129c160 -41 214 -124 214 -224c0 -121 -99 -217 -223 -217c-131 0 -226 88 -228 220h74c5 -95 65 -153 154 -153c84 0 149 66 149 147c0 80 -53 125 -150 153c-106 30 -207 65 -207 200
c0 117 94 199 208 199c115 0 205 -87 205 -201zM421 927l-143 -125h-67l-145 125h92l86 -73l88 73h89z" />
    <glyph glyph-name="scaron" unicode="&#x161;" horiz-adv-x="388" 
d="M345 412h-70c-4 53 -37 86 -82 86c-46 0 -83 -35 -83 -82c0 -40 28 -68 95 -90c133 -44 159 -97 159 -175c0 -100 -67 -164 -172 -164c-94 0 -168 67 -168 171v4h70c1 -73 39 -112 98 -112c63 0 102 35 102 98c0 53 -34 82 -97 105c-96 35 -157 62 -157 156
c0 88 66 152 156 152c82 0 149 -62 149 -149zM366 764l-143 -125h-67l-145 125h92l86 -73l88 73h89z" />
    <glyph glyph-name="Ydieresis" unicode="&#x178;" horiz-adv-x="592" 
d="M332 0h-74v247l-257 493h82l211 -415l217 415h81l-260 -493v-247zM259 802h-74v126h74v-126zM407 802h-74v126h74v-126z" />
    <glyph glyph-name="Zcaron" unicode="&#x17d;" horiz-adv-x="480" 
d="M470 0h-458v67l364 606h-353v67h436v-67l-363 -606h374v-67zM412 927l-143 -125h-67l-145 125h92l86 -73l88 73h89z" />
    <glyph glyph-name="zcaron" unicode="&#x17e;" horiz-adv-x="425" 
d="M415 0h-405v61l303 423h-293v63h377v-63l-300 -421h318v-63zM385 764l-143 -125h-67l-145 125h92l86 -73l88 73h89z" />
    <glyph glyph-name="florin" unicode="&#x192;" 
d="M-12 -146l13 64c17 -4 33 -6 50 -6c109 0 131 73 152 184l80 421h-114l13 67h112c14 90 41 151 80 184c40 33 81 50 123 50c7 0 14 -1 21 -2l-11 -67c-3 1 -8 1 -16 1c-63 0 -105 -35 -127 -166h112l-12 -67h-112l-92 -488c-25 -131 -108 -182 -216 -182
c-20 0 -39 2 -56 7z" />
    <glyph glyph-name="circumflex" unicode="&#x2c6;" horiz-adv-x="502" 
d="M428 609h-89l-86 73l-88 -73h-91l145 125h66z" />
    <glyph glyph-name="caron" unicode="&#x2c7;" horiz-adv-x="502" 
d="M423 734l-143 -125h-67l-145 125h92l86 -73l88 73h89z" />
    <glyph glyph-name="uni02C9" unicode="&#x2c9;" horiz-adv-x="485" 
d="M411 629h-338v67h338v-67z" />
    <glyph glyph-name="breve" unicode="&#x2d8;" horiz-adv-x="453" 
d="M336 714h65c-24 -67 -87 -103 -175 -103s-149 35 -174 103h65c21 -29 61 -46 109 -46c47 0 87 15 110 46z" />
    <glyph glyph-name="dotaccent" unicode="&#x2d9;" horiz-adv-x="222" 
d="M148 619h-74v126h74v-126z" />
    <glyph glyph-name="ring" unicode="&#x2da;" horiz-adv-x="332" 
d="M269 703c0 -56 -47 -103 -104 -103s-103 49 -103 103c0 58 50 104 103 104c57 0 104 -45 104 -104zM217 703c0 29 -23 52 -52 52c-28 0 -51 -24 -51 -52c0 -27 22 -51 51 -51c28 0 52 22 52 51z" />
    <glyph glyph-name="ogonek" unicode="&#x2db;" horiz-adv-x="302" 
d="M228 -138v-44c-17 -6 -34 -9 -51 -9c-61 0 -104 37 -104 90c0 39 20 69 72 101h52c-55 -40 -75 -69 -75 -98c0 -30 27 -50 58 -50c15 0 32 4 48 10z" />
    <glyph glyph-name="tilde" unicode="&#x2dc;" horiz-adv-x="439" 
d="M356 709l36 -49c-28 -20 -63 -39 -98 -39c-60 0 -101 41 -145 41c-25 0 -50 -14 -67 -30l-35 50c28 27 64 42 104 42c55 0 99 -41 142 -41c24 0 43 14 63 26z" />
    <glyph glyph-name="hungarumlaut" unicode="&#x2dd;" horiz-adv-x="552" 
d="M311 730l-164 -135l-38 46l161 135zM486 730l-164 -135l-38 46l162 135z" />
    <glyph glyph-name="uni03A9" unicode="&#x3a9;" horiz-adv-x="848" 
d="M793 0h-276v67c104 36 214 153 214 318c0 155 -122 301 -307 301s-307 -146 -307 -301c0 -165 110 -282 214 -318v-67h-276v67h165c-48 28 -177 118 -177 318c0 190 156 368 381 368s381 -178 381 -368c0 -200 -129 -290 -177 -318h165v-67z" />
    <glyph glyph-name="uni03BC" unicode="&#x3bc;" horiz-adv-x="608" 
d="M543 0h-66v85h-2c-31 -63 -96 -98 -176 -98c-79 0 -132 24 -165 69v-248h-70v739h70v-305c0 -125 55 -192 166 -192c100 0 173 71 173 197v300h70v-547z" />
    <glyph glyph-name="pi" unicode="&#x3c0;" horiz-adv-x="610" 
d="M587 68v-63s-22 -12 -67 -12c-52 0 -100 32 -100 102v388h-245v-483h-70v483h-104v64h593v-64h-104v-363c0 -40 7 -60 47 -60c28 0 50 8 50 8z" />
    <glyph glyph-name="endash" unicode="&#x2013;" horiz-adv-x="500" 
d="M465 248h-430v67h430v-67z" />
    <glyph glyph-name="emdash" unicode="&#x2014;" horiz-adv-x="1000" 
d="M965 248h-930v67h930v-67z" />
    <glyph glyph-name="quoteleft" unicode="&#x2018;" horiz-adv-x="351" 
d="M257 546h-74l-88 194h74z" />
    <glyph glyph-name="quoteright" unicode="&#x2019;" horiz-adv-x="351" 
d="M168 546h-74l88 194h74z" />
    <glyph glyph-name="quotesinglbase" unicode="&#x201a;" horiz-adv-x="354" 
d="M163 -68h-74l88 194h74z" />
    <glyph glyph-name="quotedblleft" unicode="&#x201c;" horiz-adv-x="502" 
d="M259 546h-74l-88 194h74zM406 546h-74l-87 194h73z" />
    <glyph glyph-name="quotedblright" unicode="&#x201d;" horiz-adv-x="484" 
d="M170 546h-74l88 194h73zM317 546h-74l88 194h74z" />
    <glyph glyph-name="quotedblbase" unicode="&#x201e;" horiz-adv-x="502" 
d="M163 -68h-74l88 194h74zM311 -68h-74l88 194h74z" />
    <glyph glyph-name="dagger" unicode="&#x2020;" horiz-adv-x="553" 
d="M313 -133h-74v605h-180v67h180v201h74v-201h180v-67h-180v-605z" />
    <glyph glyph-name="daggerdbl" unicode="&#x2021;" horiz-adv-x="553" 
d="M313 -133h-74v201h-180v67h180v337h-180v67h180v201h74v-201h180v-67h-180v-337h180v-67h-180v-201z" />
    <glyph glyph-name="bullet" unicode="&#x2022;" horiz-adv-x="606" 
d="M303 222c-85 0 -153 71 -153 155c0 83 69 155 154 155c84 0 151 -72 151 -155c0 -86 -70 -155 -152 -155z" />
    <glyph glyph-name="ellipsis" unicode="&#x2026;" horiz-adv-x="1000" 
d="M204 0h-74v126h74v-126zM537 0h-74v126h74v-126zM870 0h-74v126h74v-126z" />
    <glyph glyph-name="perthousand" unicode="&#x2030;" horiz-adv-x="1174" 
d="M387 572c0 -98 -82 -179 -181 -179s-181 81 -181 179s84 179 181 179c100 0 181 -82 181 -179zM210 0h-68l424 740h68zM206 449c68 0 121 56 121 123s-53 123 -121 123s-121 -56 -121 -123s53 -123 121 -123zM757 166c0 -101 -84 -179 -181 -179c-100 0 -181 81 -181 179
c0 100 84 179 181 179c100 0 181 -82 181 -179zM576 43c65 0 121 53 121 123c0 66 -52 123 -121 123c-64 0 -121 -52 -121 -123c0 -69 55 -123 121 -123zM1148 166c0 -101 -84 -179 -181 -179c-100 0 -181 81 -181 179c0 100 84 179 181 179c100 0 181 -82 181 -179zM967 43
c65 0 121 53 121 123c0 66 -52 123 -121 123c-64 0 -121 -52 -121 -123c0 -69 55 -123 121 -123z" />
    <glyph glyph-name="guilsinglleft" unicode="&#x2039;" horiz-adv-x="251" 
d="M212 114l-59 -33l-113 201l113 199l59 -31l-94 -168z" />
    <glyph glyph-name="guilsinglright" unicode="&#x203a;" horiz-adv-x="251" 
d="M97 81l-58 33l94 168l-94 168l58 31l114 -199z" />
    <glyph glyph-name="fraction" unicode="&#x2044;" horiz-adv-x="166" 
d="M-53 0h-60l333 740h60z" />
    <glyph glyph-name="zero.superior" unicode="&#x2070;" horiz-adv-x="368" 
d="M340 725v-157c0 -101 -70 -154 -156 -154c-87 0 -156 59 -156 148v159c0 95 77 151 156 151c80 0 156 -60 156 -147zM280 559v170c0 48 -36 89 -97 89c-57 0 -95 -40 -95 -89v-170c0 -52 38 -91 95 -91c56 0 97 38 97 91z" />
    <glyph glyph-name="zero.superior" unicode="&#xe1ee;" horiz-adv-x="368" 
d="M340 725v-157c0 -101 -70 -154 -156 -154c-87 0 -156 59 -156 148v159c0 95 77 151 156 151c80 0 156 -60 156 -147zM280 559v170c0 48 -36 89 -97 89c-57 0 -95 -40 -95 -89v-170c0 -52 38 -91 95 -91c56 0 97 38 97 91z" />
    <glyph glyph-name="four.superior" unicode="&#x2074;" horiz-adv-x="385" 
d="M312 421h-59v78h-225v49l219 317h65v-312h41v-54h-41v-78zM253 553v222h-2l-149 -222h151z" />
    <glyph glyph-name="four.superior" unicode="&#xe1ef;" horiz-adv-x="385" 
d="M312 421h-59v78h-225v49l219 317h65v-312h41v-54h-41v-78zM253 553v222h-2l-149 -222h151z" />
    <glyph glyph-name="five.superior" unicode="&#x2075;" horiz-adv-x="364" 
d="M305 811h-169l-19 -106c16 11 43 21 75 21c88 0 148 -68 148 -153c0 -89 -64 -159 -156 -159c-78 0 -147 58 -157 146h60c8 -55 49 -92 98 -92c59 0 96 44 96 101c0 59 -40 104 -96 104c-28 0 -63 -11 -87 -43l-47 12l40 223h214v-54z" />
    <glyph glyph-name="five.superior" unicode="&#xe1f0;" horiz-adv-x="364" 
d="M305 811h-169l-19 -106c16 11 43 21 75 21c88 0 148 -68 148 -153c0 -89 -64 -159 -156 -159c-78 0 -147 58 -157 146h60c8 -55 49 -92 98 -92c59 0 96 44 96 101c0 59 -40 104 -96 104c-28 0 -63 -11 -87 -43l-47 12l40 223h214v-54z" />
    <glyph glyph-name="six.superior" unicode="&#x2076;" horiz-adv-x="369" 
d="M264 865l-114 -153c13 8 33 12 49 12c80 0 146 -67 146 -152c0 -87 -68 -158 -158 -158c-91 0 -159 71 -159 151c0 48 17 83 37 112l129 188h70zM186 468c57 0 99 44 99 100c0 59 -42 104 -99 104c-56 0 -98 -40 -98 -103c0 -57 41 -101 98 -101z" />
    <glyph glyph-name="six.superior" unicode="&#xe1f1;" horiz-adv-x="369" 
d="M264 865l-114 -153c13 8 33 12 49 12c80 0 146 -67 146 -152c0 -87 -68 -158 -158 -158c-91 0 -159 71 -159 151c0 48 17 83 37 112l129 188h70zM186 468c57 0 99 44 99 100c0 59 -42 104 -99 104c-56 0 -98 -40 -98 -103c0 -57 41 -101 98 -101z" />
    <glyph glyph-name="seven.superior" unicode="&#x2077;" horiz-adv-x="298" 
d="M98 421h-63l179 390h-209v54h270v-52z" />
    <glyph glyph-name="seven.superior" unicode="&#xe1f2;" horiz-adv-x="298" 
d="M98 421h-63l179 390h-209v54h270v-52z" />
    <glyph glyph-name="eight.superior" unicode="&#x2078;" horiz-adv-x="344" 
d="M248 668c44 -23 72 -64 72 -115c0 -78 -65 -139 -148 -139c-84 0 -148 63 -148 140c0 49 28 91 72 114c-28 23 -45 53 -45 89c0 66 56 115 121 115c69 0 121 -52 121 -115c0 -36 -17 -66 -45 -89zM237 756c0 36 -26 63 -66 63c-36 0 -64 -27 -64 -63c0 -39 27 -65 65 -65
c37 0 65 26 65 65zM260 551c0 51 -36 88 -89 88c-51 0 -87 -37 -87 -88c0 -48 39 -83 88 -83c50 0 88 35 88 83z" />
    <glyph glyph-name="eight.superior" unicode="&#xe1f3;" horiz-adv-x="344" 
d="M248 668c44 -23 72 -64 72 -115c0 -78 -65 -139 -148 -139c-84 0 -148 63 -148 140c0 49 28 91 72 114c-28 23 -45 53 -45 89c0 66 56 115 121 115c69 0 121 -52 121 -115c0 -36 -17 -66 -45 -89zM237 756c0 36 -26 63 -66 63c-36 0 -64 -27 -64 -63c0 -39 27 -65 65 -65
c37 0 65 26 65 65zM260 551c0 51 -36 88 -89 88c-51 0 -87 -37 -87 -88c0 -48 39 -83 88 -83c50 0 88 35 88 83z" />
    <glyph glyph-name="nine.superior" unicode="&#x2079;" horiz-adv-x="369" 
d="M175 421h-70l114 153c-12 -8 -33 -12 -49 -12c-79 0 -146 66 -146 152s68 158 158 158c92 0 159 -72 159 -151c0 -54 -22 -90 -36 -111zM182 614c58 0 99 42 99 103c0 56 -39 101 -98 101c-56 0 -99 -44 -99 -100c0 -60 42 -104 98 -104z" />
    <glyph glyph-name="nine.superior" unicode="&#xe1f4;" horiz-adv-x="369" 
d="M175 421h-70l114 153c-12 -8 -33 -12 -49 -12c-79 0 -146 66 -146 152s68 158 158 158c92 0 159 -72 159 -151c0 -54 -22 -90 -36 -111zM182 614c58 0 99 42 99 103c0 56 -39 101 -98 101c-56 0 -99 -44 -99 -100c0 -60 42 -104 98 -104z" />
    <glyph glyph-name="zero.inferior" unicode="&#x2080;" horiz-adv-x="368" 
d="M340 179v-157c0 -101 -70 -154 -156 -154c-87 0 -156 59 -156 148v159c0 95 77 151 156 151c80 0 156 -60 156 -147zM280 13v170c0 48 -36 89 -97 89c-57 0 -95 -40 -95 -89v-170c0 -52 38 -91 95 -91c56 0 97 38 97 91z" />
    <glyph glyph-name="zero.inferior" unicode="&#xe1f5;" horiz-adv-x="368" 
d="M340 179v-157c0 -101 -70 -154 -156 -154c-87 0 -156 59 -156 148v159c0 95 77 151 156 151c80 0 156 -60 156 -147zM280 13v170c0 48 -36 89 -97 89c-57 0 -95 -40 -95 -89v-170c0 -52 38 -91 95 -91c56 0 97 38 97 91z" />
    <glyph glyph-name="one.inferior" unicode="&#x2081;" horiz-adv-x="214" 
d="M149 -125h-60v390h-75v54h135v-444z" />
    <glyph glyph-name="one.inferior" unicode="&#xe1f6;" horiz-adv-x="214" 
d="M149 -125h-60v390h-75v54h135v-444z" />
    <glyph glyph-name="two.inferior" unicode="&#x2082;" horiz-adv-x="352" 
d="M320 -125h-298v49l190 176c33 30 49 60 49 88c0 47 -42 84 -87 84c-57 0 -88 -36 -88 -107h-60v4c0 97 59 157 150 157c82 0 145 -63 145 -139c0 -42 -12 -76 -82 -140l-129 -118h210v-54z" />
    <glyph glyph-name="two.inferior" unicode="&#xe1f7;" horiz-adv-x="352" 
d="M320 -125h-298v49l190 176c33 30 49 60 49 88c0 47 -42 84 -87 84c-57 0 -88 -36 -88 -107h-60v4c0 97 59 157 150 157c82 0 145 -63 145 -139c0 -42 -12 -76 -82 -140l-129 -118h210v-54z" />
    <glyph glyph-name="three.inferior" unicode="&#x2083;" horiz-adv-x="348" 
d="M158 99h-21v54h18c60 0 80 28 80 58c0 37 -25 61 -62 61c-36 0 -58 -30 -59 -75h-60c2 80 53 129 121 129c69 0 120 -49 120 -117c0 -37 -14 -59 -41 -80c43 -27 70 -64 70 -115c0 -84 -67 -146 -148 -146c-89 0 -150 61 -152 156h60c0 -63 39 -102 92 -102
c52 0 88 36 88 91c0 37 -30 86 -106 86z" />
    <glyph glyph-name="three.inferior" unicode="&#xe1f8;" horiz-adv-x="348" 
d="M158 99h-21v54h18c60 0 80 28 80 58c0 37 -25 61 -62 61c-36 0 -58 -30 -59 -75h-60c2 80 53 129 121 129c69 0 120 -49 120 -117c0 -37 -14 -59 -41 -80c43 -27 70 -64 70 -115c0 -84 -67 -146 -148 -146c-89 0 -150 61 -152 156h60c0 -63 39 -102 92 -102
c52 0 88 36 88 91c0 37 -30 86 -106 86z" />
    <glyph glyph-name="four.inferior" unicode="&#x2084;" horiz-adv-x="385" 
d="M312 -125h-59v78h-225v49l219 317h65v-312h41v-54h-41v-78zM253 7v222h-2l-149 -222h151z" />
    <glyph glyph-name="four.inferior" unicode="&#xe1f9;" horiz-adv-x="385" 
d="M312 -125h-59v78h-225v49l219 317h65v-312h41v-54h-41v-78zM253 7v222h-2l-149 -222h151z" />
    <glyph glyph-name="five.inferior" unicode="&#x2085;" horiz-adv-x="364" 
d="M305 265h-169l-19 -106c16 11 43 21 75 21c88 0 148 -68 148 -153c0 -89 -64 -159 -156 -159c-78 0 -147 58 -157 146h60c8 -55 49 -92 98 -92c59 0 96 44 96 101c0 59 -40 104 -96 104c-28 0 -63 -11 -87 -43l-47 12l40 223h214v-54z" />
    <glyph glyph-name="five.inferior" unicode="&#xe1fa;" horiz-adv-x="364" 
d="M305 265h-169l-19 -106c16 11 43 21 75 21c88 0 148 -68 148 -153c0 -89 -64 -159 -156 -159c-78 0 -147 58 -157 146h60c8 -55 49 -92 98 -92c59 0 96 44 96 101c0 59 -40 104 -96 104c-28 0 -63 -11 -87 -43l-47 12l40 223h214v-54z" />
    <glyph glyph-name="six.inferior" unicode="&#x2086;" horiz-adv-x="369" 
d="M264 319l-114 -153c13 8 33 12 49 12c80 0 146 -67 146 -152c0 -87 -68 -158 -158 -158c-91 0 -159 71 -159 151c0 48 17 83 37 112l129 188h70zM186 -78c57 0 99 44 99 100c0 59 -42 104 -99 104c-56 0 -98 -40 -98 -103c0 -57 41 -101 98 -101z" />
    <glyph glyph-name="six.inferior" unicode="&#xe1fb;" horiz-adv-x="369" 
d="M264 319l-114 -153c13 8 33 12 49 12c80 0 146 -67 146 -152c0 -87 -68 -158 -158 -158c-91 0 -159 71 -159 151c0 48 17 83 37 112l129 188h70zM186 -78c57 0 99 44 99 100c0 59 -42 104 -99 104c-56 0 -98 -40 -98 -103c0 -57 41 -101 98 -101z" />
    <glyph glyph-name="seven.inferior" unicode="&#x2087;" horiz-adv-x="298" 
d="M98 -125h-63l179 390h-209v54h270v-52z" />
    <glyph glyph-name="seven.inferior" unicode="&#xe1fc;" horiz-adv-x="298" 
d="M98 -125h-63l179 390h-209v54h270v-52z" />
    <glyph glyph-name="eight.inferior" unicode="&#x2088;" horiz-adv-x="344" 
d="M248 122c44 -23 72 -64 72 -115c0 -78 -65 -139 -148 -139c-84 0 -148 63 -148 140c0 49 28 91 72 114c-28 23 -45 53 -45 89c0 66 56 115 121 115c69 0 121 -52 121 -115c0 -36 -17 -66 -45 -89zM237 210c0 36 -26 63 -66 63c-36 0 -64 -27 -64 -63c0 -39 27 -65 65 -65
c37 0 65 26 65 65zM260 5c0 51 -36 88 -89 88c-51 0 -87 -37 -87 -88c0 -48 39 -83 88 -83c50 0 88 35 88 83z" />
    <glyph glyph-name="eight.inferior" unicode="&#xe1fd;" horiz-adv-x="344" 
d="M248 122c44 -23 72 -64 72 -115c0 -78 -65 -139 -148 -139c-84 0 -148 63 -148 140c0 49 28 91 72 114c-28 23 -45 53 -45 89c0 66 56 115 121 115c69 0 121 -52 121 -115c0 -36 -17 -66 -45 -89zM237 210c0 36 -26 63 -66 63c-36 0 -64 -27 -64 -63c0 -39 27 -65 65 -65
c37 0 65 26 65 65zM260 5c0 51 -36 88 -89 88c-51 0 -87 -37 -87 -88c0 -48 39 -83 88 -83c50 0 88 35 88 83z" />
    <glyph glyph-name="nine.inferior" unicode="&#x2089;" horiz-adv-x="369" 
d="M175 -125h-70l114 153c-12 -8 -33 -12 -49 -12c-79 0 -146 66 -146 152s68 158 158 158c92 0 159 -72 159 -151c0 -54 -22 -90 -36 -111zM182 68c58 0 99 42 99 103c0 56 -39 101 -98 101c-56 0 -99 -44 -99 -100c0 -60 42 -104 98 -104z" />
    <glyph glyph-name="nine.inferior" unicode="&#xe1fe;" horiz-adv-x="369" 
d="M175 -125h-70l114 153c-12 -8 -33 -12 -49 -12c-79 0 -146 66 -146 152s68 158 158 158c92 0 159 -72 159 -151c0 -54 -22 -90 -36 -111zM182 68c58 0 99 42 99 103c0 56 -39 101 -98 101c-56 0 -99 -44 -99 -100c0 -60 42 -104 98 -104z" />
    <glyph glyph-name="Euro" unicode="&#x20ac;" 
d="M474 169h70c-18 -117 -82 -182 -213 -182c-151 0 -225 109 -234 285h-89l25 63h61v70h-86l25 63h65c19 204 113 285 238 285c119 0 190 -70 204 -183h-70c-11 83 -71 116 -136 116c-92 0 -151 -65 -163 -218h312l-25 -63h-290v-70h262l-25 -63h-234
c8 -145 60 -218 164 -218c70 0 126 32 139 115z" />
    <glyph glyph-name="uni20B9" unicode="&#x20b9;" 
d="M425 0h-92l-273 316v67h121c120 0 182 41 183 161h-304l1 63h296c-23 69 -96 70 -159 70h-137v63h483v-63h-160c25 -17 37 -39 47 -70h113v-63h-106c-4 -158 -88 -224 -246 -224h-48z" />
    <glyph glyph-name="uni20BA" unicode="&#x20ba;" 
d="M115 0v287l-87 -47v71l87 47v82l-87 -47v71l87 47v229h72v-191l230 124v-71l-230 -124v-82l230 124v-71l-230 -124v-262c4 -1 9 -1 11 -1c176 0 250 134 250 310h74c0 -219 -111 -377 -324 -377c-24 0 -59 2 -83 5z" />
    <glyph glyph-name="uni20BC" unicode="&#x20bc;" horiz-adv-x="730" 
d="M689 0h-72v225c0 150 -59 231 -216 243v-396h-72v396c-157 -12 -216 -93 -216 -243v-225h-72v245c0 189 121 285 288 290v205h72v-205c167 -5 288 -101 288 -290v-245z" />
    <glyph glyph-name="ruble" unicode="&#x20bd;" 
d="M390 153h-214v-153h-74v153h-80v67h80v78h-80v67h80v375h164c204 0 265 -121 265 -223c0 -99 -64 -219 -266 -219h-89v-78h214v-67zM176 365h105c103 0 176 62 176 154c0 74 -47 154 -192 154h-89v-308z" />
    <glyph glyph-name="litre" unicode="&#x2113;" horiz-adv-x="461" 
d="M351 92l27 -41c-40 -45 -80 -64 -123 -64c-73 0 -113 56 -113 145v119l-56 -64l-32 36l88 101v239c0 103 43 165 116 165c56 0 94 -43 94 -104c0 -96 -48 -191 -140 -304v-190c0 -52 20 -86 59 -86c23 0 44 9 80 48zM212 565v-166c41 54 86 141 86 218
c0 33 -12 54 -36 54c-35 0 -50 -39 -50 -106z" />
    <glyph glyph-name="trademark" unicode="&#x2122;" horiz-adv-x="892" 
d="M169 296h-55v397h-105v47h265v-47h-105v-397zM816 296h-55v372h-2l-163 -372h-46l-162 371h-2v-371h-55v444h78l164 -365l164 365h79v-444z" />
    <glyph glyph-name="Omega" unicode="&#x2126;" horiz-adv-x="848" 
d="M793 0h-276v67c104 36 214 153 214 318c0 155 -122 301 -307 301s-307 -146 -307 -301c0 -165 110 -282 214 -318v-67h-276v67h165c-48 28 -177 118 -177 318c0 190 156 368 381 368s381 -178 381 -368c0 -200 -129 -290 -177 -318h165v-67z" />
    <glyph glyph-name="estimated" unicode="&#x212e;" horiz-adv-x="635" 
d="M515 151l35 -22c-67 -100 -138 -141 -239 -141c-161 0 -271 123 -271 289c0 169 109 290 271 290c160 0 268 -111 276 -290h-428v-190c41 -41 92 -62 152 -62c90 0 156 44 204 126zM464 314v153c-41 40 -94 64 -155 64c-56 0 -107 -20 -150 -63v-154h305z" />
    <glyph glyph-name="oneeighth" unicode="&#x215b;" horiz-adv-x="666" 
d="M149 296h-60v390h-75v54h135v-444zM132 0h-60l333 740h60zM570 247c44 -23 72 -64 72 -115c0 -76 -65 -139 -148 -139c-86 0 -148 65 -148 140c0 49 28 91 72 114c-28 23 -45 54 -45 89c0 64 53 115 121 115s121 -52 121 -115c0 -35 -17 -66 -45 -89zM559 335
c0 36 -26 63 -65 63c-37 0 -65 -27 -65 -63c0 -39 27 -65 65 -65s65 26 65 65zM582 130c0 51 -36 88 -88 88s-88 -37 -88 -88c0 -48 39 -83 88 -83c50 0 88 35 88 83z" />
    <glyph glyph-name="threeeighths" unicode="&#x215c;" horiz-adv-x="815" 
d="M158 520h-21v54h18c60 0 80 28 80 58c0 37 -25 61 -62 61c-36 0 -58 -30 -59 -75h-60c2 80 53 129 121 129c69 0 120 -49 120 -117c0 -37 -14 -59 -41 -80c43 -27 70 -64 70 -115c0 -84 -67 -146 -148 -146c-89 0 -150 61 -152 156h60c0 -63 39 -102 92 -102
c52 0 88 36 88 91c0 37 -30 86 -106 86zM719 247c44 -23 72 -64 72 -115c0 -76 -65 -139 -148 -139c-86 0 -148 65 -148 140c0 49 28 91 72 114c-28 23 -45 54 -45 89c0 64 53 115 121 115s121 -52 121 -115c0 -35 -17 -66 -45 -89zM708 335c0 36 -26 63 -65 63
c-37 0 -65 -27 -65 -63c0 -39 27 -65 65 -65s65 26 65 65zM731 130c0 51 -36 88 -88 88s-88 -37 -88 -88c0 -48 39 -83 88 -83c50 0 88 35 88 83zM281 0h-60l333 740h60z" />
    <glyph glyph-name="fiveeighths" unicode="&#x215d;" horiz-adv-x="827" 
d="M305 686h-169l-19 -106c16 11 43 21 75 21c87 0 148 -68 148 -153c0 -89 -64 -159 -156 -159c-78 0 -147 58 -157 146h60c8 -55 49 -92 98 -92c58 0 96 44 96 101c0 59 -40 104 -96 104c-28 0 -63 -11 -87 -43l-47 12l40 223h214v-54zM293 0h-60l333 740h60zM731 247
c44 -23 72 -64 72 -115c0 -76 -65 -139 -148 -139c-86 0 -148 65 -148 140c0 49 28 91 72 114c-28 23 -45 54 -45 89c0 64 53 115 121 115s121 -52 121 -115c0 -35 -17 -66 -45 -89zM720 335c0 36 -26 63 -65 63c-37 0 -65 -27 -65 -63c0 -39 27 -65 65 -65s65 26 65 65z
M743 130c0 51 -36 88 -88 88s-88 -37 -88 -88c0 -48 39 -83 88 -83c50 0 88 35 88 83z" />
    <glyph glyph-name="seveneighths" unicode="&#x215e;" horiz-adv-x="689" 
d="M98 296h-63l179 390h-209v54h270v-52zM155 0h-60l333 740h60zM593 247c44 -23 72 -64 72 -115c0 -76 -65 -139 -148 -139c-86 0 -148 65 -148 140c0 49 28 91 72 114c-28 23 -45 54 -45 89c0 64 53 115 121 115s121 -52 121 -115c0 -35 -17 -66 -45 -89zM582 335
c0 36 -26 63 -65 63c-37 0 -65 -27 -65 -63c0 -39 27 -65 65 -65s65 26 65 65zM605 130c0 51 -36 88 -88 88s-88 -37 -88 -88c0 -48 39 -83 88 -83c50 0 88 35 88 83z" />
    <glyph glyph-name="partialdiff" unicode="&#x2202;" horiz-adv-x="534" 
d="M415 431h2c3 23 5 45 5 72c0 111 -44 165 -128 165c-29 0 -61 -9 -86 -24l-19 53c28 16 78 30 115 30c120 0 191 -83 191 -232c0 -212 -96 -505 -290 -505c-102 0 -165 77 -165 181c0 192 126 328 250 328c56 0 99 -21 125 -68zM407 358c-15 51 -50 84 -110 84
c-97 0 -183 -128 -183 -274c0 -75 38 -118 92 -118c88 0 165 112 201 308z" />
    <glyph glyph-name="Delta" unicode="&#x2206;" horiz-adv-x="756" 
d="M745 0h-733l324 740h83zM635 67l-257 589l-260 -589h517z" />
    <glyph glyph-name="product" unicode="&#x220f;" horiz-adv-x="664" 
d="M584 -230h-75v865h-354v-865h-75v930h504v-930z" />
    <glyph glyph-name="summation" unicode="&#x2211;" horiz-adv-x="586" 
d="M545 -230h-521v34l302 435l-280 421v40h475v-62h-382l265 -397l-284 -409h425v-62z" />
    <glyph glyph-name="minus" unicode="&#x2212;" horiz-adv-x="606" 
d="M555 219h-504v68h504v-68z" />
    <glyph glyph-name="uni2215" unicode="&#x2215;" horiz-adv-x="166" 
d="M-53 0h-60l333 740h60z" />
    <glyph glyph-name="uni2219" unicode="&#x2219;" horiz-adv-x="277" 
d="M176 190h-74v126h74v-126z" />
    <glyph glyph-name="radical" unicode="&#x221a;" horiz-adv-x="456" 
d="M298 -12h-64l-126 341l-51 -30l-26 45l114 68l120 -325l147 641h58z" />
    <glyph glyph-name="infinity" unicode="&#x221e;" horiz-adv-x="718" 
d="M357 240h-2c-47 -70 -102 -103 -159 -103c-89 0 -153 63 -153 153c0 91 62 155 150 155c67 0 125 -39 162 -102h2c40 64 98 102 161 102c84 0 151 -58 151 -151c0 -88 -61 -157 -148 -157c-63 0 -124 36 -164 103zM327 292c-37 62 -83 97 -130 97c-55 0 -90 -39 -90 -99
c0 -56 38 -97 91 -97c49 0 92 36 129 99zM386 292c35 -63 80 -99 128 -99c56 0 91 39 91 100c0 59 -35 96 -90 96c-47 0 -86 -26 -129 -97z" />
    <glyph glyph-name="integral" unicode="&#x222b;" horiz-adv-x="460" 
d="M56 -212l15 57c15 -5 24 -7 41 -7c53 0 77 36 77 92v662c0 93 52 157 146 157c23 0 50 -5 62 -12l-16 -57c-9 5 -26 9 -41 9c-51 0 -77 -37 -77 -94v-661c0 -92 -50 -156 -142 -156c-28 0 -56 6 -65 10z" />
    <glyph glyph-name="approxequal" unicode="&#x2248;" horiz-adv-x="606" 
d="M498 409l36 -50c-45 -65 -79 -86 -125 -86c-79 0 -138 72 -217 72c-35 0 -61 -25 -84 -76l-36 50c28 55 69 86 125 86c78 0 166 -72 213 -72c29 0 55 22 88 76zM498 229l36 -50c-45 -65 -79 -86 -125 -86c-79 0 -138 72 -217 72c-35 0 -61 -25 -84 -76l-36 50
c28 55 69 86 125 86c78 0 166 -72 213 -72c29 0 55 22 88 76z" />
    <glyph glyph-name="notequal" unicode="&#x2260;" horiz-adv-x="606" 
d="M555 118h-301l-83 -118h-81l82 118h-121v68h163l93 134h-256v68h299l82 118h84l-83 -118h122v-68h-165l-94 -134h259v-68z" />
    <glyph glyph-name="lessequal" unicode="&#x2264;" horiz-adv-x="606" 
d="M554 92l-508 230v62l508 230v-68l-425 -193l425 -193v-68zM555 -24h-504v68h504v-68z" />
    <glyph glyph-name="greaterequal" unicode="&#x2265;" horiz-adv-x="606" 
d="M560 322l-508 -230v68l425 193l-425 193v68l508 -230v-62zM555 -24h-504v68h504v-68z" />
    <glyph glyph-name="lozenge" unicode="&#x25ca;" horiz-adv-x="512" 
d="M269 0h-40l-182 349l182 351h40l183 -350zM249 80l141 270l-141 270l-140 -270z" />
    <glyph glyph-name="zero.denominator" unicode="&#xe1e4;" horiz-adv-x="368" 
d="M340 304v-157c0 -101 -70 -154 -156 -154c-87 0 -156 59 -156 148v159c0 95 77 151 156 151c80 0 156 -60 156 -147zM280 138v170c0 48 -36 89 -97 89c-57 0 -95 -40 -95 -89v-170c0 -52 38 -91 95 -91c56 0 97 38 97 91z" />
    <glyph glyph-name="one.denominator" unicode="&#xe1e5;" horiz-adv-x="214" 
d="M149 0h-60v390h-75v54h135v-444z" />
    <glyph glyph-name="two.denominator" unicode="&#xe1e6;" horiz-adv-x="352" 
d="M320 0h-298v49l190 176c33 30 49 60 49 88c0 47 -42 84 -87 84c-57 0 -88 -36 -88 -107h-60v4c0 97 59 157 150 157c82 0 145 -63 145 -139c0 -42 -12 -76 -82 -140l-129 -118h210v-54z" />
    <glyph glyph-name="three.denominator" unicode="&#xe1e7;" horiz-adv-x="348" 
d="M158 224h-21v54h18c60 0 80 28 80 58c0 37 -25 61 -62 61c-36 0 -58 -30 -59 -75h-60c2 80 53 129 121 129c69 0 120 -49 120 -117c0 -37 -14 -59 -41 -80c43 -27 70 -64 70 -115c0 -84 -67 -146 -148 -146c-89 0 -150 61 -152 156h60c0 -63 39 -102 92 -102
c52 0 88 36 88 91c0 37 -30 86 -106 86z" />
    <glyph glyph-name="four.denominator" unicode="&#xe1e8;" horiz-adv-x="385" 
d="M312 0h-59v78h-225v49l219 317h65v-312h41v-54h-41v-78zM253 132v222h-2l-149 -222h151z" />
    <glyph glyph-name="five.denominator" unicode="&#xe1e9;" horiz-adv-x="364" 
d="M305 390h-169l-19 -106c16 11 43 21 75 21c88 0 148 -68 148 -153c0 -89 -64 -159 -156 -159c-78 0 -147 58 -157 146h60c8 -55 49 -92 98 -92c59 0 96 44 96 101c0 59 -40 104 -96 104c-28 0 -63 -11 -87 -43l-47 12l40 223h214v-54z" />
    <glyph glyph-name="six.denominator" unicode="&#xe1ea;" horiz-adv-x="369" 
d="M264 444l-114 -153c13 8 33 12 49 12c80 0 146 -67 146 -152c0 -87 -68 -158 -158 -158c-91 0 -159 71 -159 151c0 48 17 83 37 112l129 188h70zM186 47c57 0 99 44 99 100c0 59 -42 104 -99 104c-56 0 -98 -40 -98 -103c0 -57 41 -101 98 -101z" />
    <glyph glyph-name="seven.denominator" unicode="&#xe1eb;" horiz-adv-x="298" 
d="M98 0h-63l179 390h-209v54h270v-52z" />
    <glyph glyph-name="eight.denominator" unicode="&#xe1ec;" horiz-adv-x="344" 
d="M248 247c44 -23 72 -64 72 -115c0 -78 -65 -139 -148 -139c-84 0 -148 63 -148 140c0 49 28 91 72 114c-28 23 -45 53 -45 89c0 66 56 115 121 115c69 0 121 -52 121 -115c0 -36 -17 -66 -45 -89zM237 335c0 36 -26 63 -66 63c-36 0 -64 -27 -64 -63c0 -39 27 -65 65 -65
c37 0 65 26 65 65zM260 130c0 51 -36 88 -89 88c-51 0 -87 -37 -87 -88c0 -48 39 -83 88 -83c50 0 88 35 88 83z" />
    <glyph glyph-name="nine.denominator" unicode="&#xe1ed;" horiz-adv-x="369" 
d="M175 0h-70l114 153c-12 -8 -33 -12 -49 -12c-79 0 -146 66 -146 152s68 158 158 158c92 0 159 -72 159 -151c0 -54 -22 -90 -36 -111zM182 193c58 0 99 42 99 103c0 56 -39 101 -98 101c-56 0 -99 -44 -99 -100c0 -60 42 -104 98 -104z" />
    <glyph glyph-name="zero.numerator" unicode="&#xe1da;" horiz-adv-x="368" 
d="M340 600v-157c0 -101 -70 -154 -156 -154c-87 0 -156 59 -156 148v159c0 95 77 151 156 151c80 0 156 -60 156 -147zM280 434v170c0 48 -36 89 -97 89c-57 0 -95 -40 -95 -89v-170c0 -52 38 -91 95 -91c56 0 97 38 97 91z" />
    <glyph glyph-name="one.numerator" unicode="&#xe1db;" horiz-adv-x="214" 
d="M149 296h-60v390h-75v54h135v-444z" />
    <glyph glyph-name="two.numerator" unicode="&#xe1dc;" horiz-adv-x="352" 
d="M320 296h-298v49l190 176c33 30 49 60 49 88c0 47 -42 84 -87 84c-57 0 -88 -36 -88 -107h-60v4c0 97 59 157 150 157c82 0 145 -63 145 -139c0 -42 -12 -76 -82 -140l-129 -118h210v-54z" />
    <glyph glyph-name="three.numerator" unicode="&#xe1dd;" horiz-adv-x="348" 
d="M158 520h-21v54h18c60 0 80 28 80 58c0 37 -25 61 -62 61c-36 0 -58 -30 -59 -75h-60c2 80 53 129 121 129c69 0 120 -49 120 -117c0 -37 -14 -59 -41 -80c43 -27 70 -64 70 -115c0 -84 -67 -146 -148 -146c-89 0 -150 61 -152 156h60c0 -63 39 -102 92 -102
c52 0 88 36 88 91c0 37 -30 86 -106 86z" />
    <glyph glyph-name="four.numerator" unicode="&#xe1de;" horiz-adv-x="385" 
d="M312 296h-59v78h-225v49l219 317h65v-312h41v-54h-41v-78zM253 428v222h-2l-149 -222h151z" />
    <glyph glyph-name="five.numerator" unicode="&#xe1df;" horiz-adv-x="364" 
d="M305 686h-169l-19 -106c16 11 43 21 75 21c88 0 148 -68 148 -153c0 -89 -64 -159 -156 -159c-78 0 -147 58 -157 146h60c8 -55 49 -92 98 -92c59 0 96 44 96 101c0 59 -40 104 -96 104c-28 0 -63 -11 -87 -43l-47 12l40 223h214v-54z" />
    <glyph glyph-name="six.numerator" unicode="&#xe1e0;" horiz-adv-x="369" 
d="M264 740l-114 -153c13 8 33 12 49 12c80 0 146 -67 146 -152c0 -87 -68 -158 -158 -158c-91 0 -159 71 -159 151c0 48 17 83 37 112l129 188h70zM186 343c57 0 99 44 99 100c0 59 -42 104 -99 104c-56 0 -98 -40 -98 -103c0 -57 41 -101 98 -101z" />
    <glyph glyph-name="seven.numerator" unicode="&#xe1e1;" horiz-adv-x="298" 
d="M98 296h-63l179 390h-209v54h270v-52z" />
    <glyph glyph-name="eight.numerator" unicode="&#xe1e2;" horiz-adv-x="344" 
d="M248 543c44 -23 72 -64 72 -115c0 -78 -65 -139 -148 -139c-84 0 -148 63 -148 140c0 49 28 91 72 114c-28 23 -45 53 -45 89c0 66 56 115 121 115c69 0 121 -52 121 -115c0 -36 -17 -66 -45 -89zM237 631c0 36 -26 63 -66 63c-36 0 -64 -27 -64 -63c0 -39 27 -65 65 -65
c37 0 65 26 65 65zM260 426c0 51 -36 88 -89 88c-51 0 -87 -37 -87 -88c0 -48 39 -83 88 -83c50 0 88 35 88 83z" />
    <glyph glyph-name="nine.numerator" unicode="&#xe1e3;" horiz-adv-x="369" 
d="M175 296h-70l114 153c-12 -8 -33 -12 -49 -12c-79 0 -146 66 -146 152s68 158 158 158c92 0 159 -72 159 -151c0 -54 -22 -90 -36 -111zM182 489c58 0 99 42 99 103c0 56 -39 101 -98 101c-56 0 -99 -44 -99 -100c0 -60 42 -104 98 -104z" />
    <glyph glyph-name="onethird" unicode="&#x2153;" horiz-adv-x="658" 
d="M149 296h-60v390h-75v54h135v-444zM132 0h-60l333 740h60zM468 223h-21v54h18c60 0 80 28 80 58c0 37 -25 61 -62 61c-36 0 -58 -30 -59 -75h-60c2 80 53 129 121 129c69 0 120 -49 120 -117c0 -37 -14 -59 -41 -80c43 -27 70 -64 70 -115c0 -84 -67 -146 -148 -146
c-89 0 -150 61 -152 156h60c0 -63 39 -102 92 -102c52 0 88 36 88 91c0 37 -30 86 -106 86z" />
    <glyph glyph-name="twothirds" unicode="&#x2154;" horiz-adv-x="806" 
d="M279 0h-60l333 740h60zM330 296h-298v49l190 176c33 30 49 60 49 88c0 47 -42 84 -87 84c-57 0 -88 -36 -88 -107h-60v4c0 97 59 157 150 157c82 0 145 -63 145 -139c0 -42 -12 -76 -82 -140l-129 -118h210v-54zM616 222h-21v54h18c60 0 80 28 80 58c0 37 -25 61 -62 61
c-36 0 -58 -30 -59 -75h-60c2 80 53 129 121 129c69 0 120 -49 120 -117c0 -37 -14 -59 -41 -80c43 -27 70 -64 70 -115c0 -84 -67 -146 -148 -146c-89 0 -150 61 -152 156h60c0 -63 39 -102 92 -102c52 0 88 36 88 91c0 37 -30 86 -106 86z" />
    <glyph glyph-name="A.alt01" unicode="&#xe000;" horiz-adv-x="690" 
d="M614 0h-74v249h-280l-173 -249h-90l516 740h101v-740zM540 316v340h-2l-231 -340h233z" />
    <glyph glyph-name="Aacute.alt01" unicode="&#xe001;" horiz-adv-x="690" 
d="M614 0h-74v249h-280l-173 -249h-90l516 740h101v-740zM540 316v340h-2l-231 -340h233zM713 888l-198 -107l-33 58l199 109z" />
    <glyph glyph-name="Agrave.alt01" unicode="&#xe002;" horiz-adv-x="690" 
d="M614 0h-74v249h-280l-173 -249h-90l516 740h101v-740zM540 316v340h-2l-231 -340h233zM598 781l-198 107l32 60l199 -109z" />
    <glyph glyph-name="Acircumflex.alt01" unicode="&#xe003;" horiz-adv-x="690" 
d="M614 0h-74v249h-280l-173 -249h-90l516 740h101v-740zM540 316v340h-2l-231 -340h233zM730 804h-83l-120 82l-119 -82h-83l176 133h54z" />
    <glyph glyph-name="Adieresis.alt01" unicode="&#xe004;" horiz-adv-x="690" 
d="M614 0h-74v249h-280l-173 -249h-90l516 740h101v-740zM540 316v340h-2l-231 -340h233zM503 805h-72v128h72v-128zM691 805h-72v128h72v-128z" />
    <glyph glyph-name="Atilde.alt01" unicode="&#xe005;" horiz-adv-x="690" 
d="M614 0h-74v249h-280l-173 -249h-90l516 740h101v-740zM540 316v340h-2l-231 -340h233zM694 894l32 -50c-27 -24 -64 -39 -101 -39c-54 0 -118 34 -170 34c-29 0 -55 -10 -76 -30l-32 51c25 24 63 39 100 39c52 0 117 -34 171 -34c28 0 56 9 76 29z" />
    <glyph glyph-name="Aring.alt01" unicode="&#xe006;" horiz-adv-x="690" 
d="M666 864c0 -53 -44 -102 -103 -102s-103 49 -103 102c0 56 47 103 104 103c56 0 102 -47 102 -103zM620 865c0 33 -25 58 -58 58c-31 0 -56 -27 -56 -58s26 -56 57 -56c33 0 57 25 57 56zM614 0h-74v249h-280l-173 -249h-90l516 740h101v-740zM540 316v340h-2l-231 -340
h233z" />
    <glyph glyph-name="A.alt02" unicode="&#xe00a;" horiz-adv-x="690" 
d="M694 0h-91l-172 249h-281v-249h-74v740h102zM384 316l-232 340h-2v-340h234z" />
    <glyph glyph-name="Aacute.alt02" unicode="&#xe00b;" horiz-adv-x="690" 
d="M694 0h-91l-172 249h-281v-249h-74v740h102zM384 316l-232 340h-2v-340h234zM290 888l-198 -107l-33 58l199 109z" />
    <glyph glyph-name="Agrave.alt02" unicode="&#xe00c;" horiz-adv-x="690" 
d="M694 0h-91l-172 249h-281v-249h-74v740h102zM384 316l-232 340h-2v-340h234zM208 781l-198 107l32 60l199 -109z" />
    <glyph glyph-name="Acircumflex.alt02" unicode="&#xe00d;" horiz-adv-x="690" 
d="M694 0h-91l-172 249h-281v-249h-74v740h102zM384 316l-232 340h-2v-340h234zM358 804h-83l-120 82l-119 -82h-83l176 133h54z" />
    <glyph glyph-name="Adieresis.alt02" unicode="&#xe00e;" horiz-adv-x="690" 
d="M694 0h-91l-172 249h-281v-249h-74v740h102zM384 316l-232 340h-2v-340h234zM68 805h-72v128h72v-128zM256 805h-72v128h72v-128z" />
    <glyph glyph-name="Atilde.alt02" unicode="&#xe00f;" horiz-adv-x="690" 
d="M694 0h-91l-172 249h-281v-249h-74v740h102zM384 316l-232 340h-2v-340h234zM294 894l32 -50c-27 -24 -64 -39 -101 -39c-54 0 -118 34 -170 34c-29 0 -55 -10 -76 -30l-32 51c25 24 63 39 100 39c52 0 117 -34 171 -34c28 0 56 9 76 29z" />
    <glyph glyph-name="Aring.alt02" unicode="&#xe010;" horiz-adv-x="690" 
d="M229 864c0 -53 -44 -102 -103 -102s-103 49 -103 102c0 56 47 103 104 103c56 0 102 -47 102 -103zM183 865c0 33 -25 58 -58 58c-29 0 -56 -26 -56 -58c0 -31 26 -56 57 -56c33 0 57 25 57 56zM694 0h-91l-172 249h-281v-249h-74v740h102zM384 316l-232 340h-2v-340h234
z" />
    <glyph glyph-name="A.alt03" unicode="&#xe014;" horiz-adv-x="895" 
d="M819 0h-74v136h-2c-71 -97 -181 -149 -309 -149c-223 0 -391 171 -391 379c0 227 175 387 381 387c132 0 243 -50 319 -149h2v136h74v-740zM752 369c0 173 -140 317 -319 317c-172 0 -316 -133 -316 -320c0 -167 136 -312 317 -312c178 0 318 142 318 315z" />
    <glyph glyph-name="Aacute.alt03" unicode="&#xe015;" horiz-adv-x="895" 
d="M819 0h-74v136h-2c-71 -97 -181 -149 -309 -149c-223 0 -391 171 -391 379c0 227 175 387 381 387c132 0 243 -50 319 -149h2v136h74v-740zM752 369c0 173 -140 317 -319 317c-172 0 -316 -133 -316 -320c0 -167 136 -312 317 -312c178 0 318 142 318 315zM595 888
l-198 -107l-33 58l199 109z" />
    <glyph glyph-name="Agrave.alt03" unicode="&#xe016;" horiz-adv-x="895" 
d="M819 0h-74v136h-2c-71 -97 -181 -149 -309 -149c-223 0 -391 171 -391 379c0 227 175 387 381 387c132 0 243 -50 319 -149h2v136h74v-740zM752 369c0 173 -140 317 -319 317c-172 0 -316 -133 -316 -320c0 -167 136 -312 317 -312c178 0 318 142 318 315zM473 781
l-198 107l32 60l199 -109z" />
    <glyph glyph-name="Acircumflex.alt03" unicode="&#xe017;" horiz-adv-x="895" 
d="M819 0h-74v136h-2c-71 -97 -181 -149 -309 -149c-223 0 -391 171 -391 379c0 227 175 387 381 387c132 0 243 -50 319 -149h2v136h74v-740zM752 369c0 173 -140 317 -319 317c-172 0 -316 -133 -316 -320c0 -167 136 -312 317 -312c178 0 318 142 318 315zM636 794h-83
l-120 82l-119 -82h-83l176 133h54z" />
    <glyph glyph-name="Adieresis.alt03" unicode="&#xe018;" horiz-adv-x="895" 
d="M819 0h-74v136h-2c-71 -97 -181 -149 -309 -149c-223 0 -391 171 -391 379c0 227 175 387 381 387c132 0 243 -50 319 -149h2v136h74v-740zM752 369c0 173 -140 317 -319 317c-172 0 -316 -133 -316 -320c0 -167 136 -312 317 -312c178 0 318 142 318 315zM366 805h-72
v128h72v-128zM554 805h-72v128h72v-128z" />
    <glyph glyph-name="Atilde.alt03" unicode="&#xe019;" horiz-adv-x="895" 
d="M819 0h-74v136h-2c-71 -97 -181 -149 -309 -149c-223 0 -391 171 -391 379c0 227 175 387 381 387c132 0 243 -50 319 -149h2v136h74v-740zM752 369c0 173 -140 317 -319 317c-172 0 -316 -133 -316 -320c0 -167 136 -312 317 -312c178 0 318 142 318 315zM590 894
l32 -50c-27 -24 -64 -39 -101 -39c-54 0 -118 34 -170 34c-29 0 -55 -10 -76 -30l-32 51c25 24 63 39 100 39c52 0 117 -34 171 -34c28 0 56 9 76 29z" />
    <glyph glyph-name="Aring.alt03" unicode="&#xe01a;" horiz-adv-x="895" 
d="M819 0h-74v136h-2c-71 -97 -181 -149 -309 -149c-223 0 -391 171 -391 379c0 227 175 387 381 387c132 0 243 -50 319 -149h2v136h74v-740zM752 369c0 173 -140 317 -319 317c-172 0 -316 -133 -316 -320c0 -167 136 -312 317 -312c178 0 318 142 318 315zM539 884
c0 -53 -44 -102 -103 -102s-103 49 -103 102c0 56 48 103 104 103s102 -46 102 -103zM493 885c0 32 -25 58 -58 58c-31 0 -56 -27 -56 -58s26 -56 57 -56c32 0 57 25 57 56z" />
    <glyph glyph-name="C.alt01" unicode="&#xe01e;" horiz-adv-x="665" 
d="M612 104v-79c-49 -25 -115 -38 -187 -38c-225 0 -382 166 -382 385c0 225 170 382 383 382c61 0 156 -19 186 -41v-80c-31 24 -124 53 -186 53c-174 0 -309 -136 -309 -315c0 -177 133 -317 309 -317c65 0 133 19 186 50z" />
    <glyph glyph-name="Ccedilla.alt01" unicode="&#xe01f;" horiz-adv-x="665" 
d="M612 104v-79c-47 -24 -109 -38 -192 -38c-7 0 -13 0 -22 1l-19 -46c13 5 19 7 32 7c45 0 78 -36 78 -83c0 -49 -38 -88 -86 -88c-43 0 -76 23 -88 71l42 5c5 -25 25 -39 46 -39c29 0 45 24 45 51c0 31 -18 48 -45 48c-19 0 -32 -5 -45 -22l-37 18l36 82
c-192 32 -314 188 -314 380c0 225 170 382 383 382c61 0 156 -19 186 -41v-80c-31 24 -124 53 -186 53c-174 0 -309 -136 -309 -315c0 -177 133 -317 309 -317c65 0 133 19 186 50z" />
    <glyph glyph-name="E.alt01" unicode="&#xe024;" horiz-adv-x="665" 
d="M612 104v-79c-49 -25 -115 -38 -187 -38c-230 0 -382 163 -382 385c0 212 159 382 380 382c70 0 159 -20 189 -41v-80c-44 33 -112 53 -185 53c-164 0 -290 -110 -308 -279h482v-68h-483c18 -172 142 -285 308 -285c69 0 130 17 186 50z" />
    <glyph glyph-name="Eacute.alt01" unicode="&#xe025;" horiz-adv-x="665" 
d="M612 104v-79c-49 -25 -115 -38 -187 -38c-230 0 -382 163 -382 385c0 212 159 382 380 382c70 0 159 -20 189 -41v-80c-44 33 -112 53 -185 53c-164 0 -290 -110 -308 -279h482v-68h-483c18 -172 142 -285 308 -285c69 0 130 17 186 50zM528 888l-198 -107l-33 58
l199 109z" />
    <glyph glyph-name="Egrave.alt01" unicode="&#xe026;" horiz-adv-x="665" 
d="M612 104v-79c-49 -25 -115 -38 -187 -38c-230 0 -382 163 -382 385c0 212 159 382 380 382c70 0 159 -20 189 -41v-80c-44 33 -112 53 -185 53c-164 0 -290 -110 -308 -279h482v-68h-483c18 -172 142 -285 308 -285c69 0 130 17 186 50zM440 781l-198 107l32 60l199 -109
z" />
    <glyph glyph-name="Ecircumflex.alt01" unicode="&#xe027;" horiz-adv-x="665" 
d="M612 104v-79c-49 -25 -115 -38 -187 -38c-230 0 -382 163 -382 385c0 212 159 382 380 382c70 0 159 -20 189 -41v-80c-44 33 -112 53 -185 53c-164 0 -290 -110 -308 -279h482v-68h-483c18 -172 142 -285 308 -285c69 0 130 17 186 50zM603 804h-83l-120 82l-119 -82
h-83l176 133h54z" />
    <glyph glyph-name="Edieresis.alt01" unicode="&#xe028;" horiz-adv-x="665" 
d="M612 104v-79c-49 -25 -115 -38 -187 -38c-230 0 -382 163 -382 385c0 212 159 382 380 382c70 0 159 -20 189 -41v-80c-44 33 -112 53 -185 53c-164 0 -290 -110 -308 -279h482v-68h-483c18 -172 142 -285 308 -285c69 0 130 17 186 50zM349 805h-72v128h72v-128z
M537 805h-72v128h72v-128z" />
    <glyph glyph-name="E.alt02" unicode="&#xe02e;" horiz-adv-x="855" 
d="M716 224h80c-65 -148 -208 -237 -362 -237c-223 0 -391 171 -391 383s177 383 391 383c211 0 392 -167 392 -387c0 -13 -1 -26 -2 -31h-705c18 -162 150 -280 315 -280c117 0 221 60 282 169zM119 402h631c-17 163 -159 284 -317 284c-162 0 -298 -128 -314 -284z" />
    <glyph glyph-name="Eacute.alt02" unicode="&#xe02f;" horiz-adv-x="855" 
d="M716 224h80c-65 -148 -208 -237 -362 -237c-223 0 -391 171 -391 383s177 383 391 383c211 0 392 -167 392 -387c0 -13 -1 -26 -2 -31h-705c18 -162 150 -280 315 -280c117 0 221 60 282 169zM119 402h631c-17 163 -159 284 -317 284c-162 0 -298 -128 -314 -284z
M569 888l-198 -107l-33 58l199 109z" />
    <glyph glyph-name="Egrave.alt02" unicode="&#xe030;" horiz-adv-x="855" 
d="M716 224h80c-65 -148 -208 -237 -362 -237c-223 0 -391 171 -391 383s177 383 391 383c211 0 392 -167 392 -387c0 -13 -1 -26 -2 -31h-705c18 -162 150 -280 315 -280c117 0 221 60 282 169zM119 402h631c-17 163 -159 284 -317 284c-162 0 -298 -128 -314 -284z
M471 781l-198 107l32 60l199 -109z" />
    <glyph glyph-name="Ecircumflex.alt02" unicode="&#xe031;" horiz-adv-x="855" 
d="M716 224h80c-65 -148 -208 -237 -362 -237c-223 0 -391 171 -391 383s177 383 391 383c211 0 392 -167 392 -387c0 -13 -1 -26 -2 -31h-705c18 -162 150 -280 315 -280c117 0 221 60 282 169zM119 402h631c-17 163 -159 284 -317 284c-162 0 -298 -128 -314 -284z
M638 804h-83l-120 82l-119 -82h-83l176 133h54z" />
    <glyph glyph-name="Edieresis.alt02" unicode="&#xe032;" horiz-adv-x="855" 
d="M716 224h80c-65 -148 -208 -237 -362 -237c-223 0 -391 171 -391 383s177 383 391 383c211 0 392 -167 392 -387c0 -13 -1 -26 -2 -31h-705c18 -162 150 -280 315 -280c117 0 221 60 282 169zM119 402h631c-17 163 -159 284 -317 284c-162 0 -298 -128 -314 -284z
M373 805h-72v128h72v-128zM561 805h-72v128h72v-128z" />
    <glyph glyph-name="K.alt01" unicode="&#xe038;" horiz-adv-x="586" 
d="M586 0h-93l-247 321l-96 -118v-203h-74v740h74v-425h2l339 425h95l-293 -361z" />
    <glyph glyph-name="K.alt02" unicode="&#xe03a;" horiz-adv-x="569" 
d="M150 0h-74v740h74v-740zM569 0h-92l-288 376l283 364h90l-286 -363z" />
    <glyph glyph-name="M.alt01" unicode="&#xe03c;" horiz-adv-x="1228" 
d="M1152 0h-74v660h-2l-465 -660h-65v664h-2l-450 -664h-93l513 740h106v-604h2l428 604h102v-740z" />
    <glyph glyph-name="M.alt02" unicode="&#xe03d;" horiz-adv-x="1227" 
d="M1226 0h-93l-450 664h-2v-664h-65l-465 660h-2v-660h-74v740h102l428 -604h2v604h106z" />
    <glyph glyph-name="M.alt03" unicode="&#xe03e;" horiz-adv-x="1144" 
d="M1073 0h-74v459c0 152 -62 227 -187 227c-131 0 -200 -98 -200 -228v-458h-74v459c0 152 -61 227 -188 227c-130 0 -200 -98 -200 -228v-458h-74v740h73v-97h3c39 69 112 111 208 111c107 0 188 -52 219 -144h2c44 99 120 144 233 144c170 0 259 -111 259 -290v-464z" />
    <glyph glyph-name="N.alt01" unicode="&#xe03f;" horiz-adv-x="708" 
d="M637 0h-74v459c0 144 -70 227 -201 227c-130 0 -212 -98 -212 -228v-458h-74v740h73v-98h3c44 76 119 112 218 112c165 0 267 -112 267 -283v-471z" />
    <glyph glyph-name="Ntilde.alt01" unicode="&#xe040;" horiz-adv-x="708" 
d="M637 0h-74v459c0 144 -70 227 -201 227c-130 0 -212 -98 -212 -228v-458h-74v740h73v-98h3c44 76 119 112 218 112c165 0 267 -112 267 -283v-471zM514 891l32 -50c-27 -24 -64 -39 -101 -39c-54 0 -118 34 -170 34c-29 0 -55 -10 -76 -30l-32 51c25 24 63 39 100 39
c52 0 117 -34 171 -34c28 0 56 9 76 29z" />
    <glyph glyph-name="U.alt01" unicode="&#xe044;" horiz-adv-x="708" 
d="M632 0h-73v97h-3c-40 -69 -120 -111 -221 -111c-184 0 -264 134 -264 290v464h74v-459c0 -143 70 -227 201 -227c134 0 212 102 212 229v457h74v-740z" />
    <glyph glyph-name="Uacute.alt01" unicode="&#xe045;" horiz-adv-x="708" 
d="M632 0h-73v97h-3c-40 -69 -120 -111 -221 -111c-184 0 -264 134 -264 290v464h74v-459c0 -143 70 -227 201 -227c134 0 212 102 212 229v457h74v-740zM518 888l-198 -107l-33 58l199 109z" />
    <glyph glyph-name="Ugrave.alt01" unicode="&#xe046;" horiz-adv-x="708" 
d="M632 0h-73v97h-3c-40 -69 -120 -111 -221 -111c-184 0 -264 134 -264 290v464h74v-459c0 -143 70 -227 201 -227c134 0 212 102 212 229v457h74v-740zM387 781l-198 107l32 60l199 -109z" />
    <glyph glyph-name="Ucircumflex.alt01" unicode="&#xe047;" horiz-adv-x="708" 
d="M632 0h-73v97h-3c-40 -69 -120 -111 -221 -111c-184 0 -264 134 -264 290v464h74v-459c0 -143 70 -227 201 -227c134 0 212 102 212 229v457h74v-740zM552 804h-83l-120 82l-119 -82h-83l176 133h54z" />
    <glyph glyph-name="Udieresis.alt01" unicode="&#xe048;" horiz-adv-x="708" 
d="M632 0h-73v97h-3c-40 -69 -120 -111 -221 -111c-184 0 -264 134 -264 290v464h74v-459c0 -143 70 -227 201 -227c134 0 212 102 212 229v457h74v-740zM298 805h-72v128h72v-128zM486 805h-72v128h72v-128z" />
    <glyph glyph-name="V.alt02" unicode="&#xe04f;" horiz-adv-x="653" 
d="M169 0h-93v740h74v-642h2l443 642h92z" />
    <glyph glyph-name="V.alt01" unicode="&#xe050;" horiz-adv-x="653" 
d="M577 0h-93l-518 740h92l443 -642h2v642h74v-740z" />
    <glyph glyph-name="W.alt02" unicode="&#xe051;" horiz-adv-x="1159" 
d="M677 0h-95v609h-2l-411 -609h-93v740h74v-644h2l433 644h71v-644h2l443 644h92z" />
    <glyph glyph-name="W.alt01" unicode="&#xe056;" horiz-adv-x="1160" 
d="M1084 0h-94l-410 609h-2v-609h-96l-516 740h92l444 -644h2v644h71l433 -644h2v644h74v-740z" />
    <glyph glyph-name="c.alt01" unicode="&#xe05b;" horiz-adv-x="526" 
d="M468 89v-73c-29 -17 -73 -29 -144 -29c-164 0 -283 126 -283 286c0 159 119 288 284 288c63 0 112 -15 143 -31v-75c-43 31 -89 43 -142 43c-126 0 -214 -103 -214 -225c0 -121 88 -223 215 -223c69 0 113 18 141 39z" />
    <glyph glyph-name="ccedilla.alt01" unicode="&#xe05c;" horiz-adv-x="526" 
d="M275 -108l-37 18l36 81c-142 25 -233 141 -233 282c0 158 116 288 284 288c63 0 112 -15 143 -31v-75c-43 31 -89 43 -142 43c-126 0 -214 -103 -214 -225c0 -121 87 -223 215 -223c69 0 113 18 141 39v-73c-28 -16 -68 -29 -147 -29h-6l-19 -45c13 5 19 7 32 7
c45 0 78 -36 78 -83c0 -49 -38 -88 -86 -88c-43 0 -76 23 -88 71l42 5c5 -25 25 -39 46 -39c29 0 45 24 45 51c0 31 -18 48 -45 48c-19 0 -32 -5 -45 -22z" />
    <glyph glyph-name="e.alt01" unicode="&#xe061;" horiz-adv-x="595" 
d="M514 145v-86c-44 -43 -116 -72 -195 -72c-153 0 -281 122 -281 286c0 159 131 288 282 288c101 0 192 -53 244 -136l-379 -324c41 -36 93 -51 136 -51c72 0 128 26 193 95zM144 148l332 285c-31 36 -96 65 -157 65c-112 0 -210 -94 -210 -222c0 -55 12 -92 35 -128z" />
    <glyph glyph-name="eacute.alt01" unicode="&#xe062;" horiz-adv-x="595" 
d="M514 145v-86c-44 -43 -116 -72 -195 -72c-153 0 -281 122 -281 286c0 159 131 288 282 288c101 0 192 -53 244 -136l-379 -324c41 -36 93 -51 136 -51c72 0 128 26 193 95zM144 148l332 285c-31 36 -96 65 -157 65c-112 0 -210 -94 -210 -222c0 -55 12 -92 35 -128z
M431 706l-198 -107l-33 58l199 109z" />
    <glyph glyph-name="egrave.alt01" unicode="&#xe063;" horiz-adv-x="595" 
d="M514 145v-86c-44 -43 -116 -72 -195 -72c-153 0 -281 122 -281 286c0 159 131 288 282 288c101 0 192 -53 244 -136l-379 -324c41 -36 93 -51 136 -51c72 0 128 26 193 95zM144 148l332 285c-31 36 -96 65 -157 65c-112 0 -210 -94 -210 -222c0 -55 12 -92 35 -128z
M357 599l-198 107l32 60l199 -109z" />
    <glyph glyph-name="ecircumflex.alt01" unicode="&#xe064;" horiz-adv-x="595" 
d="M514 145v-86c-44 -43 -116 -72 -195 -72c-153 0 -281 122 -281 286c0 159 131 288 282 288c101 0 192 -53 244 -136l-379 -324c41 -36 93 -51 136 -51c72 0 128 26 193 95zM144 148l332 285c-31 36 -96 65 -157 65c-112 0 -210 -94 -210 -222c0 -55 12 -92 35 -128z
M510 619h-83l-120 82l-119 -82h-83l176 133h54z" />
    <glyph glyph-name="edieresis.alt01" unicode="&#xe065;" horiz-adv-x="595" 
d="M514 145v-86c-44 -43 -116 -72 -195 -72c-153 0 -281 122 -281 286c0 159 131 288 282 288c101 0 192 -53 244 -136l-379 -324c41 -36 93 -51 136 -51c72 0 128 26 193 95zM144 148l332 285c-31 36 -96 65 -157 65c-112 0 -210 -94 -210 -222c0 -55 12 -92 35 -128z
M248 620h-72v128h72v-128zM436 620h-72v128h72v-128z" />
    <glyph glyph-name="f.alt01" unicode="&#xe06b;" horiz-adv-x="239" 
d="M174 0h-70v484h-85v63h85v8c0 146 84 198 210 198v-65h-3c-80 0 -137 -32 -137 -123v-565z" />
    <glyph glyph-name="f.alt02" unicode="&#xe06c;" horiz-adv-x="275" 
d="M135 0h-70v561c0 142 89 192 210 192v-65c-90 0 -140 -34 -140 -129v-12h140v-63h-140v-484z" />
    <glyph glyph-name="k.alt01" unicode="&#xe06d;" horiz-adv-x="502" 
d="M498 0h-90l-180 216l-88 -112v-104h-70v740h70v-527h2l255 334h90l-216 -276z" />
    <glyph glyph-name="k.alt02" unicode="&#xe06f;" horiz-adv-x="486" 
d="M140 0h-70v740h70v-740zM482 0h-92l-248 274l224 273h87l-228 -269z" />
    <glyph glyph-name="t.alt01" unicode="&#xe071;" horiz-adv-x="264" 
d="M199 0h-70v484h-115v63h115v193h70v-740z" />
    <glyph glyph-name="t.alt02" unicode="&#xe075;" horiz-adv-x="275" 
d="M135 0h-70v740h70v-193h131v-63h-131v-484z" />
    <glyph glyph-name="v.alt02" unicode="&#xe079;" horiz-adv-x="521" 
d="M165 0h-100v547h70v-467h2l322 467h84z" />
    <glyph glyph-name="v.alt01" unicode="&#xe07a;" horiz-adv-x="521" 
d="M456 0h-100l-378 547h84l322 -467h2v467h70v-547z" />
    <glyph glyph-name="w.alt02" unicode="&#xe07b;" horiz-adv-x="897" 
d="M538 0h-88v429h-3l-295 -429h-87v547h70v-455h2l313 455h70v-450h2l314 450h83z" />
    <glyph glyph-name="w.alt01" unicode="&#xe080;" horiz-adv-x="897" 
d="M832 0h-87l-295 429h-3v-429h-88l-381 547h83l314 -450h2v450h70l313 -455h2v455h70v-547z" />
    <glyph glyph-name="y.alt01" unicode="&#xe085;" horiz-adv-x="529" 
d="M35 -192h-84l114 162v577h70v-475h4l327 475h84z" />
    <glyph glyph-name="yacute.alt01" unicode="&#xe086;" horiz-adv-x="529" 
d="M35 -192h-84l114 162v577h70v-475h4l327 475h84zM487 706l-198 -107l-33 58l199 109z" />
    <glyph glyph-name="ydieresis.alt01" unicode="&#xe087;" horiz-adv-x="529" 
d="M35 -192h-84l114 162v577h70v-475h4l327 475h84zM244 620h-72v128h72v-128zM432 620h-72v128h72v-128z" />
    <glyph glyph-name="C_A" unicode="&#xe08a;" horiz-adv-x="1037" 
d="M961 0h-74v286h-254l-158 -227c97 10 181 62 246 162h82c-81 -157 -213 -235 -378 -235c-206 0 -382 166 -382 386s175 382 383 382c97 0 196 -31 276 -102l-43 -57c-76 65 -145 91 -232 91c-169 0 -310 -135 -310 -315c0 -157 110 -294 267 -314l476 683h101v-740z
M887 353v303h-2l-206 -303h208z" />
    <glyph glyph-name="C_O.alt01" unicode="&#xe0a1;" horiz-adv-x="801" 
d="M687 194h84c-69 -128 -203 -207 -346 -207c-209 0 -382 171 -382 385c0 220 183 380 383 380c144 0 279 -77 343 -202h-84c-53 81 -154 135 -260 135c-173 0 -308 -149 -308 -315c0 -173 141 -316 308 -316c108 0 202 55 262 140zM427 117c-141 0 -248 115 -248 254
c0 142 110 254 247 254c140 0 248 -115 248 -254c0 -141 -108 -254 -247 -254zM426 188c99 0 174 80 174 182c0 101 -73 183 -175 183c-101 0 -172 -80 -172 -182c0 -104 74 -183 173 -183z" />
    <glyph glyph-name="C_O" unicode="&#xe0a2;" horiz-adv-x="1217" 
d="M604 30c-57 -29 -118 -43 -174 -43c-210 0 -387 167 -387 382c0 218 175 383 386 383c68 0 126 -17 175 -42c56 28 118 43 178 43c209 0 392 -166 392 -383c0 -211 -178 -383 -392 -383c-63 0 -122 15 -178 43zM688 194h83c-28 -50 -60 -88 -99 -120
c35 -13 71 -20 110 -20c172 0 318 141 318 315c0 171 -139 317 -319 317c-37 0 -73 -7 -108 -20c49 -40 82 -84 95 -116h-83c-24 36 -52 61 -80 81c-88 -60 -140 -158 -140 -265c0 -99 50 -195 138 -256c29 20 57 47 85 84zM536 74c-93 75 -145 181 -145 292
c0 117 48 224 144 300c-43 16 -82 19 -109 19c-164 0 -309 -146 -309 -317c0 -162 142 -314 312 -314c40 0 79 8 107 20z" />
    <glyph glyph-name="D_E" unicode="&#xe0ba;" horiz-adv-x="1153" 
d="M1092 0h-405v264h-2c-52 -167 -191 -264 -388 -264h-221v740h221c192 0 338 -95 388 -267h2v267h405v-67h-331v-266h320v-67h-320v-273h331v-67zM150 67h137c123 0 205 33 259 90c56 60 81 136 81 213c0 96 -39 180 -117 240c-52 40 -131 63 -226 63h-134v-606z" />
    <glyph glyph-name="D_I" unicode="&#xe0c8;" horiz-adv-x="837" 
d="M761 0h-74v264h-2c-52 -167 -191 -264 -388 -264h-221v740h221c192 0 338 -95 388 -267h2v267h74v-740zM150 67h137c123 0 205 33 259 90c56 60 81 136 81 213c0 96 -39 180 -117 240c-52 40 -131 63 -226 63h-134v-606z" />
    <glyph glyph-name="E_A" unicode="&#xe0d5;" horiz-adv-x="943" 
d="M867 0h-74v249h-280l-126 -182h193v-67h-504v740h384v-67h-310v-266h310v-67h-310v-273h147l468 673h102v-740zM793 316v340h-2l-231 -340h233z" />
    <glyph glyph-name="F_A" unicode="&#xe0de;" horiz-adv-x="908" 
d="M832 0h-74v285h-255l-198 -285h-90l199 285h-264v-285h-74v740h369v-67h-295v-321h311l270 388h101v-740zM758 352v304h-2l-206 -304h208z" />
    <glyph glyph-name="F_R" unicode="&#xe0e7;" horiz-adv-x="673" 
d="M606 0h-89l-177 245h77c93 0 159 58 159 137c0 74 -46 151 -172 151h-99v-122h148v-61h-148v-350h-74v350h-81v-350h-74v740h379v-67h-305v-262h81v190h169c185 0 248 -112 248 -216c0 -107 -62 -175 -187 -193z" />
    <glyph glyph-name="G_A" unicode="&#xe0e9;" horiz-adv-x="1025" 
d="M949 0h-74v656h-2l-210 -309h151c-12 -201 -177 -361 -384 -361c-214 0 -387 162 -387 383c0 218 170 385 381 385c100 0 205 -44 280 -117l-43 -59c-72 75 -150 108 -235 108c-172 0 -309 -142 -309 -317c0 -153 98 -282 256 -311l154 221h-223v68h270l274 393h101v-740
zM726 279h-110l-156 -224c111 6 238 107 266 224z" />
    <glyph glyph-name="G_O" unicode="&#xe0fc;" horiz-adv-x="1235" 
d="M619 31c-57 -29 -121 -44 -182 -44c-208 0 -397 167 -397 383c0 206 175 383 394 383c71 0 135 -17 186 -44c56 29 117 44 180 44c209 0 392 -166 392 -383c0 -212 -178 -383 -392 -383c-65 0 -125 16 -181 44zM421 273h-95v67h84c-1 5 -1 11 -1 14c0 155 65 246 142 311
c-33 13 -72 21 -115 21c-179 0 -322 -147 -322 -317c0 -169 142 -315 326 -315c41 0 77 8 113 21c-64 52 -111 119 -132 198zM786 543h-86c-19 32 -45 61 -81 86c-83 -60 -136 -147 -136 -271c0 -6 0 -13 1 -18h344c-8 -101 -54 -196 -141 -265c36 -13 74 -21 113 -21
c170 0 318 139 318 315c0 169 -139 317 -319 317c-37 0 -76 -6 -111 -21c52 -41 85 -87 98 -122zM739 273h-241c23 -67 64 -122 122 -162c59 40 103 99 119 162z" />
    <glyph glyph-name="H_T" unicode="&#xe10c;" horiz-adv-x="892" 
d="M562 0h-74v347h-338v-347h-74v740h74v-326h338v259h-191v67h265v-740zM701 0h-74v740h258v-67h-184v-673z" />
    <glyph glyph-name="I_C" unicode="&#xe10e;" horiz-adv-x="910" 
d="M785 194h83c-68 -128 -204 -207 -341 -207c-173 0 -329 112 -375 287h-2v-274h-74v740h74v-272h2c45 172 199 284 374 284c161 0 292 -100 339 -202h-83c-56 86 -158 135 -258 135c-165 0 -310 -146 -310 -317c0 -169 148 -314 311 -314c100 0 189 47 260 140z" />
    <glyph glyph-name="K_A" unicode="&#xe124;" horiz-adv-x="898" 
d="M150 0h-74v740h74v-740zM822 0h-74v249h-290l-35 -49l154 -200h-91l-107 137l-97 -137h-90l143 200l-137 176l251 364h90l-255 -363l92 -119l345 482h101v-740zM748 316v340h-2l-240 -340h242z" />
    <glyph glyph-name="L_A" unicode="&#xe130;" horiz-adv-x="771" 
d="M695 0h-74v249h-280l-126 -182h262v-67h-401v740h74v-634h2l442 634h101v-740zM621 316v340h-2l-231 -340h233z" />
    <glyph glyph-name="L_A.alt01" unicode="&#xe141;" horiz-adv-x="802" 
d="M726 0h-74v249h-280l-126 -182h215v-67h-385v740h74v-673h6l469 673h101v-740zM652 316v340h-2l-231 -340h233z" />
    <glyph glyph-name="L_L" unicode="&#xe152;" horiz-adv-x="505" 
d="M470 0h-394v740h74v-673h320v-67zM470 120h-260v620h74v-553h186v-67z" />
    <glyph glyph-name="N_T" unicode="&#xe153;" horiz-adv-x="972" 
d="M656 0h-79l-425 633h-2v-633h-74v740h86l418 -623h2v556h-177v67h251v-740zM791 0h-74v740h248v-67h-174v-673z" />
    <glyph glyph-name="O_C" unicode="&#xe15b;" horiz-adv-x="1164" 
d="M1039 194h83c-68 -127 -202 -207 -341 -207c-61 0 -120 13 -173 40c-55 -27 -114 -40 -174 -40c-205 0 -391 166 -391 380c0 216 178 386 392 386c60 0 120 -15 173 -40c53 24 109 39 172 39c159 0 292 -99 339 -202h-83c-62 92 -163 135 -258 135c-33 0 -66 -5 -98 -17
c96 -77 146 -185 146 -298c0 -117 -52 -222 -147 -298c33 -12 67 -18 100 -18c100 0 189 47 260 140zM538 72c-92 72 -144 181 -144 297c0 119 52 227 143 300c-32 11 -67 17 -104 17c-167 0 -316 -139 -316 -320c0 -167 142 -312 317 -312c36 0 71 6 104 18zM610 632
c-87 -59 -142 -160 -142 -264c0 -103 54 -200 143 -260c89 61 141 157 141 261c0 107 -53 203 -142 263z" />
    <glyph glyph-name="O_O" unicode="&#xe170;" horiz-adv-x="1220" 
d="M610 29c-55 -28 -115 -42 -176 -42c-205 0 -391 166 -391 380c0 217 178 386 391 386c61 0 120 -14 176 -41c55 25 115 41 175 41c210 0 392 -167 392 -383c0 -211 -178 -383 -392 -383c-61 0 -120 14 -175 42zM541 73c-93 73 -147 181 -147 293c0 121 51 227 146 302
c-32 12 -67 18 -107 18c-167 0 -316 -139 -316 -320c0 -164 140 -312 317 -312c37 0 72 7 107 19zM681 72c33 -12 67 -18 104 -18c175 0 318 144 318 315c0 168 -138 317 -319 317c-35 0 -71 -6 -104 -18c97 -79 146 -185 146 -298c0 -115 -50 -220 -145 -298zM610 632
c-92 -62 -142 -162 -142 -266c0 -99 49 -195 142 -259c91 61 142 158 142 262s-53 202 -142 263z" />
    <glyph glyph-name="P_P" unicode="&#xe172;" horiz-adv-x="671" 
d="M297 0h-74v301h-73v-301h-74v740h176c113 0 206 -40 245 -147c86 -29 146 -101 146 -199c0 -113 -77 -209 -262 -209h-84v-185zM223 369v236h154c7 0 24 -1 36 -2c-24 43 -75 70 -158 70h-105v-304h73zM437 538h-140v-166c85 6 141 62 141 149c0 5 0 14 -1 17zM297 252
h94c108 0 180 54 180 146c0 43 -25 90 -64 114c0 -117 -84 -201 -210 -209v-51z" />
    <glyph glyph-name="P_R" unicode="&#xe173;" horiz-adv-x="688" 
d="M609 0h-88l-185 262h73c115 0 162 63 162 145c0 70 -51 100 -64 108c1 -3 1 -9 1 -17c0 -106 -100 -191 -211 -195v-303h-74v301h-73v-301h-74v740h176c113 0 206 -40 245 -147c92 -26 146 -105 146 -189c0 -107 -74 -185 -186 -195zM223 370v235h133c25 0 49 -1 57 -2
c-24 43 -75 70 -158 70h-105v-303h73zM437 538h-140v-165c85 6 141 61 141 148c0 5 0 14 -1 17z" />
    <glyph glyph-name="R_A" unicode="&#xe174;" horiz-adv-x="1003" 
d="M853 300v356h-2l-242 -356h244zM927 0h-74v233h-291l-82 -118l87 -115h-93l-38 51l-36 -51h-90l79 113l-166 222h58c140 0 207 79 207 168c0 65 -37 170 -209 170h-129v-673h-74v740h208c207 0 278 -129 278 -239c0 -120 -91 -214 -206 -224l77 -101l393 564h101v-740z
" />
    <glyph glyph-name="S_S" unicode="&#xe185;" horiz-adv-x="777" 
d="M737 562h-73c-5 76 -57 124 -130 124c-74 0 -124 -59 -124 -128c0 -68 38 -112 135 -137c158 -40 207 -110 207 -218c0 -121 -89 -217 -219 -217c-57 0 -110 22 -146 54c-37 -35 -86 -54 -143 -54c-117 0 -220 86 -222 219h74c8 -95 64 -151 147 -151
c81 0 140 59 140 148c0 47 -3 121 -146 151c-120 25 -192 84 -192 205c0 109 84 195 200 195c63 0 114 -22 147 -58c35 37 83 58 143 58c115 0 194 -75 202 -191zM431 95c29 -29 67 -41 102 -41c84 0 145 61 145 148c0 75 -27 125 -163 159c-120 30 -179 92 -179 196
c0 28 5 53 15 76c-23 32 -59 53 -108 53c-72 0 -124 -58 -124 -128c0 -64 20 -112 133 -143c115 -31 205 -73 205 -212c0 -41 -9 -77 -26 -108z" />
    <glyph glyph-name="S_T" unicode="&#xe186;" horiz-adv-x="814" 
d="M640 0h-74v673h-150c24 -33 37 -74 37 -122h-74c-1 83 -52 135 -130 135c-75 0 -130 -60 -130 -128c0 -65 43 -103 108 -124c120 -38 235 -78 235 -231c0 -125 -93 -217 -217 -217c-118 0 -221 86 -223 219h74c11 -89 72 -151 148 -151c82 0 144 59 144 148
c0 31 0 104 -131 143c-105 31 -212 70 -212 214c0 108 88 194 205 194c60 0 112 -22 148 -58v45h409v-67h-167v-673z" />
    <glyph glyph-name="S_T.alt01" unicode="&#xe18e;" horiz-adv-x="751" 
d="M22 205h74c12 -95 70 -151 147 -151c83 0 146 64 146 147c0 72 -40 116 -127 144c-139 45 -195 114 -195 203c0 105 84 192 211 192h49v-67h-56c-73 0 -130 -53 -130 -125c0 -61 31 -98 122 -129c147 -51 200 -117 200 -216c0 -124 -95 -217 -219 -217
c-121 0 -220 89 -222 219zM576 0h-74v673h-152v67h394v-67h-168v-673z" />
    <glyph glyph-name="T_H" unicode="&#xe196;" horiz-adv-x="892" 
d="M265 0h-74v673h-184v67h258v-740zM816 0h-74v347h-338v-347h-74v740h265v-67h-191v-259h338v326h74v-740z" />
    <glyph glyph-name="T_T" unicode="&#xe198;" horiz-adv-x="826" 
d="M651 0h-74v673h-329v-673h-74v673h-168v67h813v-67h-168v-673z" />
    <glyph glyph-name="T_T.alt01" unicode="&#xe199;" horiz-adv-x="565" 
d="M250 0h-74v673h-170v67h244v-740zM389 0h-74v740h243v-67h-169v-673z" />
    <glyph glyph-name="T_U" unicode="&#xe19a;" horiz-adv-x="891" 
d="M265 0h-74v673h-184v67h258v-740zM746 264v476h74v-474c0 -171 -98 -279 -247 -279c-172 0 -248 138 -248 280v473h259v-67h-185v-403c0 -147 80 -216 172 -216c87 0 175 61 175 210z" />
    <glyph glyph-name="T_h" unicode="&#xe1a5;" horiz-adv-x="974" 
d="M905 0h-70v302c0 123 -66 191 -170 191c-112 0 -179 -74 -179 -186v-307h-70v673h-168v-673h-74v673h-168v67h480v-274h2c44 69 116 92 177 92c151 0 240 -97 240 -249v-309z" />
    <glyph glyph-name="U_T" unicode="&#xe1a9;" horiz-adv-x="891" 
d="M700 0h-74v740h258v-67h-184v-673zM492 266v407h-185v67h259v-471c0 -171 -98 -282 -247 -282c-172 0 -248 133 -248 278v475h74v-471c0 -155 86 -215 172 -215c90 0 175 63 175 212z" />
    <glyph glyph-name="c_t" unicode="&#xe1b8;" horiz-adv-x="744" 
d="M604 0h-70v484h-115v63h115v193h70v-193h131v-63h-131v-484zM468 89v-73c-29 -17 -79 -29 -144 -29c-173 0 -283 128 -283 280c0 165 124 280 278 280h72v-63h-53c-126 0 -226 -74 -226 -217c0 -122 86 -217 215 -217c60 0 96 10 141 39z" />
    <glyph glyph-name="o_o" unicode="&#xe1c1;" horiz-adv-x="924" 
d="M461 21c-39 -22 -85 -34 -134 -34c-159 0 -285 133 -285 283c0 166 134 291 285 291c48 0 94 -13 135 -34c41 21 86 34 133 34c161 0 287 -136 287 -287c0 -158 -131 -287 -287 -287c-49 0 -94 11 -134 34zM402 64c-59 56 -92 126 -92 206c0 81 32 155 92 214
c-25 9 -50 14 -75 14c-104 0 -215 -87 -215 -227c0 -125 101 -221 216 -221c25 0 50 5 74 14zM521 64c25 -9 48 -14 75 -14c112 0 216 90 216 227c0 134 -111 221 -217 221c-24 0 -51 -6 -74 -15c60 -56 93 -132 93 -209c0 -81 -34 -154 -93 -210zM462 449
c-55 -46 -82 -106 -82 -178s33 -132 82 -173c51 40 82 107 82 179c0 68 -29 131 -82 172z" />
    <glyph glyph-name="s_s" unicode="&#xe1c3;" horiz-adv-x="623" 
d="M580 412h-70c-4 54 -38 86 -82 86c-51 0 -83 -39 -83 -82c0 -41 27 -69 95 -90c117 -36 159 -92 159 -171c0 -102 -65 -168 -172 -168c-43 0 -82 15 -113 41c-29 -25 -70 -41 -122 -41c-86 0 -168 59 -168 169v6h70c1 -73 39 -112 98 -112c66 0 102 39 102 98
c0 50 -24 82 -120 113c-80 26 -134 69 -134 155c0 84 64 145 156 145c44 0 86 -17 115 -52c27 31 67 52 115 52c87 0 154 -60 154 -149zM352 84c13 -20 42 -34 75 -34c67 0 102 39 102 98c0 48 -23 81 -115 111c-69 23 -139 58 -139 152c0 56 -35 87 -83 87s-82 -38 -82 -82
c0 -41 27 -70 95 -90c115 -34 159 -92 159 -170c0 -27 -4 -49 -12 -72z" />
    <glyph glyph-name="s_t" unicode="&#xe1c4;" horiz-adv-x="648" 
d="M508 0h-70v484h-110c11 -21 17 -44 17 -72h-70c-4 56 -39 86 -84 86c-48 0 -81 -39 -81 -82c0 -42 26 -69 101 -92c109 -34 153 -87 153 -170c0 -98 -62 -167 -171 -167c-90 0 -169 61 -169 169v6h70c1 -75 40 -112 98 -112c67 0 102 39 102 98c0 57 -40 85 -93 103
c-123 42 -161 84 -161 158c0 83 62 152 156 152c53 0 100 -26 127 -69v55h115v193h70v-193h131v-63h-131v-484z" />
    <glyph glyph-name="s_t" unicode="&#xfb06;" horiz-adv-x="648" 
d="M508 0h-70v484h-110c11 -21 17 -44 17 -72h-70c-4 56 -39 86 -84 86c-48 0 -81 -39 -81 -82c0 -42 26 -69 101 -92c109 -34 153 -87 153 -170c0 -98 -62 -167 -171 -167c-90 0 -169 61 -169 169v6h70c1 -75 40 -112 98 -112c67 0 102 39 102 98c0 57 -40 85 -93 103
c-123 42 -161 84 -161 158c0 83 62 152 156 152c53 0 100 -26 127 -69v55h115v193h70v-193h131v-63h-131v-484z" />
    <glyph glyph-name="s_t.alt01" unicode="&#xe1cc;" horiz-adv-x="640" 
d="M500 0h-70v484h-115v63h115v193h70v-193h131v-63h-131v-484zM24 161v6h71c3 -72 39 -117 112 -117c60 0 101 42 101 99c0 52 -35 82 -108 102c-116 31 -153 81 -153 154c0 84 65 142 157 142h89v-63h-92c-47 0 -84 -31 -84 -76s30 -73 101 -91c115 -29 160 -82 160 -163
c0 -102 -73 -167 -175 -167c-99 0 -179 65 -179 174z" />
    <glyph glyph-name="t_t" unicode="&#xe1d4;" horiz-adv-x="587" 
d="M447 0h-70v484h-178v-484h-70v484h-115v63h115v193h70v-193h178v193h70v-193h131v-63h-131v-484z" />
    <glyph glyph-name="t_t.alt01" unicode="&#xe1d6;" horiz-adv-x="470" 
d="M199 0h-70v484h-115v63h115v193h70v-740zM329 0h-70v740h70v-193h132v-63h-132v-484z" />
    <glyph glyph-name="zero.fitted" unicode="&#xe1ff;" horiz-adv-x="576" 
d="M536 493v-231c0 -184 -112 -275 -248 -275c-137 0 -248 91 -248 276v231c0 164 116 259 248 259c130 0 248 -92 248 -260zM462 268v207c0 164 -101 211 -176 211c-72 0 -172 -52 -172 -211v-203c0 -170 88 -218 174 -218c83 0 174 45 174 214z" />
    <glyph glyph-name="one.fitted" unicode="&#xe200;" horiz-adv-x="344" 
d="M229 0h-74v673h-127v67h201v-740z" />
    <glyph glyph-name="two.fitted" unicode="&#xe201;" horiz-adv-x="559" 
d="M506 0h-470v67l309 297c51 49 91 104 91 165c0 85 -73 157 -160 157c-96 0 -157 -68 -160 -185h-74c0 177 120 252 238 252c140 0 230 -115 230 -226c0 -100 -64 -164 -136 -233l-238 -227h370v-67z" />
    <glyph glyph-name="three.fitted" unicode="&#xe202;" 
d="M249 389h-29v65c22 -1 26 -1 29 -1c76 0 134 44 134 116c0 68 -48 117 -115 117c-64 0 -110 -52 -111 -131h-74c4 118 82 198 187 198c108 0 187 -84 187 -190c0 -56 -23 -98 -76 -139c77 -41 125 -115 125 -196c0 -130 -96 -241 -232 -241c-115 0 -236 79 -240 245h74
c5 -118 81 -178 165 -178c95 0 159 73 159 170c0 88 -72 165 -183 165z" />
    <glyph glyph-name="four.fitted" unicode="&#xe203;" horiz-adv-x="568" 
d="M461 0h-74v135h-373v67l359 538h88v-538h67v-67h-67v-135zM387 202v436h-2l-286 -436h288z" />
    <glyph glyph-name="five.fitted" unicode="&#xe204;" horiz-adv-x="578" 
d="M468 673h-274l-37 -204c40 22 79 35 126 35c139 0 247 -115 247 -259c0 -140 -109 -258 -251 -258c-102 0 -232 66 -253 246h74c12 -106 84 -179 179 -179c103 0 177 91 177 191c0 105 -75 193 -176 193c-59 0 -113 -31 -154 -84l-58 21l67 365h333v-67z" />
    <glyph glyph-name="six.fitted" unicode="&#xe205;" horiz-adv-x="576" 
d="M218 488l2 -1c21 10 45 16 69 16c141 0 249 -112 249 -257c0 -141 -104 -259 -253 -259s-253 114 -253 263c0 65 28 126 60 174l213 315h84zM285 54c106 0 179 86 179 191c0 103 -73 191 -180 191c-102 0 -178 -89 -178 -193c0 -105 79 -189 179 -189z" />
    <glyph glyph-name="seven.fitted" unicode="&#xe206;" horiz-adv-x="467" 
d="M140 0h-78l305 673h-352v67h428v-67z" />
    <glyph glyph-name="eight.fitted" unicode="&#xe207;" horiz-adv-x="564" 
d="M390 413c83 -41 128 -114 128 -198c0 -123 -104 -228 -235 -228c-125 0 -237 98 -237 228c0 86 52 168 127 198c-55 35 -87 89 -87 148c0 107 85 192 196 192c114 0 196 -90 196 -194c0 -57 -33 -115 -88 -146zM404 564c0 66 -53 122 -121 122c-70 0 -123 -56 -123 -122
c0 -65 57 -120 123 -120s121 54 121 120zM284 54c90 0 160 74 160 161c0 85 -69 160 -164 160c-82 0 -160 -71 -160 -157c0 -94 70 -164 164 -164z" />
    <glyph glyph-name="nine.fitted" unicode="&#xe208;" horiz-adv-x="576" 
d="M271 0h-84l171 251l-2 1c-21 -11 -43 -16 -70 -16c-140 0 -248 114 -248 257c0 146 110 259 253 259c150 0 253 -115 253 -263c0 -50 -6 -96 -92 -222zM291 303c107 0 179 90 179 193c0 102 -77 189 -180 189c-101 0 -178 -85 -178 -191c0 -105 77 -191 179 -191z" />
    <glyph glyph-name="parenleft.cap" unicode="&#xe209;" horiz-adv-x="369" 
d="M355 -48v-72c-172 59 -308 272 -308 481c0 199 122 413 308 481v-75c-141 -85 -234 -252 -234 -406c0 -158 91 -322 234 -409z" />
    <glyph glyph-name="parenright.cap" unicode="&#xe20a;" horiz-adv-x="369" 
d="M14 -121v73c147 89 234 255 234 409s-92 321 -234 406v75c183 -66 308 -281 308 -479c0 -202 -119 -411 -308 -484z" />
    <glyph glyph-name="bracketleft.cap" unicode="&#xe20b;" horiz-adv-x="351" 
d="M337 -19v-75c-127 34 -204 142 -204 272v386c0 144 92 244 204 274v-75c-92 -41 -130 -108 -130 -199v-374c0 -109 38 -169 130 -209z" />
    <glyph glyph-name="bracketright.cap" unicode="&#xe20c;" horiz-adv-x="351" 
d="M14 -94v75c93 40 130 101 130 209v374c0 91 -38 158 -130 199v75c113 -30 204 -131 204 -274v-386c0 -133 -80 -239 -204 -272z" />
    <glyph glyph-name="braceleft.cap" unicode="&#xe20d;" horiz-adv-x="351" 
d="M331 -104h-68c-63 0 -104 58 -104 129v186c0 59 -36 116 -89 117v64c54 2 89 62 89 117v187c0 71 41 129 104 129h68v-60h-51c-31 0 -47 -32 -47 -83v-189c0 -58 -35 -118 -87 -131v-3c47 -8 87 -58 87 -130v-190c0 -52 16 -83 47 -83h51v-60z" />
    <glyph glyph-name="braceright.cap" unicode="&#xe20e;" horiz-adv-x="351" 
d="M88 -104h-68v60h51c31 0 47 31 47 83v190c0 72 40 122 87 130v3c-52 13 -87 73 -87 131v189c0 51 -16 83 -47 83h-51v60h68c63 0 104 -58 104 -129v-187c0 -55 35 -115 89 -117v-64c-53 -1 -89 -58 -89 -117v-186c0 -71 -41 -129 -104 -129z" />
    <glyph glyph-name="guilsinglleft.cap" unicode="&#xe20f;" horiz-adv-x="251" 
d="M212 204l-59 -33l-113 201l113 199l59 -31l-94 -168z" />
    <glyph glyph-name="guilsinglright.cap" unicode="&#xe210;" horiz-adv-x="251" 
d="M97 171l-58 33l94 168l-94 168l58 31l114 -199z" />
    <glyph glyph-name="guillemotleft.cap" unicode="&#xe211;" horiz-adv-x="425" 
d="M212 204l-59 -33l-113 201l113 199l59 -31l-94 -168zM386 204l-59 -33l-113 201l113 199l59 -31l-95 -168z" />
    <glyph glyph-name="guillemotright.cap" unicode="&#xe212;" horiz-adv-x="425" 
d="M97 171l-58 33l94 168l-94 168l58 31l114 -199zM271 171l-58 33l94 168l-94 168l58 31l114 -199z" />
    <glyph glyph-name="hyphen.cap" unicode="&#xe213;" horiz-adv-x="332" 
d="M302 338h-272v67h272v-67z" />
    <glyph glyph-name="endash.cap" unicode="&#xe214;" horiz-adv-x="500" 
d="M465 338h-430v67h430v-67z" />
    <glyph glyph-name="emdash.cap" unicode="&#xe215;" horiz-adv-x="1000" 
d="M965 338h-930v67h930v-67z" />
    <glyph glyph-name="exclamdown.cap" unicode="&#xe216;" horiz-adv-x="295" 
d="M185 614h-74v126h74v-126zM185 0h-74v547h74v-547z" />
    <glyph glyph-name="questiondown.cap" unicode="&#xe217;" horiz-adv-x="591" 
d="M527 231v-14c0 -139 -115 -230 -235 -230c-126 0 -227 95 -227 222c0 67 32 115 92 170s96 105 97 168h74v-6c0 -72 -35 -131 -95 -186s-94 -96 -94 -149c0 -83 74 -149 156 -149c80 0 158 59 158 157v17h74zM328 614h-74v126h74v-126z" />
    <glyph glyph-name="periodcentered.cap" unicode="&#xe218;" horiz-adv-x="277" 
d="M176 314h-74v126h74v-126z" />
    <glyph glyph-name="circumflexalt" horiz-adv-x="665" 
d="M603 804h-83l-120 82l-119 -82h-83l176 133h54z" />
    <glyph glyph-name="dieresisalt" horiz-adv-x="665" 
d="M349 805h-72v128h72v-128zM537 805h-72v128h72v-128z" />
    <glyph glyph-name="tildealt" horiz-adv-x="690" 
d="M694 894l32 -50c-27 -24 -64 -39 -101 -39c-54 0 -118 34 -170 34c-29 0 -55 -10 -76 -30l-32 51c25 24 63 39 100 39c52 0 117 -34 171 -34c28 0 56 9 76 29z" />
    </font>
</defs>
</svg>
