<?xml version="1.0" standalone="no"?>
<!DOCTYPE svg PUBLIC "-//W3C//DTD SVG 1.1//EN" "http://www.w3.org/Graphics/SVG/1.1/DTD/svg11.dtd" >
<svg>
<metadata>
Created by FontForge 20110222 at Tue Jul  1 04:36:02 2014
 By Orthosie Webhosting
Copyright (c) 1988, 1990, 1993, 2003 Linotype Library GmbH, www.linotype.com. All rights reserved. Copyright (c) 1988, 1990, 1993 Adobe Systems Incorporated. All Rights Reserved.
</metadata>
<defs>
<font id="HelveticaNeueLTPro57Condensed" horiz-adv-x="463" >
  <font-face 
    font-family="HelveticaNeueLTPro57Condensed"
    font-weight="400"
    font-stretch="normal"
    units-per-em="1000"
    panose-1="2 11 5 6 3 5 2 3 2 4"
    ascent="714"
    descent="-286"
    x-height="536"
    cap-height="714"
    bbox="-164 -214 1000 943"
    underline-thickness="50"
    underline-position="-50"
    unicode-range="U+000D-FB02"
  />
<missing-glyph horiz-adv-x="512" 
d="M222 117h56v67h-56v-67zM225 234h46q0 52 6 72q6 19 43 52q37 34 50 60t13 60q0 59 -35 95t-89 36q-56 0 -92 -34t-43 -103l50 -8q11 95 82 95q31 0 53.5 -24.5t22.5 -60.5q0 -20 -9.5 -37t-40.5 -46q-31 -31 -46 -59q-13 -25 -13 -81zM462 50h-412v617h412v-617z
M512 718h-512v-718h512v718z" />
    <glyph glyph-name="IJ" unicode="IJ" horiz-adv-x="622" 
d="M58 0v714h88v-714h-88zM564 714v-509q0 -106 -38 -162.5t-141 -56.5q-84 0 -125.5 46.5t-41.5 116.5v59h84v-52q0 -98 82 -98q56 0 74 34.5t18 115.5v506h88z" />
    <glyph glyph-name="ij" unicode="ij" horiz-adv-x="410" 
d="M60 618v96h84v-96h-84zM60 0v536h84v-536h-84zM350 714v-96h-84v96h84zM350 536v-588q0 -67 -30 -99.5t-98 -32.5l-39 3v72q2 0 13.5 -1.5t17.5 -1.5q19 0 30 6t15.5 21t5.5 26.5t1 36.5v558h84z" />
    <glyph glyph-name="napostrophe" unicode="&#x22;n" 
d="M55 0v536h80v-63h2q17 36 53.5 56.5t76.5 20.5t68.5 -12.5t42 -28t21 -43t8.5 -43.5t1 -43v-380h-84v370q0 21 -2 35t-9 33.5t-24 29.5t-44 10q-40 0 -73 -27.5t-33 -80.5v-370h-84zM12 714v91h83v-80q0 -40 -19 -58.5t-59 -21.5v26q11 3 16.5 6t11 12t6.5 25h-39z" />
    <glyph glyph-name="fi" unicode="fi" 
d="M319 618v96h84v-96h-84zM319 0v536h84v-536h-84zM80 0v470h-78v66h78v63q0 123 116 123h61v-72h-39q-54 0 -54 -51v-63h92v-66h-92v-470h-84z" />
    <glyph glyph-name="fl" unicode="fl" 
d="M319 0v714h84v-714h-84zM80 0v470h-78v66h78v63q0 123 116 123h61v-72h-39q-54 0 -54 -51v-63h92v-66h-92v-470h-84z" />
    <glyph glyph-name=".notdef" horiz-adv-x="512" 
d="M222 117h56v67h-56v-67zM225 234h46q0 52 6 72q6 19 43 52q37 34 50 60t13 60q0 59 -35 95t-89 36q-56 0 -92 -34t-43 -103l50 -8q11 95 82 95q31 0 53.5 -24.5t22.5 -60.5q0 -20 -9.5 -37t-40.5 -46q-31 -31 -46 -59q-13 -25 -13 -81zM462 50h-412v617h412v-617z
M512 718h-512v-718h512v718z" />
    <glyph glyph-name=".null" horiz-adv-x="500" 
 />
    <glyph glyph-name=".null" horiz-adv-x="500" 
 />
    <glyph glyph-name="nonmarkingreturn" horiz-adv-x="333" 
 />
    <glyph glyph-name="CR" unicode="&#xd;" horiz-adv-x="0" 
 />
    <glyph glyph-name="space" unicode=" " horiz-adv-x="240" 
 />
    <glyph glyph-name="exclam" unicode="!" horiz-adv-x="258" 
d="M83 0v96h92v-96h-92zM99 186l-16 528h92l-16 -528h-60z" />
    <glyph glyph-name="quotedbl" unicode="&#x22;" horiz-adv-x="407" 
d="M254 460v254h66v-254h-66zM87 460v254h66v-254h-66z" />
    <glyph glyph-name="numbersign" unicode="#" horiz-adv-x="480" 
d="M198 425l-19 -154h106l19 154h-106zM79 0l26 205h-82v66h90l19 154h-87v66h96l25 203h66l-25 -203h106l25 203h66l-25 -203h78v-66h-87l-19 -154h83v-66h-91l-26 -205h-66l26 205h-106l-26 -205h-66z" />
    <glyph glyph-name="dollar" unicode="$" horiz-adv-x="480" 
d="M217 708v58h42v-58q91 -5 134.5 -53t45.5 -141h-88q0 113 -92 122v-245q8 -3 31 -10.5t32 -11t29 -11.5t29.5 -15t25 -18t22.5 -23.5t15.5 -28.5t12 -36t3.5 -44q0 -53 -17.5 -94t-47.5 -64t-63.5 -35t-71.5 -14v-94h-42v94q-108 4 -152 61.5t-44 170.5h88q0 -28 1 -44.5
t7 -39.5t16.5 -36.5t32 -25t51.5 -14.5v262q-37 12 -55.5 18.5t-48.5 23t-44.5 35t-26.5 49t-12 70.5q0 29 7 56.5t25.5 58.5t58 52t96.5 25zM217 405v231q-95 -12 -95 -111q0 -48 24.5 -75t70.5 -45zM259 306v-248q48 4 78 37t30 84t-28 79.5t-80 47.5z" />
    <glyph glyph-name="percent" unicode="%" horiz-adv-x="759" 
d="M582 -14q-43 0 -70.5 15t-40 45t-16.5 59t-4 73t4 73t16.5 59t40 45t70.5 15t70.5 -15t40 -45t16.5 -59t4 -73t-4 -73t-16.5 -59t-40 -45t-70.5 -15zM177 324q-43 0 -70.5 15t-40 45t-16.5 59t-4 73t4 73t16.5 59t40 45t70.5 15t70.5 -15t40 -45t16.5 -59t4 -73t-4 -73
t-16.5 -59t-40 -45t-70.5 -15zM582 40q38 0 48.5 32t10.5 106q0 37 -1.5 57.5t-7 41.5t-18 30t-32.5 9q-38 0 -48.5 -32t-10.5 -106q0 -37 1.5 -57.5t7 -41.5t18 -30t32.5 -9zM186 -14l310 722h70l-310 -722h-70zM177 378q38 0 48.5 32t10.5 106q0 37 -1.5 57.5t-7 41.5
t-18 30t-32.5 9q-38 0 -48.5 -32t-10.5 -106q0 -37 1.5 -57.5t7 -41.5t18 -30t32.5 -9z" />
    <glyph glyph-name="ampersand" unicode="&#x26;" horiz-adv-x="556" 
d="M275 400l141 -202q21 51 28 139h78q0 -41 -19 -112t-39 -96l92 -129h-95l-48 67q-45 -43 -83 -62t-93 -19q-50 0 -89 14.5t-61.5 36.5t-37 50t-19.5 51.5t-5 45.5q0 111 97 185l52 39l-22 36q-52 77 -52 130q0 62 43 101t105 39q151 0 151 -136q0 -47 -25.5 -82
t-72.5 -74zM372 127l-157 227q-102 -63 -102 -163q0 -63 38 -98t93 -35q66 0 128 69zM238 453l19 18q24 23 32.5 32.5t20 31t11.5 43.5q0 31 -20 50.5t-52 19.5t-51.5 -19.5t-19.5 -50.5q0 -39 43 -101z" />
    <glyph glyph-name="quotesingle" unicode="'" horiz-adv-x="240" 
d="M87 460v254h66v-254h-66z" />
    <glyph glyph-name="parenleft" unicode="(" horiz-adv-x="241" 
d="M189 714h48q-110 -181 -110 -449q0 -238 110 -449h-48q-71 96 -108.5 212.5t-37.5 236.5q0 250 146 449z" />
    <glyph glyph-name="parenright" unicode=")" horiz-adv-x="241" 
d="M52 -184h-48q110 181 110 449q0 238 -110 449h48q71 -96 108.5 -212.5t37.5 -236.5q0 -250 -146 -449z" />
    <glyph glyph-name="asterisk" unicode="*" horiz-adv-x="352" 
d="M146 595v119h60v-119l107 41l22 -58l-113 -34l76 -94l-50 -37l-72 102l-72 -102l-50 37l76 94l-113 34l22 58z" />
    <glyph glyph-name="plus" unicode="+" horiz-adv-x="600" 
d="M267 0v220h-220v66h220v220h66v-220h220v-66h-220v-220h-66z" />
    <glyph glyph-name="comma" unicode="," horiz-adv-x="240" 
d="M74 0v106h92v-87q0 -34 -2.5 -56t-11.5 -46t-28 -40t-50 -25v47q26 12 35 29t9 48v24h-44z" />
    <glyph glyph-name="hyphen" unicode="-" horiz-adv-x="352" 
d="M54 245v78h244v-78h-244z" />
    <glyph glyph-name="period" unicode="." horiz-adv-x="240" 
d="M74 0v106h92v-106h-92z" />
    <glyph glyph-name="slash" unicode="/" horiz-adv-x="278" 
d="M-10 -14l232 742h66l-232 -742h-66z" />
    <glyph glyph-name="zero" unicode="0" horiz-adv-x="480" 
d="M126 344q0 -44 1 -74t4.5 -67.5t11 -61.5t19.5 -46t32 -32.5t46 -10.5t46 10.5t32 32.5t19.5 46t11 61.5t4.5 67.5t1 74q0 46 -1 77t-4.5 69t-11 62t-20 46.5t-32 33t-45.5 10.5t-45.5 -10.5t-32 -33t-20 -46.5t-11 -62t-4.5 -69t-1 -77zM240 -14q-40 0 -71.5 11.5
t-52.5 29.5t-36 47.5t-23 57.5t-12.5 68t-5.5 70.5t-1 73.5q0 40 1 69.5t5.5 70t12.5 69.5t23 60t36 50.5t52.5 32t71.5 12.5t71.5 -11.5t52.5 -29.5t36 -48t23 -58.5t12.5 -69.5t5.5 -72t1 -75q0 -46 -2 -79t-7.5 -79t-19.5 -78t-35 -61.5t-56.5 -45t-81.5 -15.5z" />
    <glyph glyph-name="one" unicode="1" horiz-adv-x="480" 
d="M67 532v60q41 2 65.5 6t52 15.5t41.5 35t16 59.5h60v-708h-84v532h-151z" />
    <glyph glyph-name="two" unicode="2" horiz-adv-x="480" 
d="M438 78v-78h-396q0 158 153 290l58 49q48 42 71 79t23 91q0 52 -25 89.5t-78 37.5q-112 0 -112 -153h-88q0 105 48.5 165t152.5 60q47 0 82.5 -14t55.5 -34.5t32 -48t16 -49.5t4 -43q0 -76 -30 -127.5t-94 -105.5l-100 -87q-61 -51 -77 -121h304z" />
    <glyph glyph-name="three" unicode="3" horiz-adv-x="480" 
d="M180 333v66h44q54 0 81 34.5t27 90.5q0 53 -22 85.5t-70 32.5q-102 0 -102 -138h-88q0 94 46.5 149t141.5 55q53 0 90.5 -17t56.5 -45.5t27 -58.5t8 -63q0 -56 -28 -97t-82 -55v-2q131 -26 131 -165q0 -100 -51 -159.5t-150 -59.5q-54 0 -93.5 18t-59.5 41.5t-31.5 55
t-14 49.5t-2.5 33v9h88q0 -55 28.5 -97.5t84.5 -42.5q113 0 113 146q0 135 -128 135h-45z" />
    <glyph glyph-name="four" unicode="4" horiz-adv-x="480" 
d="M30 250l256 458h84v-465h80v-72h-80v-171h-84v171h-256v79zM284 570l-178 -327h180v327h-2z" />
    <glyph glyph-name="five" unicode="5" horiz-adv-x="480" 
d="M58 331l39 363h316v-78h-249l-28 -205l2 -2q44 53 124 53q82 0 130 -61.5t48 -171.5q0 -107 -50.5 -175t-155.5 -68q-48 0 -84.5 15t-56.5 37t-32.5 50.5t-16.5 51t-4 42.5h88q0 -18 4 -36.5t14.5 -41.5t33.5 -37.5t56 -14.5q35 0 60 18t36 48t15.5 58t4.5 60
q0 67 -28 113.5t-90 46.5q-41 0 -70.5 -26t-29.5 -43z" />
    <glyph glyph-name="six" unicode="6" horiz-adv-x="480" 
d="M133 216q0 -67 26 -115.5t86 -48.5t86 48.5t26 115.5q0 164 -112 164t-112 -164zM429 538h-88q0 46 -24.5 75t-68.5 29q-41 0 -68.5 -26.5t-38.5 -67.5t-14.5 -68.5t-3.5 -50.5v-56h2q13 28 48.5 53.5t86.5 25.5q90 0 137.5 -61t47.5 -163q0 -107 -52 -174.5t-148 -67.5
q-47 0 -83.5 14t-58.5 41t-36.5 57t-21 72t-8.5 75t-2 77q0 50 2 86t8 85.5t20.5 83.5t37.5 66t60.5 48.5t86.5 16.5q46 0 81 -15t53 -35t29 -46t13.5 -43t2.5 -31z" />
    <glyph glyph-name="seven" unicode="7" horiz-adv-x="480" 
d="M38 616v78h404v-73q-85 -111 -139 -243q-81 -195 -97 -378h-98q20 164 86 322q64 158 168 294h-324z" />
    <glyph glyph-name="eight" unicode="8" horiz-adv-x="480" 
d="M125 198q0 -67 28 -106.5t87 -39.5t87 39.5t28 106.5t-28 106.5t-87 39.5t-87 -39.5t-28 -106.5zM240 642q-47 0 -70 -31t-23 -85q0 -53 23 -84.5t70 -31.5q46 0 69.5 31.5t23.5 84.5t-23.5 84.5t-69.5 31.5zM37 195q0 141 125 182q-54 22 -78.5 58t-24.5 93q0 86 48 133
t133 47t133 -47t48 -133q0 -57 -24.5 -93t-78.5 -58q125 -41 125 -182q0 -38 -10 -72.5t-31.5 -66.5t-63 -51t-98.5 -19t-98.5 19t-63 51t-31.5 66.5t-10 72.5z" />
    <glyph glyph-name="nine" unicode="9" horiz-adv-x="480" 
d="M347 478q0 67 -26 115.5t-86 48.5t-86 -48.5t-26 -115.5q0 -164 112 -164t112 164zM51 156h88q0 -46 24.5 -75t68.5 -29q28 0 50 13t34.5 34.5t21.5 45t12.5 50t5 42t1.5 28.5v56h-2q-13 -28 -48.5 -53.5t-86.5 -25.5q-90 0 -137.5 61t-47.5 163q0 107 52 174.5t148 67.5
q47 0 83.5 -14t58.5 -41.5t36.5 -57t21 -72t8.5 -75.5t2 -76q0 -50 -2 -86t-8 -85.5t-20.5 -83.5t-37.5 -66t-60.5 -48.5t-86.5 -16.5q-46 0 -81 15t-53 35t-29 46t-13.5 43t-2.5 31z" />
    <glyph glyph-name="colon" unicode=":" horiz-adv-x="240" 
d="M74 0v106h92v-106h-92zM74 400v106h92v-106h-92z" />
    <glyph glyph-name="semicolon" unicode=";" horiz-adv-x="240" 
d="M74 400v106h92v-106h-92zM74 0v106h92v-87q0 -34 -2.5 -56t-11.5 -46t-28 -40t-50 -25v47q26 12 35 29t9 48v24h-44z" />
    <glyph glyph-name="semicolon" unicode="&#x37e;" horiz-adv-x="240" 
d="M74 400v106h92v-106h-92zM74 0v106h92v-87q0 -34 -2.5 -56t-11.5 -46t-28 -40t-50 -25v47q26 12 35 29t9 48v24h-44z" />
    <glyph glyph-name="less" unicode="&#x3c;" horiz-adv-x="600" 
d="M47 223v60l506 231v-66l-428 -195l428 -195v-66z" />
    <glyph glyph-name="equal" unicode="=" horiz-adv-x="600" 
d="M47 118v66h506v-66h-506zM47 322v66h506v-66h-506z" />
    <glyph glyph-name="greater" unicode="&#x3e;" horiz-adv-x="600" 
d="M47 -8v66l428 195l-428 195v66l506 -231v-60z" />
    <glyph glyph-name="question" unicode="?" horiz-adv-x="444" 
d="M165 0v96h92v-96h-92zM119 504h-84q0 94 47 156t139 62q88 0 138 -52.5t50 -135.5q0 -80 -50 -141q-5 -6 -39.5 -44t-38.5 -44q-32 -41 -32 -100v-19h-78q0 87 19 123q11 19 29.5 43t42 50.5t29.5 34.5q30 40 30 102q0 47 -25.5 79t-71.5 32q-105 0 -105 -146z" />
    <glyph glyph-name="at" unicode="@" horiz-adv-x="800" 
d="M524 487l22 63h56l-84 -282q-9 -31 -9 -45q0 -26 29 -26q67 0 117 66.5t50 151.5q0 112 -87.5 182.5t-217.5 70.5q-129 0 -217 -90t-88 -221q0 -134 87.5 -222.5t217.5 -88.5q187 0 271 111h63q-99 -171 -334 -171q-154 0 -262.5 108.5t-108.5 262.5t108.5 262.5
t262.5 108.5q162 0 266.5 -87t104.5 -222q0 -82 -40.5 -148.5t-98.5 -100t-119 -33.5q-63 0 -70 59h-2q-57 -59 -125 -59q-57 0 -99.5 42.5t-42.5 107.5q0 110 66.5 196t167.5 86q86 0 114 -82h2zM240 293q0 -42 26.5 -69t67.5 -27q64 0 109.5 73t45.5 139q0 36 -22.5 68
t-58.5 32q-69 0 -118.5 -70.5t-49.5 -145.5z" />
    <glyph glyph-name="A" unicode="A" horiz-adv-x="500" 
d="M254 613l-99 -345h192l-91 345h-2zM-8 0l206 714h118l192 -714h-92l-51 196h-228l-53 -196h-92z" />
    <glyph glyph-name="B" unicode="B" horiz-adv-x="519" 
d="M146 642v-236h101q14 0 27 1.5t31 8.5t31 19t22.5 35.5t9.5 54.5q0 117 -123 117h-99zM58 0v714h219q79 0 131 -43t52 -140q0 -50 -28.5 -92.5t-75.5 -56.5v-2q64 -15 95.5 -61.5t31.5 -114.5q0 -106 -58 -155t-173 -49h-194zM146 340v-268h120q65 0 95 37t30 95
q0 70 -39 103t-101 33h-105z" />
    <glyph glyph-name="C" unicode="C" horiz-adv-x="519" 
d="M403 245h92q-7 -115 -58 -187t-159 -72q-59 0 -102 22t-67 56t-38.5 85.5t-18.5 99t-4 108.5q0 60 5 108.5t19.5 99.5t39 85t67 56t99.5 22q205 0 211 -222h-92q-6 150 -119 150q-44 0 -72.5 -22t-42.5 -67t-18.5 -92.5t-4.5 -117.5t4.5 -117.5t18.5 -92.5t42.5 -67
t72.5 -22q38 0 64 16t38 46t17 58t6 67z" />
    <glyph glyph-name="D" unicode="D" horiz-adv-x="556" 
d="M67 0v714h191q64 0 110.5 -19t73 -49t42 -79t20 -96.5t4.5 -113.5q0 -357 -241 -357h-200zM155 642v-570h92q44 0 76 18t49.5 44.5t27.5 67t13 75t3 79.5q0 41 -1.5 69.5t-6.5 65t-16.5 61t-29.5 46.5t-47 33t-68 11h-92z" />
    <glyph glyph-name="E" unicode="E" 
d="M58 0v714h369v-78h-281v-224h265v-78h-265v-256h293v-78h-381z" />
    <glyph glyph-name="F" unicode="F" horiz-adv-x="444" 
d="M58 0v714h369v-78h-281v-224h265v-78h-265v-334h-88z" />
    <glyph glyph-name="G" unicode="G" horiz-adv-x="537" 
d="M489 516h-92q-9 140 -119 140q-44 0 -72.5 -22t-42.5 -67t-18.5 -92.5t-4.5 -117.5t4.5 -117.5t18.5 -92.5t42.5 -67t72.5 -22q35 0 60.5 16.5t38.5 40t20.5 59.5t9.5 63t2 62h-141v72h221v-371h-66v97h-2q-15 -48 -56 -79.5t-98 -31.5q-54 0 -94.5 21t-64 54t-37.5 83
t-18.5 100t-4.5 113q0 60 5 108.5t19.5 99.5t39 85t67 56t99.5 22q58 0 100 -19t62.5 -44t32.5 -59t14 -53t2 -37z" />
    <glyph glyph-name="H" unicode="H" horiz-adv-x="537" 
d="M479 714v-714h-88v344h-245v-344h-88v714h88v-292h245v292h88z" />
    <glyph glyph-name="I" unicode="I" horiz-adv-x="204" 
d="M58 0v714h88v-714h-88z" />
    <glyph glyph-name="J" unicode="J" horiz-adv-x="426" 
d="M368 714v-509q0 -106 -38 -162.5t-141 -56.5q-84 0 -125.5 46.5t-41.5 116.5v59h84v-52q0 -98 82 -98q56 0 74 34.5t18 115.5v506h88z" />
    <glyph glyph-name="K" unicode="K" horiz-adv-x="500" 
d="M58 0v714h88v-346h2l247 346h98l-216 -298l234 -416h-98l-193 344l-74 -101v-243h-88z" />
    <glyph glyph-name="L" unicode="L" horiz-adv-x="444" 
d="M58 0v714h88v-636h290v-78h-378z" />
    <glyph glyph-name="M" unicode="M" horiz-adv-x="704" 
d="M60 0v714h148l143 -566h2l143 566h148v-714h-88v624h-2l-158 -624h-88l-158 624h-2v-624h-88z" />
    <glyph glyph-name="N" unicode="N" horiz-adv-x="556" 
d="M58 0v714h114l236 -596h2v596h88v-714h-121l-229 578h-2v-578h-88z" />
    <glyph glyph-name="O" unicode="O" horiz-adv-x="556" 
d="M278 656q-44 0 -72.5 -22t-42.5 -67t-18.5 -92.5t-4.5 -117.5t4.5 -117.5t18.5 -92.5t42.5 -67t72.5 -22t72.5 22t42.5 67t18.5 92.5t4.5 117.5t-4.5 117.5t-18.5 92.5t-42.5 67t-72.5 22zM278 728q57 0 99.5 -22t67 -56t39 -85t19.5 -99.5t5 -108.5t-5 -108.5
t-19.5 -99.5t-39 -85t-67 -56t-99.5 -22t-99.5 22t-67 56t-39 85t-19.5 99.5t-5 108.5t5 108.5t19.5 99.5t39 85t67 56t99.5 22z" />
    <glyph glyph-name="P" unicode="P" horiz-adv-x="481" 
d="M146 642v-268h105q51 0 84.5 35.5t33.5 103.5q0 129 -124 129h-99zM58 0v714h182q19 0 31.5 -0.5t38.5 -4.5t43.5 -11t39.5 -22.5t35.5 -36.5t23 -54.5t9.5 -75.5q0 -98 -56.5 -152.5t-149.5 -54.5h-109v-302h-88z" />
    <glyph glyph-name="Q" unicode="Q" horiz-adv-x="556" 
d="M343 75l-69 62l49 54l66 -60q27 65 27 226q0 70 -4.5 117.5t-18.5 92.5t-42.5 67t-72.5 22t-72.5 -22t-42.5 -67t-18.5 -92.5t-4.5 -117.5t4.5 -117.5t18.5 -92.5t42.5 -67t72.5 -22q39 0 65 17zM473 -43l-72 65q-49 -36 -123 -36q-57 0 -99.5 22t-67 56t-39 85
t-19.5 99.5t-5 108.5t5 108.5t19.5 99.5t39 85t67 56t99.5 22t99.5 -22t67 -56t39 -85t19.5 -99.5t5 -108.5q0 -196 -58 -282l72 -66z" />
    <glyph glyph-name="R" unicode="R" horiz-adv-x="519" 
d="M146 642v-252h87q23 0 36 1t37 8t38 20.5t25 41t11 67.5q0 54 -33.5 84t-95.5 30h-105zM58 0v714h231q85 0 134 -47.5t49 -131.5q0 -65 -26.5 -116t-83.5 -64v-2q45 -5 71.5 -38t29.5 -81l6 -122q2 -55 11 -78t27 -34h-106q-17 17 -24 103l-6 111q-3 35 -13 57.5
t-27 31.5t-31 12t-35 3h-119v-318h-88z" />
    <glyph glyph-name="S" unicode="S" horiz-adv-x="500" 
d="M449 529h-88q0 127 -111 127q-57 0 -87.5 -29.5t-30.5 -86.5q0 -41 18.5 -68.5t48.5 -42t65.5 -26t71.5 -25t66 -33.5t48.5 -57t18.5 -90q0 -59 -20 -102.5t-53.5 -66t-70.5 -33t-78 -10.5q-120 0 -168 58.5t-48 179.5h88q0 -30 1.5 -49t9 -43.5t21 -39t39.5 -24.5
t63 -10q53 0 88.5 35t35.5 91q0 41 -18.5 69t-48.5 43t-66 26.5t-71.5 26t-65.5 34.5t-48.5 57.5t-18.5 90.5q0 23 4 46t17.5 51.5t35.5 49.5t61 35.5t91 14.5q101 0 149.5 -49.5t50.5 -149.5z" />
    <glyph glyph-name="T" unicode="T" 
d="M275 636v-636h-88v636h-179v78h447v-78h-180z" />
    <glyph glyph-name="U" unicode="U" horiz-adv-x="519" 
d="M50 212v502h88v-502q0 -80 28 -117t93 -37q67 0 94.5 37.5t27.5 116.5v502h88v-502q0 -105 -53.5 -165.5t-156.5 -60.5q-209 0 -209 226z" />
    <glyph glyph-name="V" unicode="V" horiz-adv-x="462" 
d="M172 0l-174 714h92l140 -613h2l140 613h92l-180 -714h-112z" />
    <glyph glyph-name="W" unicode="W" horiz-adv-x="722" 
d="M150 0l-142 714h88l109 -584h2l101 584h106l101 -584h2l109 584h88l-147 -714h-107l-98 578h-2l-103 -578h-107z" />
    <glyph glyph-name="X" unicode="X" horiz-adv-x="481" 
d="M192 363l-176 351h98l130 -267l131 267h92l-178 -351l190 -363h-98l-142 286l-145 -286h-92z" />
    <glyph glyph-name="Y" unicode="Y" horiz-adv-x="462" 
d="M187 280l-189 434h97l136 -334l141 334h92l-189 -434v-280h-88v280z" />
    <glyph glyph-name="Z" unicode="Z" 
d="M23 0v74l321 562h-303v78h395v-81l-321 -555h325v-78h-417z" />
    <glyph glyph-name="bracketleft" unicode="[" horiz-adv-x="259" 
d="M78 -184v898h179v-66h-101v-766h101v-66h-179z" />
    <glyph glyph-name="backslash" unicode="\" horiz-adv-x="278" 
d="M222 -14l-232 742h66l232 -742h-66z" />
    <glyph glyph-name="bracketright" unicode="]" horiz-adv-x="259" 
d="M181 714v-898h-179v66h101v766h-101v66h179z" />
    <glyph glyph-name="asciicircum" unicode="^" horiz-adv-x="600" 
d="M47 261l229 433h48l229 -433h-66l-187 361l-187 -361h-66z" />
    <glyph glyph-name="underscore" unicode="_" horiz-adv-x="500" 
d="M0 -125v50h500v-50h-500z" />
    <glyph glyph-name="grave" unicode="`" horiz-adv-x="204" 
d="M-16 751h98l70 -142h-60z" />
    <glyph glyph-name="a" unicode="a" horiz-adv-x="444" 
d="M301 154v138q-18 -18 -73 -35.5t-70 -27.5q-41 -26 -41 -85q0 -92 76 -92q43 0 75.5 30.5t32.5 71.5zM126 374h-84q0 92 42.5 134t137.5 42q47 0 79.5 -11.5t48.5 -26t24.5 -39t9.5 -39t1 -38.5v-299q0 -16 0.5 -22.5t6.5 -13.5t19 -7t20 5v-60q-35 -5 -49 -5
q-16 0 -25 1.5t-22.5 7t-20.5 21t-8 39.5h-2q-20 -36 -55 -56.5t-74 -20.5q-73 0 -109.5 41t-36.5 115q0 117 101 148l113 34q43 13 52 28t9 53q0 79 -86 79q-92 0 -92 -105v-5z" />
    <glyph glyph-name="b" unicode="b" 
d="M55 0v714h84v-239h2q14 35 48 55t76 20q163 0 163 -282q0 -123 -43.5 -202.5t-131.5 -79.5q-42 0 -74.5 24t-41.5 56h-2v-66h-80zM134 268q0 -96 23 -153t85 -57q54 0 76 54.5t22 155.5q0 104 -21.5 157t-76.5 53q-108 0 -108 -210z" />
    <glyph glyph-name="c" unicode="c" horiz-adv-x="426" 
d="M394 373h-84q0 45 -20.5 78t-64.5 33q-22 0 -38.5 -7.5t-33 -29.5t-25 -68.5t-8.5 -116.5q0 -30 1 -49.5t6 -53t15 -54.5t30.5 -37t49.5 -16q34 0 54.5 22.5t27 50t6.5 61.5h84q0 -34 -9 -67t-28 -64t-55 -50t-84 -19q-98 0 -142 67t-44 208q0 289 191 289q42 0 74 -13
t50 -31.5t29 -44t14.5 -46.5t3.5 -42z" />
    <glyph glyph-name="d" unicode="d" 
d="M408 714v-714h-80v66h-2q-9 -32 -41.5 -56t-74.5 -24q-175 0 -175 282t169 282q37 0 70.5 -20.5t47.5 -54.5h2v239h84zM123 268q0 -104 21.5 -157t76.5 -53q64 0 86 53t22 157q0 210 -108 210q-55 0 -76.5 -53t-21.5 -157z" />
    <glyph glyph-name="e" unicode="e" horiz-adv-x="444" 
d="M407 258h-282q0 -29 0.5 -45t3 -44.5t9.5 -45.5t17.5 -35.5t29 -27t43.5 -8.5q28 0 47.5 13t28 34t12 39.5t3.5 37.5h84q0 -19 -4.5 -41.5t-17 -49.5t-31.5 -48.5t-52 -36t-75 -14.5q-98 0 -142 67t-44 208q0 289 191 289q47 0 81.5 -16.5t52.5 -40.5t29 -61t13.5 -68
t2.5 -72v-34zM128 324h191v29q0 55 -21 93t-72 38q-31 0 -52 -16.5t-30 -42t-12.5 -45t-3.5 -36.5v-20z" />
    <glyph glyph-name="f" unicode="f" horiz-adv-x="259" 
d="M80 0v470h-78v66h78v63q0 123 116 123h61v-72h-39q-54 0 -54 -51v-63h92v-66h-92v-470h-84z" />
    <glyph glyph-name="g" unicode="g" 
d="M408 536v-502q0 -218 -182 -218q-163 0 -176 134h84q6 -68 86 -68q31 0 52.5 10t31 20.5t14.5 32t5.5 30t0.5 27.5v70h-2q-14 -33 -47.5 -52.5t-73.5 -19.5q-37 0 -66 14.5t-46.5 40t-29 52.5t-16.5 60.5t-6.5 55.5t-1.5 45q0 79 14.5 138.5t55 101.5t105.5 42
q43 0 75 -24t41 -58h2v68h80zM221 478q-55 0 -76.5 -53t-21.5 -157q0 -196 97 -196q44 0 69 27.5t32.5 67.5t7.5 101q0 210 -108 210z" />
    <glyph glyph-name="h" unicode="h" 
d="M55 0v714h84v-239h2q16 32 54 53.5t75 21.5q40 0 67.5 -12.5t41 -28t20.5 -43t8 -43t1 -43.5v-380h-84v370q0 21 -2 35t-9 33.5t-24 29.5t-44 10q-40 0 -73 -27.5t-33 -80.5v-370h-84z" />
    <glyph glyph-name="i" unicode="i" horiz-adv-x="204" 
d="M60 618v96h84v-96h-84zM60 0v536h84v-536h-84z" />
    <glyph glyph-name="j" unicode="j" horiz-adv-x="204" 
d="M144 714v-96h-84v96h84zM144 536v-588q0 -67 -30 -99.5t-98 -32.5q-6 0 -12.5 0.5t-14.5 1.5t-12 1v72q2 0 13.5 -1.5t17.5 -1.5q19 0 30 6t15.5 21t5.5 26.5t1 36.5v558h84z" />
    <glyph glyph-name="k" unicode="k" horiz-adv-x="444" 
d="M264 334l191 -334h-98l-149 265l-69 -84v-181h-84v714h84v-425h2l188 247h98z" />
    <glyph glyph-name="l" unicode="l" horiz-adv-x="204" 
d="M60 0v714h84v-714h-84z" />
    <glyph glyph-name="m" unicode="m" horiz-adv-x="722" 
d="M63 0v536h80v-63h2q17 36 53.5 56.5t76.5 20.5q48 0 75.5 -20t40.5 -65q19 37 53 61t74 24t68.5 -12.5t42 -28t21 -43t8.5 -43.5t1 -43v-380h-84v370q0 20 -2 35t-8 33.5t-22 29t-40 10.5q-38 0 -69 -25.5t-31 -82.5v-370h-84v370q0 20 -2 35t-8 33.5t-22 29t-40 10.5
q-38 0 -69 -25.5t-31 -82.5v-370h-84z" />
    <glyph glyph-name="n" unicode="n" 
d="M55 0v536h80v-63h2q17 36 53.5 56.5t76.5 20.5t68.5 -12.5t42 -28t21 -43t8.5 -43.5t1 -43v-380h-84v370q0 21 -2 35t-9 33.5t-24 29.5t-44 10q-40 0 -73 -27.5t-33 -80.5v-370h-84z" />
    <glyph glyph-name="o" unicode="o" horiz-adv-x="444" 
d="M29 268q0 282 193 282t193 -282t-193 -282t-193 282zM220 52q61 0 84 57.5t23 158.5q0 48 -4 83.5t-15 67.5t-33 48.5t-55 16.5q-31 0 -52 -17t-31.5 -48.5t-15 -67.5t-4.5 -83q0 -48 4 -83.5t15 -67.5t32 -48.5t52 -16.5z" />
    <glyph glyph-name="p" unicode="p" 
d="M55 -176v712h80v-66h2q9 32 41.5 56t74.5 24q175 0 175 -272q0 -40 -4.5 -77.5t-17 -77.5t-31.5 -69.5t-50.5 -48.5t-71.5 -19q-37 0 -67.5 20t-44.5 55h-2v-237h-84zM134 268q0 -210 108 -210q55 0 76.5 54.5t21.5 165.5q0 97 -22 148.5t-76 51.5q-64 0 -86 -53
t-22 -157z" />
    <glyph glyph-name="q" unicode="q" 
d="M329 268q0 104 -22 157t-86 53q-54 0 -76 -51.5t-22 -148.5q0 -111 21.5 -165.5t76.5 -54.5q108 0 108 210zM324 -176v237h-2q-14 -35 -44.5 -55t-67.5 -20q-175 0 -175 292q0 272 175 272q42 0 74.5 -24t41.5 -56h2v66h80v-712h-84z" />
    <glyph glyph-name="r" unicode="r" horiz-adv-x="296" 
d="M55 0v536h84v-80h2q21 45 47.5 69.5t68.5 24.5q25 0 37 -6v-82q-32 4 -45 4q-38 0 -74 -33.5t-36 -93.5v-339h-84z" />
    <glyph glyph-name="s" unicode="s" horiz-adv-x="407" 
d="M369 379h-84q0 54 -17.5 79.5t-61.5 25.5q-87 0 -87 -82q0 -13 3 -24t12 -20t15 -14.5t23 -12t23.5 -9t28 -9t27.5 -8.5q25 -8 39 -13.5t34 -18t31 -26.5t19 -38t8 -55q0 -81 -47.5 -124.5t-125.5 -43.5q-52 0 -89 15.5t-55 35t-27.5 50t-11 48t-1.5 41.5h84
q0 -57 21.5 -90.5t78.5 -33.5q18 0 36 5.5t35.5 27t17.5 56.5q0 24 -10 42t-26.5 28.5t-37.5 19t-43 15.5q-9 2 -14 4q-34 12 -49.5 18.5t-39 23.5t-33.5 44t-10 66q0 72 48.5 110t122.5 38q45 0 77 -12.5t48 -29t25 -42.5t11 -44t2 -43z" />
    <glyph glyph-name="t" unicode="t" horiz-adv-x="259" 
d="M80 536v156h84v-156h93v-66h-93v-344q0 -33 11.5 -46.5t43.5 -13.5q10 0 37 3v-69q-22 -6 -68 -6q-63 0 -85.5 25t-22.5 81v370h-78v66h78z" />
    <glyph glyph-name="u" unicode="u" 
d="M408 536v-536h-80v63h-2q-17 -36 -53.5 -56.5t-76.5 -20.5t-68.5 12.5t-42 28t-21 43t-8.5 43.5t-1 43v380h84v-370q0 -21 2 -35t9 -33.5t24 -29.5t44 -10q40 0 73 27.5t33 80.5v370h84z" />
    <glyph glyph-name="v" unicode="v" horiz-adv-x="406" 
d="M155 0l-145 536h92l100 -430h2l100 430h92l-145 -536h-96z" />
    <glyph glyph-name="w" unicode="w" horiz-adv-x="648" 
d="M135 0l-125 536h88l86 -438h2l91 438h99l89 -438h2l83 438h88l-127 -536h-92l-94 438h-2l-90 -438h-98z" />
    <glyph glyph-name="x" unicode="x" horiz-adv-x="406" 
d="M153 279l-137 257h92l97 -191l98 191h92l-140 -257l145 -279h-92l-107 212l-103 -212h-92z" />
    <glyph glyph-name="y" unicode="y" horiz-adv-x="406" 
d="M168 -11l-158 547h92l106 -430h2l94 430h92l-155 -572q-8 -28 -13.5 -43.5t-17 -37t-25 -32.5t-36 -19t-51.5 -8q-16 0 -61 3v66q18 -3 49 -3q46 0 66 52z" />
    <glyph glyph-name="z" unicode="z" horiz-adv-x="389" 
d="M39 464v72h323v-70l-240 -394h238v-72h-333v66l243 398h-231z" />
    <glyph glyph-name="braceleft" unicode="{" horiz-adv-x="259" 
d="M2 235v60q34 0 55 29.5t21 81.5v178q0 69 30.5 99.5t77.5 30.5h71v-66h-51q-17 0 -28 -7t-15.5 -21t-5.5 -25t-1 -29v-172q0 -63 -30 -93.5t-58 -34.5v-2q28 -4 58 -34.5t30 -93.5v-172q0 -18 1 -29t5.5 -25t15.5 -21t28 -7h51v-66h-71q-47 0 -77.5 30.5t-30.5 99.5v178
q0 52 -21 81.5t-55 29.5z" />
    <glyph glyph-name="bar" unicode="|" horiz-adv-x="222" 
d="M78 -14v742h66v-742h-66z" />
    <glyph glyph-name="braceright" unicode="}" horiz-adv-x="259" 
d="M257 295v-60q-34 0 -55 -29.5t-21 -81.5v-178q0 -69 -30.5 -99.5t-77.5 -30.5h-71v66h51q17 0 28 7t15.5 21t5.5 25t1 29v172q0 63 30 93.5t58 34.5v2q-28 4 -58 34.5t-30 93.5v172q0 18 -1 29t-5.5 25t-15.5 21t-28 7h-51v66h71q47 0 77.5 -30.5t30.5 -99.5v-178
q0 -52 21 -81.5t55 -29.5z" />
    <glyph glyph-name="asciitilde" unicode="~" horiz-adv-x="600" 
d="M98 185l-42 46q63 93 136 93q30 0 50 -5t54 -24q4 -3 24 -15t29 -16.5t25 -10t29 -5.5q48 0 99 73l42 -45q-19 -27 -34.5 -44.5t-43 -33.5t-58.5 -16q-30 0 -49.5 5t-54.5 24q-4 3 -24 15t-29 16.5t-25 10t-29 5.5q-48 0 -99 -73z" />
    <glyph glyph-name="uni00A0" unicode="&#xa0;" horiz-adv-x="240" 
 />
    <glyph glyph-name="exclamdown" unicode="&#xa1;" horiz-adv-x="258" 
d="M175 538v-96h-92v96h92zM159 352l16 -528h-92l16 528h60z" />
    <glyph glyph-name="cent" unicode="&#xa2;" horiz-adv-x="480" 
d="M227 -99v85q-88 5 -128 72t-40 203q0 274 168 289v70h42v-70q46 -3 78 -22t47 -47.5t21 -54.5t6 -53h-84q0 41 -16.5 73t-51.5 38v-432q68 16 68 134h84q0 -73 -36.5 -132.5t-115.5 -67.5v-85h-42zM227 52v432q-80 -20 -80 -222q0 -36 1.5 -60.5t8.5 -61t24.5 -59.5
t45.5 -29z" />
    <glyph glyph-name="sterling" unicode="&#xa3;" horiz-adv-x="480" 
d="M447 505h-84q0 61 -27.5 99t-86.5 38t-86 -32t-27 -73q0 -49 56 -155h164v-60h-142q17 -31 17 -68t-22 -74.5t-43 -57.5t-62 -55l2 -2q58 28 85 28q23 0 61 -14q36 -15 65 -15q24 0 45 7.5t62 31.5l37 -67q-71 -50 -138 -50q-35 0 -89 20.5t-81 20.5q-24 0 -49 -11
l-47 -22l-38 65q39 32 60.5 52.5t42.5 57.5t21 76q0 48 -21 77h-95v60h70l-16 31q-33 64 -33 115q0 84 57 132t144 48q91 0 144.5 -51t53.5 -152z" />
    <glyph glyph-name="currency" unicode="&#xa4;" horiz-adv-x="480" 
d="M18 167l47 47q-45 59 -45 133q0 73 45 132l-47 47l43 43l47 -47q57 45 132 45q74 0 132 -45l47 47l43 -43l-47 -47q45 -57 45 -132t-46 -132l48 -48l-42 -42l-48 48q-57 -46 -132 -46q-74 0 -133 45l-47 -47zM92 347q0 -65 43 -109.5t105 -44.5t105 44.5t43 109.5
t-43 109.5t-105 44.5t-105 -44.5t-43 -109.5z" />
    <glyph glyph-name="yen" unicode="&#xa5;" horiz-adv-x="480" 
d="M200 0v153h-147v60h147v60l-10 22h-137v60h110l-154 339h97l136 -324l141 324h88l-150 -339h110v-60h-137l-10 -22v-60h147v-60h-147v-153h-84z" />
    <glyph glyph-name="brokenbar" unicode="&#xa6;" horiz-adv-x="222" 
d="M78 434v294h66v-294h-66zM78 -14v294h66v-294h-66z" />
    <glyph glyph-name="section" unicode="&#xa7;" horiz-adv-x="482" 
d="M184 245l66 -42l60 -41q58 34 58 95q0 56 -77 102l-110 68q-3 -2 -12 -9.5t-13 -11t-12 -11t-12 -13.5t-9 -14t-7 -17.5t-2 -19.5q0 -44 70 -86zM413 578h-88q0 40 -25 62t-63 22q-41 0 -63 -23.5t-22 -51.5q0 -21 13 -39.5t27.5 -29.5t39.5 -26l100 -60q60 -37 90 -71.5
t30 -88.5q0 -86 -89 -147q58 -38 58 -124q0 -72 -51 -113.5t-123 -41.5q-43 0 -76 12t-53 30t-32.5 42t-17 46t-4.5 44h84q0 -48 25 -78t74 -30q48 0 67 27.5t19 57.5q0 32 -22 56.5t-61 50.5l-113 70q-107 66 -107 146q0 50 23.5 79.5t74.5 62.5q-29 19 -46.5 52t-17.5 68
q0 69 51.5 107.5t121.5 38.5q34 0 61 -7t44.5 -15t31 -25t19.5 -26.5t11.5 -30t6 -25t2.5 -21.5z" />
    <glyph glyph-name="dieresis" unicode="&#xa8;" horiz-adv-x="204" 
d="M144 630v101h78v-101h-78zM-18 630v101h78v-101h-78z" />
    <glyph glyph-name="copyright" unicode="&#xa9;" horiz-adv-x="800" 
d="M400 46q127 0 216 91t89 220t-89 220t-216 91t-216 -91t-89 -220t89 -220t216 -91zM29 357q0 154 108.5 262.5t262.5 108.5t262.5 -108.5t108.5 -262.5t-108.5 -262.5t-262.5 -108.5t-262.5 108.5t-108.5 262.5zM543 279h60q-9 -73 -64.5 -114t-132.5 -41
q-101 0 -160 63.5t-59 166.5t59 166.5t160 63.5q78 0 133 -40t64 -115h-60q-9 41 -45.5 68t-91.5 27q-69 0 -111 -49t-42 -121t42 -121t111 -49q55 0 91.5 27t45.5 68z" />
    <glyph glyph-name="ordfeminine" unicode="&#xaa;" horiz-adv-x="289" 
d="M191 470v77q-12 -12 -47.5 -21.5t-45.5 -16.5q-9 -7 -13 -11t-7.5 -12.5t-3.5 -21.5q0 -49 46 -49q27 0 49 17.5t22 37.5zM251 612v-176q0 -27 17 -27q4 0 13 3v-42q-12 -3 -38 -3q-49 0 -50 46h-2q-25 -46 -88 -46q-46 0 -70.5 25.5t-24.5 67.5q0 71 72 92l73 20
q26 8 32 16.5t6 28.5q0 43 -54 43q-59 0 -59 -58v-4h-60q0 60 29 85t98 25q38 0 61.5 -9t32 -27t10.5 -29t2 -31z" />
    <glyph glyph-name="guillemotleft" unicode="&#xab;" horiz-adv-x="389" 
d="M49 245v78l142 143v-88l-94 -94l94 -94v-88zM198 245v78l142 143v-88l-94 -94l94 -94v-88z" />
    <glyph glyph-name="logicalnot" unicode="&#xac;" horiz-adv-x="600" 
d="M487 106v216h-440v66h506v-282h-66z" />
    <glyph glyph-name="uni00AD" unicode="&#xad;" horiz-adv-x="352" 
d="M54 245v78h244v-78h-244z" />
    <glyph glyph-name="registered" unicode="&#xae;" horiz-adv-x="800" 
d="M400 46q127 0 216 91t89 220t-89 220t-216 91t-216 -91t-89 -220t89 -220t216 -91zM29 357q0 154 108.5 262.5t262.5 108.5t262.5 -108.5t108.5 -262.5t-108.5 -262.5t-262.5 -108.5t-262.5 108.5t-108.5 262.5zM318 380h71q28 0 44 1.5t34 8t26.5 21t8.5 37.5
q0 38 -25.5 51t-68.5 13h-90v-132zM252 138v434h168q148 0 148 -127q0 -55 -32 -84.5t-85 -35.5l124 -187h-66l-120 182h-71v-182h-66z" />
    <glyph glyph-name="macron" unicode="&#xaf;" horiz-adv-x="204" 
d="M-30 653v54h264v-54h-264z" />
    <glyph glyph-name="degree" unicode="&#xb0;" horiz-adv-x="400" 
d="M105 559q0 -39 28 -67t67 -28t67 28t28 67t-28 67t-67 28t-67 -28t-28 -67zM51 559q0 65 42.5 107t106.5 42t106.5 -42t42.5 -107t-42.5 -107t-106.5 -42t-106.5 42t-42.5 107z" />
    <glyph glyph-name="plusminus" unicode="&#xb1;" horiz-adv-x="600" 
d="M47 0v66h506v-66h-506zM47 295v66h220v145h66v-145h220v-66h-220v-145h-66v145h-220z" />
    <glyph glyph-name="twosuperior" unicode="&#xb2;" horiz-adv-x="312" 
d="M282 280h-261q0 54 26.5 95t73.5 80l37 30q33 26 47.5 48t14.5 55q0 60 -66 60q-62 0 -62 -76h-72q0 136 139 136q60 0 96.5 -29.5t36.5 -84.5q0 -46 -19 -76.5t-62 -64.5l-62 -50q-34 -27 -47 -63h180v-60z" />
    <glyph glyph-name="threesuperior" unicode="&#xb3;" horiz-adv-x="312" 
d="M116 474v54h24q35 0 53.5 19t18.5 50q0 25 -14 41t-41 16q-62 0 -62 -69h-72q0 123 136 123q69 0 97 -33t28 -78q0 -34 -21.5 -59t-62.5 -33v-2q96 -15 96 -99q0 -61 -34 -96t-102 -35q-46 0 -77.5 15t-44.5 37.5t-17.5 38t-4.5 27.5v5h72q0 -27 17.5 -48t52.5 -21
q25 0 45.5 17.5t20.5 55.5q0 74 -80 74h-28z" />
    <glyph glyph-name="acute" unicode="&#xb4;" horiz-adv-x="204" 
d="M52 609l70 142h98l-108 -142h-60z" />
    <glyph glyph-name="mu" unicode="&#xb5;" 
d="M408 536v-536h-80v63h-2q-17 -36 -53.5 -56.5t-76.5 -20.5q-38 0 -57 14v-176h-84v712h84v-370q0 -21 2 -35t9 -33.5t24 -29.5t44 -10q40 0 73 27.5t33 80.5v370h84z" />
    <glyph glyph-name="paragraph" unicode="&#xb6;" horiz-adv-x="556" 
d="M411 -140v800h-100v-800h-66v462q-91 0 -150 53.5t-59 132.5q0 96 64.5 151t171.5 55h205v-854h-66z" />
    <glyph glyph-name="periodcentered" unicode="&#xb7;" horiz-adv-x="240" 
d="M64 327q0 23 16.5 39.5t39.5 16.5t39.5 -16.5t16.5 -39.5t-16.5 -39.5t-39.5 -16.5t-39.5 16.5t-16.5 39.5z" />
    <glyph glyph-name="cedilla" unicode="&#xb8;" horiz-adv-x="204" 
d="M-1 -190l15 34l12 -3q13 -3 28.5 -6t23.5 -3q55 0 55 39q0 17 -14 27t-33 10q-21 0 -40 -7l-15 18l59 81h42l-39 -54l2 -2q15 4 30 4q32 0 56 -17.5t24 -56.5q0 -35 -32 -59.5t-75 -24.5q-57 0 -99 20z" />
    <glyph glyph-name="onesuperior" unicode="&#xb9;" horiz-adv-x="312" 
d="M128 280v313h-96v48q52 0 81.5 13t31.5 54h49v-428h-66z" />
    <glyph glyph-name="ordmasculine" unicode="&#xba;" horiz-adv-x="289" 
d="M143 415q64 0 64 124q0 121 -64 121q-61 0 -61 -121q0 -124 61 -124zM143 708q130 0 130 -169q0 -172 -130 -172q-127 0 -127 172q0 169 127 169z" />
    <glyph glyph-name="guillemotright" unicode="&#xbb;" horiz-adv-x="389" 
d="M191 323v-78l-142 -143v88l94 94l-94 94v88zM340 323v-78l-142 -143v88l94 94l-94 94v88z" />
    <glyph glyph-name="onequarter" unicode="&#xbc;" horiz-adv-x="721" 
d="M32 593v48q52 0 81.5 13t31.5 54h49v-428h-66v313h-96zM93 -31l434 756h60l-434 -756h-60zM400 159l160 269h72v-275h47v-54h-47v-99h-66v99h-166v60zM454 153h112v185h-2z" />
    <glyph glyph-name="onehalf" unicode="&#xbd;" horiz-adv-x="721" 
d="M681 0h-261q0 54 26.5 95t73.5 80l37 30q33 26 47.5 48t14.5 55q0 60 -66 60q-62 0 -62 -76h-72q0 136 139 136q60 0 96.5 -29.5t36.5 -84.5q0 -46 -19 -76.5t-62 -64.5l-62 -50q-34 -27 -47 -63h180v-60zM30 593v48q52 0 81.5 13t31.5 54h49v-428h-66v313h-96zM74 -31
l434 756h60l-434 -756h-60z" />
    <glyph glyph-name="threequarters" unicode="&#xbe;" horiz-adv-x="721" 
d="M120 474v54h24q35 0 53.5 19t18.5 50q0 25 -14 41t-41 16q-62 0 -62 -69h-72q0 123 136 123q69 0 97 -33t28 -78q0 -34 -21.5 -59t-62.5 -33v-2q96 -15 96 -99q0 -61 -34 -96t-102 -35q-46 0 -77.5 15t-44.5 37.5t-17.5 38t-4.5 27.5v5h72q0 -27 17.5 -48t52.5 -21
q25 0 45.5 17.5t20.5 55.5q0 74 -80 74h-28zM145 -31l434 756h60l-434 -756h-60zM422 159l160 269h72v-275h47v-54h-47v-99h-66v99h-166v60zM476 153h112v185h-2z" />
    <glyph glyph-name="questiondown" unicode="&#xbf;" horiz-adv-x="444" 
d="M279 538v-96h-92v96h92zM325 34h84q0 -94 -47 -156t-139 -62q-88 0 -138 52.5t-50 135.5q0 80 50 141q9 9 40.5 44.5t37.5 43.5q32 41 32 100v19h78q0 -87 -19 -123q-11 -19 -29.5 -43t-42 -50.5t-29.5 -34.5q-30 -40 -30 -102q0 -47 25.5 -79t71.5 -32q105 0 105 146z
" />
    <glyph glyph-name="Agrave" unicode="&#xc0;" horiz-adv-x="500" 
d="M254 613l-99 -345h192l-91 345h-2zM-8 0l206 714h118l192 -714h-92l-51 196h-228l-53 -196h-92zM145 915h98l70 -142h-60z" />
    <glyph glyph-name="Aacute" unicode="&#xc1;" horiz-adv-x="500" 
d="M254 613l-99 -345h192l-91 345h-2zM-8 0l206 714h118l192 -714h-92l-51 196h-228l-53 -196h-92zM200 773l70 142h98l-108 -142h-60z" />
    <glyph glyph-name="Acircumflex" unicode="&#xc2;" horiz-adv-x="500" 
d="M254 613l-99 -345h192l-91 345h-2zM-8 0l206 714h118l192 -714h-92l-51 196h-228l-53 -196h-92zM118 773l101 142h77l100 -142h-78l-61 88l-61 -88h-78z" />
    <glyph glyph-name="Atilde" unicode="&#xc3;" horiz-adv-x="500" 
d="M254 613l-99 -345h192l-91 345h-2zM-8 0l206 714h118l192 -714h-92l-51 196h-228l-53 -196h-92zM351 903h54q0 -42 -23 -76.5t-63 -34.5q-24 0 -65.5 19t-49.5 19q-32 0 -39 -45h-54q0 45 27 78t66 33q25 0 60 -19q42 -19 52 -19q26 0 35 45z" />
    <glyph glyph-name="Adieresis" unicode="&#xc4;" horiz-adv-x="500" 
d="M254 613l-99 -345h192l-91 345h-2zM-8 0l206 714h118l192 -714h-92l-51 196h-228l-53 -196h-92zM298 794v101h78v-101h-78zM136 794v101h78v-101h-78z" />
    <glyph glyph-name="Aring" unicode="&#xc5;" horiz-adv-x="500" 
d="M254 613l-99 -345h192l-91 345h-2zM-8 0l206 714h118l192 -714h-92l-51 196h-228l-53 -196h-92zM200 844q0 -23 17 -40t40 -17t40 17t17 40t-17 40t-40 17t-40 -17t-17 -40zM158 844q0 42 28.5 70.5t70.5 28.5t70.5 -28.5t28.5 -70.5t-28.5 -70.5t-70.5 -28.5t-70.5 28.5
t-28.5 70.5z" />
    <glyph glyph-name="AE" unicode="&#xc6;" horiz-adv-x="722" 
d="M-8 0l276 714h418v-78h-266v-224h250v-78h-250v-256h278v-78h-366v196h-175l-73 -196h-92zM322 642l-140 -374h150v374h-10z" />
    <glyph glyph-name="Ccedilla" unicode="&#xc7;" horiz-adv-x="519" 
d="M161 -190l15 34l12 -3q13 -3 28.5 -6t23.5 -3q55 0 55 39q0 17 -14 27t-33 10q-21 0 -40 -7l-15 18l50 69q-53 6 -87 30q-63 46 -85.5 132t-22.5 207q0 60 5 108.5t19.5 99.5t39 85t67 56t99.5 22q205 0 211 -222h-92q-6 150 -119 150q-44 0 -72.5 -22t-42.5 -67
t-18.5 -92.5t-4.5 -117.5t4.5 -117.5t18.5 -92.5t42.5 -67t72.5 -22q38 0 64 16t38 46t17 58t6 67h92q-10 -180 -119 -238q-37 -19 -92 -21l-29 -40l2 -2q15 4 30 4q32 0 56 -17.5t24 -56.5q0 -35 -32 -59.5t-75 -24.5q-57 0 -99 20z" />
    <glyph glyph-name="Egrave" unicode="&#xc8;" 
d="M58 0v714h369v-78h-281v-224h265v-78h-265v-256h293v-78h-381zM137 915h98l70 -142h-60z" />
    <glyph glyph-name="Eacute" unicode="&#xc9;" 
d="M58 0v714h369v-78h-281v-224h265v-78h-265v-256h293v-78h-381zM217 773l70 142h98l-108 -142h-60z" />
    <glyph glyph-name="Ecircumflex" unicode="&#xca;" 
d="M58 0v714h369v-78h-281v-224h265v-78h-265v-256h293v-78h-381zM105 773l101 142h77l100 -142h-78l-61 88l-61 -88h-78z" />
    <glyph glyph-name="Edieresis" unicode="&#xcb;" 
d="M58 0v714h369v-78h-281v-224h265v-78h-265v-256h293v-78h-381zM289 794v101h78v-101h-78zM127 794v101h78v-101h-78z" />
    <glyph glyph-name="Igrave" unicode="&#xcc;" horiz-adv-x="204" 
d="M58 0v714h88v-714h-88zM-23 915h98l70 -142h-60z" />
    <glyph glyph-name="Iacute" unicode="&#xcd;" horiz-adv-x="204" 
d="M58 0v714h88v-714h-88zM59 773l70 142h98l-108 -142h-60z" />
    <glyph glyph-name="Icircumflex" unicode="&#xce;" horiz-adv-x="204" 
d="M58 0v714h88v-714h-88zM-38 773l101 142h77l100 -142h-78l-61 88l-61 -88h-78z" />
    <glyph glyph-name="Idieresis" unicode="&#xcf;" horiz-adv-x="204" 
d="M58 0v714h88v-714h-88zM143 794v101h78v-101h-78zM-19 794v101h78v-101h-78z" />
    <glyph glyph-name="Eth" unicode="&#xd0;" horiz-adv-x="556" 
d="M155 72h92q44 0 76 18t49.5 44.5t27.5 67t13 75t3 79.5q0 41 -1.5 69.5t-6.5 65t-16.5 61t-29.5 46.5t-47 33t-68 11h-92v-236h134v-66h-134v-268zM67 0v340h-58v66h58v308h191q64 0 110.5 -19t73 -49t42 -79t20 -96.5t4.5 -113.5q0 -357 -241 -357h-200z" />
    <glyph glyph-name="Ntilde" unicode="&#xd1;" horiz-adv-x="556" 
d="M58 0v714h114l236 -596h2v596h88v-714h-121l-229 578h-2v-578h-88zM369 903h54q0 -42 -23 -76.5t-63 -34.5q-24 0 -65.5 19t-49.5 19q-32 0 -39 -45h-54q0 45 27 78t66 33q25 0 60 -19q42 -19 52 -19q26 0 35 45z" />
    <glyph glyph-name="Ograve" unicode="&#xd2;" horiz-adv-x="556" 
d="M278 656q-44 0 -72.5 -22t-42.5 -67t-18.5 -92.5t-4.5 -117.5t4.5 -117.5t18.5 -92.5t42.5 -67t72.5 -22t72.5 22t42.5 67t18.5 92.5t4.5 117.5t-4.5 117.5t-18.5 92.5t-42.5 67t-72.5 22zM278 728q57 0 99.5 -22t67 -56t39 -85t19.5 -99.5t5 -108.5t-5 -108.5
t-19.5 -99.5t-39 -85t-67 -56t-99.5 -22t-99.5 22t-67 56t-39 85t-19.5 99.5t-5 108.5t5 108.5t19.5 99.5t39 85t67 56t99.5 22zM151 915h98l70 -142h-60z" />
    <glyph glyph-name="Oacute" unicode="&#xd3;" horiz-adv-x="556" 
d="M278 656q-44 0 -72.5 -22t-42.5 -67t-18.5 -92.5t-4.5 -117.5t4.5 -117.5t18.5 -92.5t42.5 -67t72.5 -22t72.5 22t42.5 67t18.5 92.5t4.5 117.5t-4.5 117.5t-18.5 92.5t-42.5 67t-72.5 22zM278 728q57 0 99.5 -22t67 -56t39 -85t19.5 -99.5t5 -108.5t-5 -108.5
t-19.5 -99.5t-39 -85t-67 -56t-99.5 -22t-99.5 22t-67 56t-39 85t-19.5 99.5t-5 108.5t5 108.5t19.5 99.5t39 85t67 56t99.5 22zM238 773l70 142h98l-108 -142h-60z" />
    <glyph glyph-name="Ocircumflex" unicode="&#xd4;" horiz-adv-x="556" 
d="M278 656q-44 0 -72.5 -22t-42.5 -67t-18.5 -92.5t-4.5 -117.5t4.5 -117.5t18.5 -92.5t42.5 -67t72.5 -22t72.5 22t42.5 67t18.5 92.5t4.5 117.5t-4.5 117.5t-18.5 92.5t-42.5 67t-72.5 22zM278 728q57 0 99.5 -22t67 -56t39 -85t19.5 -99.5t5 -108.5t-5 -108.5
t-19.5 -99.5t-39 -85t-67 -56t-99.5 -22t-99.5 22t-67 56t-39 85t-19.5 99.5t-5 108.5t5 108.5t19.5 99.5t39 85t67 56t99.5 22zM139 773l101 142h77l100 -142h-78l-61 88l-61 -88h-78z" />
    <glyph glyph-name="Otilde" unicode="&#xd5;" horiz-adv-x="556" 
d="M278 656q-44 0 -72.5 -22t-42.5 -67t-18.5 -92.5t-4.5 -117.5t4.5 -117.5t18.5 -92.5t42.5 -67t72.5 -22t72.5 22t42.5 67t18.5 92.5t4.5 117.5t-4.5 117.5t-18.5 92.5t-42.5 67t-72.5 22zM278 728q57 0 99.5 -22t67 -56t39 -85t19.5 -99.5t5 -108.5t-5 -108.5
t-19.5 -99.5t-39 -85t-67 -56t-99.5 -22t-99.5 22t-67 56t-39 85t-19.5 99.5t-5 108.5t5 108.5t19.5 99.5t39 85t67 56t99.5 22zM369 903h54q0 -42 -23 -76.5t-63 -34.5q-24 0 -65.5 19t-49.5 19q-32 0 -39 -45h-54q0 45 27 78t66 33q25 0 60 -19q42 -19 52 -19q26 0 35 45z
" />
    <glyph glyph-name="Odieresis" unicode="&#xd6;" horiz-adv-x="556" 
d="M278 656q-44 0 -72.5 -22t-42.5 -67t-18.5 -92.5t-4.5 -117.5t4.5 -117.5t18.5 -92.5t42.5 -67t72.5 -22t72.5 22t42.5 67t18.5 92.5t4.5 117.5t-4.5 117.5t-18.5 92.5t-42.5 67t-72.5 22zM278 728q57 0 99.5 -22t67 -56t39 -85t19.5 -99.5t5 -108.5t-5 -108.5
t-19.5 -99.5t-39 -85t-67 -56t-99.5 -22t-99.5 22t-67 56t-39 85t-19.5 99.5t-5 108.5t5 108.5t19.5 99.5t39 85t67 56t99.5 22zM321 794v101h78v-101h-78zM159 794v101h78v-101h-78z" />
    <glyph glyph-name="multiply" unicode="&#xd7;" horiz-adv-x="600" 
d="M480 30l-180 180l-181 -180l-42 42l181 181l-181 181l42 42l181 -180l180 180l43 -42l-181 -181l181 -181z" />
    <glyph glyph-name="Oslash" unicode="&#xd8;" horiz-adv-x="556" 
d="M88 -24l33 80q-73 85 -73 301q0 60 5 108.5t19.5 99.5t39 85t67 56t99.5 22q68 0 111 -28l24 59l54 -22l-32 -77q73 -90 73 -303q0 -60 -5 -108.5t-19.5 -99.5t-39 -85t-67 -56t-99.5 -22q-66 0 -110 28l-26 -62zM395 562l-196 -474q30 -30 79 -30q44 0 72.5 22t42.5 67
t18.5 92.5t4.5 117.5q0 140 -21 205zM161 153l197 473q-30 30 -80 30q-44 0 -72.5 -22t-42.5 -67t-18.5 -92.5t-4.5 -117.5q0 -136 21 -204z" />
    <glyph glyph-name="Ugrave" unicode="&#xd9;" horiz-adv-x="519" 
d="M50 212v502h88v-502q0 -80 28 -117t93 -37q67 0 94.5 37.5t27.5 116.5v502h88v-502q0 -105 -53.5 -165.5t-156.5 -60.5q-209 0 -209 226zM131 915h98l70 -142h-60z" />
    <glyph glyph-name="Uacute" unicode="&#xda;" horiz-adv-x="519" 
d="M50 212v502h88v-502q0 -80 28 -117t93 -37q67 0 94.5 37.5t27.5 116.5v502h88v-502q0 -105 -53.5 -165.5t-156.5 -60.5q-209 0 -209 226zM223 773l70 142h98l-108 -142h-60z" />
    <glyph glyph-name="Ucircumflex" unicode="&#xdb;" horiz-adv-x="519" 
d="M50 212v502h88v-502q0 -80 28 -117t93 -37q67 0 94.5 37.5t27.5 116.5v502h88v-502q0 -105 -53.5 -165.5t-156.5 -60.5q-209 0 -209 226zM122 773l101 142h77l100 -142h-78l-61 88l-61 -88h-78z" />
    <glyph glyph-name="Udieresis" unicode="&#xdc;" horiz-adv-x="519" 
d="M50 212v502h88v-502q0 -80 28 -117t93 -37q67 0 94.5 37.5t27.5 116.5v502h88v-502q0 -105 -53.5 -165.5t-156.5 -60.5q-209 0 -209 226zM301 794v101h78v-101h-78zM139 794v101h78v-101h-78z" />
    <glyph glyph-name="Yacute" unicode="&#xdd;" horiz-adv-x="462" 
d="M187 280l-189 434h97l136 -334l141 334h92l-189 -434v-280h-88v280zM196 773l70 142h98l-108 -142h-60z" />
    <glyph glyph-name="Thorn" unicode="&#xde;" horiz-adv-x="481" 
d="M146 502v-268h105q51 0 84.5 35.5t33.5 103.5q0 129 -124 129h-99zM58 0v714h88v-140h94q19 0 31.5 -0.5t38.5 -4.5t43.5 -11t39.5 -22.5t35.5 -36.5t23 -54.5t9.5 -75.5q0 -98 -56.5 -152.5t-149.5 -54.5h-109v-162h-88z" />
    <glyph glyph-name="germandbls" unicode="&#xdf;" 
d="M48 0v511q0 102 39 156.5t138 54.5q76 0 124 -41t48 -122q0 -52 -27.5 -95t-78.5 -52v-2q68 0 105.5 -53.5t37.5 -132.5q0 -90 -45.5 -157t-133.5 -67h-59v72h58q35 0 57 27.5t28.5 59t6.5 65.5q0 69 -28.5 109.5t-78.5 40.5q-29 0 -40 -3v69h20q40 0 67 27.5t27 77.5
q0 46 -20 78.5t-68 32.5q-25 0 -43 -8t-27.5 -19.5t-15 -30.5t-6.5 -34.5t-1 -38.5v-525h-84z" />
    <glyph glyph-name="agrave" unicode="&#xe0;" horiz-adv-x="444" 
d="M301 154v138q-18 -18 -73 -35.5t-70 -27.5q-41 -26 -41 -85q0 -92 76 -92q43 0 75.5 30.5t32.5 71.5zM126 374h-84q0 92 42.5 134t137.5 42q47 0 79.5 -11.5t48.5 -26t24.5 -39t9.5 -39t1 -38.5v-299q0 -16 0.5 -22.5t6.5 -13.5t19 -7t20 5v-60q-35 -5 -49 -5
q-16 0 -25 1.5t-22.5 7t-20.5 21t-8 39.5h-2q-20 -36 -55 -56.5t-74 -20.5q-73 0 -109.5 41t-36.5 115q0 117 101 148l113 34q43 13 52 28t9 53q0 79 -86 79q-92 0 -92 -105v-5zM112 751h98l70 -142h-60z" />
    <glyph glyph-name="aacute" unicode="&#xe1;" horiz-adv-x="444" 
d="M301 154v138q-18 -18 -73 -35.5t-70 -27.5q-41 -26 -41 -85q0 -92 76 -92q43 0 75.5 30.5t32.5 71.5zM126 374h-84q0 92 42.5 134t137.5 42q47 0 79.5 -11.5t48.5 -26t24.5 -39t9.5 -39t1 -38.5v-299q0 -16 0.5 -22.5t6.5 -13.5t19 -7t20 5v-60q-35 -5 -49 -5
q-16 0 -25 1.5t-22.5 7t-20.5 21t-8 39.5h-2q-20 -36 -55 -56.5t-74 -20.5q-73 0 -109.5 41t-36.5 115q0 117 101 148l113 34q43 13 52 28t9 53q0 79 -86 79q-92 0 -92 -105v-5zM188 609l70 142h98l-108 -142h-60z" />
    <glyph glyph-name="acircumflex" unicode="&#xe2;" horiz-adv-x="444" 
d="M301 154v138q-18 -18 -73 -35.5t-70 -27.5q-41 -26 -41 -85q0 -92 76 -92q43 0 75.5 30.5t32.5 71.5zM126 374h-84q0 92 42.5 134t137.5 42q47 0 79.5 -11.5t48.5 -26t24.5 -39t9.5 -39t1 -38.5v-299q0 -16 0.5 -22.5t6.5 -13.5t19 -7t20 5v-60q-35 -5 -49 -5
q-16 0 -25 1.5t-22.5 7t-20.5 21t-8 39.5h-2q-20 -36 -55 -56.5t-74 -20.5q-73 0 -109.5 41t-36.5 115q0 117 101 148l113 34q43 13 52 28t9 53q0 79 -86 79q-92 0 -92 -105v-5zM84 609l101 142h77l100 -142h-78l-61 88l-61 -88h-78z" />
    <glyph glyph-name="atilde" unicode="&#xe3;" horiz-adv-x="444" 
d="M301 154v138q-18 -18 -73 -35.5t-70 -27.5q-41 -26 -41 -85q0 -92 76 -92q43 0 75.5 30.5t32.5 71.5zM126 374h-84q0 92 42.5 134t137.5 42q47 0 79.5 -11.5t48.5 -26t24.5 -39t9.5 -39t1 -38.5v-299q0 -16 0.5 -22.5t6.5 -13.5t19 -7t20 5v-60q-35 -5 -49 -5
q-16 0 -25 1.5t-22.5 7t-20.5 21t-8 39.5h-2q-20 -36 -55 -56.5t-74 -20.5q-73 0 -109.5 41t-36.5 115q0 117 101 148l113 34q43 13 52 28t9 53q0 79 -86 79q-92 0 -92 -105v-5zM312 739h54q0 -42 -23 -76.5t-63 -34.5q-24 0 -65.5 19t-49.5 19q-31 0 -39 -45h-54
q0 45 27 78t66 33q25 0 60 -19q42 -19 52 -19q26 0 35 45z" />
    <glyph glyph-name="adieresis" unicode="&#xe4;" horiz-adv-x="444" 
d="M301 154v138q-18 -18 -73 -35.5t-70 -27.5q-41 -26 -41 -85q0 -92 76 -92q43 0 75.5 30.5t32.5 71.5zM126 374h-84q0 92 42.5 134t137.5 42q47 0 79.5 -11.5t48.5 -26t24.5 -39t9.5 -39t1 -38.5v-299q0 -16 0.5 -22.5t6.5 -13.5t19 -7t20 5v-60q-35 -5 -49 -5
q-16 0 -25 1.5t-22.5 7t-20.5 21t-8 39.5h-2q-20 -36 -55 -56.5t-74 -20.5q-73 0 -109.5 41t-36.5 115q0 117 101 148l113 34q43 13 52 28t9 53q0 79 -86 79q-92 0 -92 -105v-5zM263 630v101h78v-101h-78zM101 630v101h78v-101h-78z" />
    <glyph glyph-name="aring" unicode="&#xe5;" horiz-adv-x="444" 
d="M301 154v138q-18 -18 -73 -35.5t-70 -27.5q-41 -26 -41 -85q0 -92 76 -92q43 0 75.5 30.5t32.5 71.5zM126 374h-84q0 92 42.5 134t137.5 42q47 0 79.5 -11.5t48.5 -26t24.5 -39t9.5 -39t1 -38.5v-299q0 -16 0.5 -22.5t6.5 -13.5t19 -7t20 5v-60q-35 -5 -49 -5
q-16 0 -25 1.5t-22.5 7t-20.5 21t-8 39.5h-2q-20 -36 -55 -56.5t-74 -20.5q-73 0 -109.5 41t-36.5 115q0 117 101 148l113 34q43 13 52 28t9 53q0 79 -86 79q-92 0 -92 -105v-5zM164 690q0 -23 17 -40t40 -17t40 17t17 40t-17 40t-40 17t-40 -17t-17 -40zM122 690
q0 42 28.5 70.5t70.5 28.5t70.5 -28.5t28.5 -70.5t-28.5 -70.5t-70.5 -28.5t-70.5 28.5t-28.5 70.5z" />
    <glyph glyph-name="ae" unicode="&#xe6;" horiz-adv-x="667" 
d="M290 174v94v11h-2q-4 -7 -31.5 -17t-59.5 -19.5t-39 -12.5q-44 -17 -44 -85q0 -40 19 -66.5t56 -26.5q33 0 55.5 14.5t31.5 37.5t11.5 39t2.5 31zM553 176h84q0 -25 -8 -54.5t-25.5 -61.5t-53 -53t-82.5 -21q-39 0 -69 12t-44.5 30t-21.5 32t-9 24h-2q-46 -98 -149 -98
q-67 0 -107 42t-40 114q0 57 26.5 95t75.5 53l125 38q23 8 30 24.5t7 52.5q0 79 -80 79q-86 0 -86 -105v-5h-84q0 92 42.5 134t133.5 42q52 0 85.5 -20t42.5 -54h2q14 33 50.5 53.5t75.5 20.5q44 0 76.5 -16.5t50 -40.5t27.5 -61t12.5 -68t2.5 -72v-34h-273q0 -34 0.5 -54.5
t5.5 -53t14.5 -51t28 -33t45.5 -14.5q28 0 47.5 13t28 34t12 39.5t3.5 37.5zM371 324h182v29q0 54 -20.5 92.5t-68.5 38.5q-29 0 -49 -16.5t-29 -42t-12 -45t-3 -36.5v-20z" />
    <glyph glyph-name="ccedilla" unicode="&#xe7;" horiz-adv-x="426" 
d="M109 -190l15 34l12 -3q13 -3 28.5 -6t23.5 -3q55 0 55 39q0 17 -14 27t-33 10q-21 0 -40 -7l-15 18l50 69q-79 8 -116 66q-43 67 -43 207q0 289 191 289q42 0 74 -13t50 -31.5t29 -44t14.5 -46.5t3.5 -42h-84q0 45 -20.5 78t-64.5 33q-22 0 -38.5 -7.5t-33 -29.5
t-25 -68.5t-8.5 -116.5q0 -30 1 -49.5t6 -53t15 -54.5t30.5 -37t49.5 -16q34 0 54.5 22.5t27 50t6.5 61.5h84q0 -55 -22 -104t-70 -77q-28 -16 -70 -18l-29 -41l2 -2q15 4 30 4q32 0 56 -17.5t24 -56.5q0 -35 -32 -59.5t-75 -24.5q-57 0 -99 20z" />
    <glyph glyph-name="egrave" unicode="&#xe8;" horiz-adv-x="444" 
d="M407 258h-282q0 -29 0.5 -45t3 -44.5t9.5 -45.5t17.5 -35.5t29 -27t43.5 -8.5q28 0 47.5 13t28 34t12 39.5t3.5 37.5h84q0 -19 -4.5 -41.5t-17 -49.5t-31.5 -48.5t-52 -36t-75 -14.5q-98 0 -142 67t-44 208q0 289 191 289q47 0 81.5 -16.5t52.5 -40.5t29 -61t13.5 -68
t2.5 -72v-34zM128 324h191v29q0 55 -21 93t-72 38q-31 0 -52 -16.5t-30 -42t-12.5 -45t-3.5 -36.5v-20zM107 751h98l70 -142h-60z" />
    <glyph glyph-name="eacute" unicode="&#xe9;" horiz-adv-x="444" 
d="M407 258h-282q0 -29 0.5 -45t3 -44.5t9.5 -45.5t17.5 -35.5t29 -27t43.5 -8.5q28 0 47.5 13t28 34t12 39.5t3.5 37.5h84q0 -19 -4.5 -41.5t-17 -49.5t-31.5 -48.5t-52 -36t-75 -14.5q-98 0 -142 67t-44 208q0 289 191 289q47 0 81.5 -16.5t52.5 -40.5t29 -61t13.5 -68
t2.5 -72v-34zM128 324h191v29q0 55 -21 93t-72 38q-31 0 -52 -16.5t-30 -42t-12.5 -45t-3.5 -36.5v-20zM196 609l70 142h98l-108 -142h-60z" />
    <glyph glyph-name="ecircumflex" unicode="&#xea;" horiz-adv-x="444" 
d="M407 258h-282q0 -29 0.5 -45t3 -44.5t9.5 -45.5t17.5 -35.5t29 -27t43.5 -8.5q28 0 47.5 13t28 34t12 39.5t3.5 37.5h84q0 -19 -4.5 -41.5t-17 -49.5t-31.5 -48.5t-52 -36t-75 -14.5q-98 0 -142 67t-44 208q0 289 191 289q47 0 81.5 -16.5t52.5 -40.5t29 -61t13.5 -68
t2.5 -72v-34zM128 324h191v29q0 55 -21 93t-72 38q-31 0 -52 -16.5t-30 -42t-12.5 -45t-3.5 -36.5v-20zM89 609l101 142h77l100 -142h-78l-61 88l-61 -88h-78z" />
    <glyph glyph-name="edieresis" unicode="&#xeb;" horiz-adv-x="444" 
d="M407 258h-282q0 -29 0.5 -45t3 -44.5t9.5 -45.5t17.5 -35.5t29 -27t43.5 -8.5q28 0 47.5 13t28 34t12 39.5t3.5 37.5h84q0 -19 -4.5 -41.5t-17 -49.5t-31.5 -48.5t-52 -36t-75 -14.5q-98 0 -142 67t-44 208q0 289 191 289q47 0 81.5 -16.5t52.5 -40.5t29 -61t13.5 -68
t2.5 -72v-34zM128 324h191v29q0 55 -21 93t-72 38q-31 0 -52 -16.5t-30 -42t-12.5 -45t-3.5 -36.5v-20zM271 630v101h78v-101h-78zM109 630v101h78v-101h-78z" />
    <glyph glyph-name="igrave" unicode="&#xec;" horiz-adv-x="204" 
d="M60 0v536h84v-536h-84zM-25 751h98l70 -142h-60z" />
    <glyph glyph-name="iacute" unicode="&#xed;" horiz-adv-x="204" 
d="M60 0v536h84v-536h-84zM60 609l70 142h98l-108 -142h-60z" />
    <glyph glyph-name="icircumflex" unicode="&#xee;" horiz-adv-x="204" 
d="M60 0v536h84v-536h-84zM-37 609l101 142h77l100 -142h-78l-61 88l-61 -88h-78z" />
    <glyph glyph-name="idieresis" unicode="&#xef;" horiz-adv-x="204" 
d="M60 0v536h84v-536h-84zM144 630v101h78v-101h-78zM-18 630v101h78v-101h-78z" />
    <glyph glyph-name="eth" unicode="&#xf0;" horiz-adv-x="444" 
d="M120 595l-38 42l71 40q-21 21 -77 67l64 28q18 -14 72 -61l74 42l38 -42l-70 -40q81 -81 121 -175t40 -228q0 -282 -193 -282t-193 282q0 58 8.5 103.5t29.5 84t60 59.5t95 21q32 0 59 -17h2q-47 72 -90 117zM220 470q-103 0 -103 -202q0 -48 4 -83.5t15 -67.5t32 -48.5
t52 -16.5q61 0 84 57.5t23 158.5q0 202 -107 202z" />
    <glyph glyph-name="ntilde" unicode="&#xf1;" 
d="M55 0v536h80v-63h2q17 36 53.5 56.5t76.5 20.5t68.5 -12.5t42 -28t21 -43t8.5 -43.5t1 -43v-380h-84v370q0 21 -2 35t-9 33.5t-24 29.5t-44 10q-40 0 -73 -27.5t-33 -80.5v-370h-84zM324 739h54q0 -42 -23 -76.5t-63 -34.5q-24 0 -65.5 19t-49.5 19q-31 0 -39 -45h-54
q0 45 27 78t66 33q25 0 60 -19q42 -19 52 -19q26 0 35 45z" />
    <glyph glyph-name="ograve" unicode="&#xf2;" horiz-adv-x="444" 
d="M29 268q0 282 193 282t193 -282t-193 -282t-193 282zM220 52q61 0 84 57.5t23 158.5q0 48 -4 83.5t-15 67.5t-33 48.5t-55 16.5q-31 0 -52 -17t-31.5 -48.5t-15 -67.5t-4.5 -83q0 -48 4 -83.5t15 -67.5t32 -48.5t52 -16.5zM91 751h98l70 -142h-60z" />
    <glyph glyph-name="oacute" unicode="&#xf3;" horiz-adv-x="444" 
d="M29 268q0 282 193 282t193 -282t-193 -282t-193 282zM220 52q61 0 84 57.5t23 158.5q0 48 -4 83.5t-15 67.5t-33 48.5t-55 16.5q-31 0 -52 -17t-31.5 -48.5t-15 -67.5t-4.5 -83q0 -48 4 -83.5t15 -67.5t32 -48.5t52 -16.5zM189 609l70 142h98l-108 -142h-60z" />
    <glyph glyph-name="ocircumflex" unicode="&#xf4;" horiz-adv-x="444" 
d="M29 268q0 282 193 282t193 -282t-193 -282t-193 282zM220 52q61 0 84 57.5t23 158.5q0 48 -4 83.5t-15 67.5t-33 48.5t-55 16.5q-31 0 -52 -17t-31.5 -48.5t-15 -67.5t-4.5 -83q0 -48 4 -83.5t15 -67.5t32 -48.5t52 -16.5zM83 609l101 142h77l100 -142h-78l-61 88
l-61 -88h-78z" />
    <glyph glyph-name="otilde" unicode="&#xf5;" horiz-adv-x="444" 
d="M29 268q0 282 193 282t193 -282t-193 -282t-193 282zM220 52q61 0 84 57.5t23 158.5q0 48 -4 83.5t-15 67.5t-33 48.5t-55 16.5q-31 0 -52 -17t-31.5 -48.5t-15 -67.5t-4.5 -83q0 -48 4 -83.5t15 -67.5t32 -48.5t52 -16.5zM315 739h54q0 -42 -23 -76.5t-63 -34.5
q-24 0 -65.5 19t-49.5 19q-32 0 -39 -45h-54q0 45 27 78t66 33q25 0 60 -19q42 -19 52 -19q26 0 35 45z" />
    <glyph glyph-name="odieresis" unicode="&#xf6;" horiz-adv-x="444" 
d="M29 268q0 282 193 282t193 -282t-193 -282t-193 282zM220 52q61 0 84 57.5t23 158.5q0 48 -4 83.5t-15 67.5t-33 48.5t-55 16.5q-31 0 -52 -17t-31.5 -48.5t-15 -67.5t-4.5 -83q0 -48 4 -83.5t15 -67.5t32 -48.5t52 -16.5zM264 630v101h78v-101h-78zM102 630v101h78v-101
h-78z" />
    <glyph glyph-name="divide" unicode="&#xf7;" horiz-adv-x="600" 
d="M244 42q0 23 16.5 39.5t39.5 16.5t39.5 -16.5t16.5 -39.5t-16.5 -39.5t-39.5 -16.5t-39.5 16.5t-16.5 39.5zM244 464q0 23 16.5 39.5t39.5 16.5t39.5 -16.5t16.5 -39.5t-16.5 -39.5t-39.5 -16.5t-39.5 16.5t-16.5 39.5zM47 220v66h506v-66h-506z" />
    <glyph glyph-name="oslash" unicode="&#xf8;" horiz-adv-x="444" 
d="M64 -40l32 76q-67 67 -67 232q0 282 193 282q50 0 84 -18l26 61l48 -21l-30 -71q65 -71 65 -233q0 -282 -193 -282q-50 0 -84 18l-27 -63zM134 126l143 337q-24 21 -57 21q-31 0 -52 -17t-31.5 -48.5t-15 -67.5t-4.5 -83q0 -90 17 -142zM310 407l-143 -336q20 -19 53 -19
q61 0 84 57.5t23 158.5q0 88 -17 139z" />
    <glyph glyph-name="ugrave" unicode="&#xf9;" 
d="M408 536v-536h-80v63h-2q-17 -36 -53.5 -56.5t-76.5 -20.5t-68.5 12.5t-42 28t-21 43t-8.5 43.5t-1 43v380h84v-370q0 -21 2 -35t9 -33.5t24 -29.5t44 -10q40 0 73 27.5t33 80.5v370h84zM99 751h98l70 -142h-60z" />
    <glyph glyph-name="uacute" unicode="&#xfa;" 
d="M408 536v-536h-80v63h-2q-17 -36 -53.5 -56.5t-76.5 -20.5t-68.5 12.5t-42 28t-21 43t-8.5 43.5t-1 43v380h84v-370q0 -21 2 -35t9 -33.5t24 -29.5t44 -10q40 0 73 27.5t33 80.5v370h84zM195 609l70 142h98l-108 -142h-60z" />
    <glyph glyph-name="ucircumflex" unicode="&#xfb;" 
d="M408 536v-536h-80v63h-2q-17 -36 -53.5 -56.5t-76.5 -20.5t-68.5 12.5t-42 28t-21 43t-8.5 43.5t-1 43v380h84v-370q0 -21 2 -35t9 -33.5t24 -29.5t44 -10q40 0 73 27.5t33 80.5v370h84zM93 609l101 142h77l100 -142h-78l-61 88l-61 -88h-78z" />
    <glyph glyph-name="udieresis" unicode="&#xfc;" 
d="M408 536v-536h-80v63h-2q-17 -36 -53.5 -56.5t-76.5 -20.5t-68.5 12.5t-42 28t-21 43t-8.5 43.5t-1 43v380h84v-370q0 -21 2 -35t9 -33.5t24 -29.5t44 -10q40 0 73 27.5t33 80.5v370h84zM273 630v101h78v-101h-78zM111 630v101h78v-101h-78z" />
    <glyph glyph-name="yacute" unicode="&#xfd;" horiz-adv-x="406" 
d="M168 -11l-158 547h92l106 -430h2l94 430h92l-155 -572q-8 -28 -13.5 -43.5t-17 -37t-25 -32.5t-36 -19t-51.5 -8q-16 0 -61 3v66q18 -3 49 -3q46 0 66 52zM176 609l70 142h98l-108 -142h-60z" />
    <glyph glyph-name="thorn" unicode="&#xfe;" 
d="M55 -176v890h84v-239h2q9 32 43 53.5t69 21.5q175 0 175 -272q0 -40 -4.5 -77.5t-17 -77.5t-31.5 -69.5t-50.5 -48.5t-71.5 -19q-37 0 -67.5 20t-44.5 55h-2v-237h-84zM134 268q0 -210 108 -210q55 0 76.5 54.5t21.5 165.5q0 97 -22 148.5t-76 51.5q-64 0 -86 -53
t-22 -157z" />
    <glyph glyph-name="ydieresis" unicode="&#xff;" horiz-adv-x="406" 
d="M168 -11l-158 547h92l106 -430h2l94 430h92l-155 -572q-8 -28 -13.5 -43.5t-17 -37t-25 -32.5t-36 -19t-51.5 -8q-16 0 -61 3v66q18 -3 49 -3q46 0 66 52zM252 630v101h78v-101h-78zM90 630v101h78v-101h-78z" />
    <glyph glyph-name="Amacron" unicode="&#x100;" horiz-adv-x="500" 
d="M254 613l-99 -345h192l-91 345h-2zM-8 0l206 714h118l192 -714h-92l-51 196h-228l-53 -196h-92zM125 817v54h264v-54h-264z" />
    <glyph glyph-name="amacron" unicode="&#x101;" horiz-adv-x="444" 
d="M301 154v138q-18 -18 -73 -35.5t-70 -27.5q-41 -26 -41 -85q0 -92 76 -92q43 0 75.5 30.5t32.5 71.5zM126 374h-84q0 92 42.5 134t137.5 42q47 0 79.5 -11.5t48.5 -26t24.5 -39t9.5 -39t1 -38.5v-299q0 -16 0.5 -22.5t6.5 -13.5t19 -7t20 5v-60q-35 -5 -49 -5
q-16 0 -25 1.5t-22.5 7t-20.5 21t-8 39.5h-2q-20 -36 -55 -56.5t-74 -20.5q-73 0 -109.5 41t-36.5 115q0 117 101 148l113 34q43 13 52 28t9 53q0 79 -86 79q-92 0 -92 -105v-5zM92 653v54h264v-54h-264z" />
    <glyph glyph-name="Abreve" unicode="&#x102;" horiz-adv-x="500" 
d="M254 613l-99 -345h192l-91 345h-2zM-8 0l206 714h118l192 -714h-92l-51 196h-228l-53 -196h-92zM133 890h48q0 -26 24.5 -46.5t52.5 -20.5t52.5 20.5t24.5 46.5h48q0 -43 -29.5 -85t-95.5 -42t-95.5 42t-29.5 85z" />
    <glyph glyph-name="abreve" unicode="&#x103;" horiz-adv-x="444" 
d="M301 154v138q-18 -18 -73 -35.5t-70 -27.5q-41 -26 -41 -85q0 -92 76 -92q43 0 75.5 30.5t32.5 71.5zM126 374h-84q0 92 42.5 134t137.5 42q47 0 79.5 -11.5t48.5 -26t24.5 -39t9.5 -39t1 -38.5v-299q0 -16 0.5 -22.5t6.5 -13.5t19 -7t20 5v-60q-35 -5 -49 -5
q-16 0 -25 1.5t-22.5 7t-20.5 21t-8 39.5h-2q-20 -36 -55 -56.5t-74 -20.5q-73 0 -109.5 41t-36.5 115q0 117 101 148l113 34q43 13 52 28t9 53q0 79 -86 79q-92 0 -92 -105v-5zM96 744h48q0 -26 24.5 -46.5t52.5 -20.5t52.5 20.5t24.5 46.5h48q0 -43 -29.5 -85t-95.5 -42
t-95.5 42t-29.5 85z" />
    <glyph glyph-name="Aogonek" unicode="&#x104;" horiz-adv-x="500" 
d="M508 0h-39q-61 -45 -82.5 -73t-21.5 -52q0 -38 40 -38q33 0 66 16l18 -35q-46 -28 -102 -28q-94 0 -94 78q0 74 123 132l-51 196h-228l-53 -196h-92l206 714h118zM254 613l-99 -345h192l-91 345h-2z" />
    <glyph glyph-name="aogonek" unicode="&#x105;" horiz-adv-x="444" 
d="M126 374h-84q0 92 42.5 134t137.5 42q47 0 79.5 -11.5t48.5 -26t24.5 -39t9.5 -39t1 -38.5v-299q0 -16 0.5 -22.5t6.5 -13.5t19 -7t20 5v-60q-4 -1 -19 -3l-8 -1q-29 -21 -46 -37q-51 -47 -51 -83q0 -38 40 -38q33 0 66 16l18 -35q-46 -28 -102 -28q-94 0 -94 78
q0 73 115 128q-10 2 -17 6q-26 18 -27 61h-2q-20 -36 -55 -56.5t-74 -20.5q-73 0 -109.5 41t-36.5 115q0 117 101 148l113 34q43 13 52 28t9 53q0 79 -86 79q-92 0 -92 -105v-5zM301 154v138q-18 -18 -73 -35.5t-70 -27.5q-41 -26 -41 -85q0 -92 76 -92q43 0 75.5 30.5
t32.5 71.5z" />
    <glyph glyph-name="Cacute" unicode="&#x106;" horiz-adv-x="519" 
d="M403 245h92q-7 -115 -58 -187t-159 -72q-59 0 -102 22t-67 56t-38.5 85.5t-18.5 99t-4 108.5q0 60 5 108.5t19.5 99.5t39 85t67 56t99.5 22q205 0 211 -222h-92q-6 150 -119 150q-44 0 -72.5 -22t-42.5 -67t-18.5 -92.5t-4.5 -117.5t4.5 -117.5t18.5 -92.5t42.5 -67
t72.5 -22q38 0 64 16t38 46t17 58t6 67zM248 773l70 142h98l-108 -142h-60z" />
    <glyph glyph-name="cacute" unicode="&#x107;" horiz-adv-x="426" 
d="M394 373h-84q0 45 -20.5 78t-64.5 33q-22 0 -38.5 -7.5t-33 -29.5t-25 -68.5t-8.5 -116.5q0 -30 1 -49.5t6 -53t15 -54.5t30.5 -37t49.5 -16q34 0 54.5 22.5t27 50t6.5 61.5h84q0 -34 -9 -67t-28 -64t-55 -50t-84 -19q-98 0 -142 67t-44 208q0 289 191 289q42 0 74 -13
t50 -31.5t29 -44t14.5 -46.5t3.5 -42zM194 609l70 142h98l-108 -142h-60z" />
    <glyph glyph-name="Ccircumflex" unicode="&#x108;" horiz-adv-x="519" 
d="M403 245h92q-7 -115 -58 -187t-159 -72q-59 0 -102 22t-67 56t-38.5 85.5t-18.5 99t-4 108.5q0 60 5 108.5t19.5 99.5t39 85t67 56t99.5 22q205 0 211 -222h-92q-6 150 -119 150q-44 0 -72.5 -22t-42.5 -67t-18.5 -92.5t-4.5 -117.5t4.5 -117.5t18.5 -92.5t42.5 -67
t72.5 -22q38 0 64 16t38 46t17 58t6 67zM141 773l101 142h77l100 -142h-78l-61 88l-61 -88h-78z" />
    <glyph glyph-name="ccircumflex" unicode="&#x109;" horiz-adv-x="426" 
d="M394 373h-84q0 45 -20.5 78t-64.5 33q-22 0 -38.5 -7.5t-33 -29.5t-25 -68.5t-8.5 -116.5q0 -30 1 -49.5t6 -53t15 -54.5t30.5 -37t49.5 -16q34 0 54.5 22.5t27 50t6.5 61.5h84q0 -34 -9 -67t-28 -64t-55 -50t-84 -19q-98 0 -142 67t-44 208q0 289 191 289q42 0 74 -13
t50 -31.5t29 -44t14.5 -46.5t3.5 -42zM87 609l101 142h77l100 -142h-78l-61 88l-61 -88h-78z" />
    <glyph glyph-name="Cdotaccent" unicode="&#x10a;" horiz-adv-x="519" 
d="M403 245h92q-7 -115 -58 -187t-159 -72q-59 0 -102 22t-67 56t-38.5 85.5t-18.5 99t-4 108.5q0 60 5 108.5t19.5 99.5t39 85t67 56t99.5 22q205 0 211 -222h-92q-6 150 -119 150q-44 0 -72.5 -22t-42.5 -67t-18.5 -92.5t-4.5 -117.5t4.5 -117.5t18.5 -92.5t42.5 -67
t72.5 -22q38 0 64 16t38 46t17 58t6 67zM240 794v101h78v-101h-78z" />
    <glyph glyph-name="cdotaccent" unicode="&#x10b;" horiz-adv-x="426" 
d="M394 373h-84q0 45 -20.5 78t-64.5 33q-22 0 -38.5 -7.5t-33 -29.5t-25 -68.5t-8.5 -116.5q0 -30 1 -49.5t6 -53t15 -54.5t30.5 -37t49.5 -16q34 0 54.5 22.5t27 50t6.5 61.5h84q0 -34 -9 -67t-28 -64t-55 -50t-84 -19q-98 0 -142 67t-44 208q0 289 191 289q42 0 74 -13
t50 -31.5t29 -44t14.5 -46.5t3.5 -42zM186 630v101h78v-101h-78z" />
    <glyph glyph-name="Ccaron" unicode="&#x10c;" horiz-adv-x="519" 
d="M403 245h92q-7 -115 -58 -187t-159 -72q-59 0 -102 22t-67 56t-38.5 85.5t-18.5 99t-4 108.5q0 60 5 108.5t19.5 99.5t39 85t67 56t99.5 22q205 0 211 -222h-92q-6 150 -119 150q-44 0 -72.5 -22t-42.5 -67t-18.5 -92.5t-4.5 -117.5t4.5 -117.5t18.5 -92.5t42.5 -67
t72.5 -22q38 0 64 16t38 46t17 58t6 67zM416 915l-101 -142h-77l-100 142h78l61 -88l61 88h78z" />
    <glyph glyph-name="ccaron" unicode="&#x10d;" horiz-adv-x="426" 
d="M394 373h-84q0 45 -20.5 78t-64.5 33q-22 0 -38.5 -7.5t-33 -29.5t-25 -68.5t-8.5 -116.5q0 -30 1 -49.5t6 -53t15 -54.5t30.5 -37t49.5 -16q34 0 54.5 22.5t27 50t6.5 61.5h84q0 -34 -9 -67t-28 -64t-55 -50t-84 -19q-98 0 -142 67t-44 208q0 289 191 289q42 0 74 -13
t50 -31.5t29 -44t14.5 -46.5t3.5 -42zM359 751l-101 -142h-77l-100 142h78l61 -88l61 88h78z" />
    <glyph glyph-name="Dcaron" unicode="&#x10e;" horiz-adv-x="556" 
d="M67 0v714h191q64 0 110.5 -19t73 -49t42 -79t20 -96.5t4.5 -113.5q0 -357 -241 -357h-200zM155 642v-570h92q44 0 76 18t49.5 44.5t27.5 67t13 75t3 79.5q0 41 -1.5 69.5t-6.5 65t-16.5 61t-29.5 46.5t-47 33t-68 11h-92zM390 915l-101 -142h-77l-100 142h78l61 -88
l61 88h78z" />
    <glyph glyph-name="dcaron" unicode="&#x10f;" horiz-adv-x="524" 
d="M408 714v-714h-80v66h-2q-9 -32 -41.5 -56t-74.5 -24q-175 0 -175 282t169 282q37 0 70.5 -20.5t47.5 -54.5h2v239h84zM123 268q0 -104 21.5 -157t76.5 -53q64 0 86 53t22 157q0 210 -108 210q-55 0 -76.5 -53t-21.5 -157zM451 572l26 142h87l-59 -142h-54z" />
    <glyph glyph-name="Dcroat" unicode="&#x110;" horiz-adv-x="556" 
d="M155 72h92q44 0 76 18t49.5 44.5t27.5 67t13 75t3 79.5q0 41 -1.5 69.5t-6.5 65t-16.5 61t-29.5 46.5t-47 33t-68 11h-92v-236h134v-66h-134v-268zM67 0v340h-58v66h58v308h191q64 0 110.5 -19t73 -49t42 -79t20 -96.5t4.5 -113.5q0 -357 -241 -357h-200z" />
    <glyph glyph-name="dcroat" unicode="&#x111;" horiz-adv-x="478" 
d="M408 591v-591h-80v66h-2q-9 -32 -41.5 -56t-74.5 -24q-175 0 -175 282t169 282q37 0 70.5 -20.5t47.5 -54.5h2v116h-102v49h102v74h84v-74h78v-49h-78zM123 268q0 -104 21.5 -157t76.5 -53q64 0 86 53t22 157q0 210 -108 210q-55 0 -76.5 -53t-21.5 -157z" />
    <glyph glyph-name="Emacron" unicode="&#x112;" 
d="M58 0v714h369v-78h-281v-224h265v-78h-265v-256h293v-78h-381zM115 817v54h264v-54h-264z" />
    <glyph glyph-name="emacron" unicode="&#x113;" horiz-adv-x="444" 
d="M407 258h-282q0 -29 0.5 -45t3 -44.5t9.5 -45.5t17.5 -35.5t29 -27t43.5 -8.5q28 0 47.5 13t28 34t12 39.5t3.5 37.5h84q0 -19 -4.5 -41.5t-17 -49.5t-31.5 -48.5t-52 -36t-75 -14.5q-98 0 -142 67t-44 208q0 289 191 289q47 0 81.5 -16.5t52.5 -40.5t29 -61t13.5 -68
t2.5 -72v-34zM128 324h191v29q0 55 -21 93t-72 38q-31 0 -52 -16.5t-30 -42t-12.5 -45t-3.5 -36.5v-20zM97 653v54h264v-54h-264z" />
    <glyph glyph-name="Ebreve" unicode="&#x114;" 
d="M58 0v714h369v-78h-281v-224h265v-78h-265v-256h293v-78h-381zM115 908h48q0 -26 24.5 -46.5t52.5 -20.5t52.5 20.5t24.5 46.5h48q0 -43 -29.5 -85t-95.5 -42t-95.5 42t-29.5 85z" />
    <glyph glyph-name="ebreve" unicode="&#x115;" horiz-adv-x="444" 
d="M407 258h-282q0 -29 0.5 -45t3 -44.5t9.5 -45.5t17.5 -35.5t29 -27t43.5 -8.5q28 0 47.5 13t28 34t12 39.5t3.5 37.5h84q0 -19 -4.5 -41.5t-17 -49.5t-31.5 -48.5t-52 -36t-75 -14.5q-98 0 -142 67t-44 208q0 289 191 289q47 0 81.5 -16.5t52.5 -40.5t29 -61t13.5 -68
t2.5 -72v-34zM128 324h191v29q0 55 -21 93t-72 38q-31 0 -52 -16.5t-30 -42t-12.5 -45t-3.5 -36.5v-20zM105 744h48q0 -26 24.5 -46.5t52.5 -20.5t52.5 20.5t24.5 46.5h48q0 -43 -29.5 -85t-95.5 -42t-95.5 42t-29.5 85z" />
    <glyph glyph-name="Edotaccent" unicode="&#x116;" 
d="M58 0v714h369v-78h-281v-224h265v-78h-265v-256h293v-78h-381zM205 794v101h78v-101h-78z" />
    <glyph glyph-name="edotaccent" unicode="&#x117;" horiz-adv-x="444" 
d="M407 258h-282q0 -29 0.5 -45t3 -44.5t9.5 -45.5t17.5 -35.5t29 -27t43.5 -8.5q28 0 47.5 13t28 34t12 39.5t3.5 37.5h84q0 -19 -4.5 -41.5t-17 -49.5t-31.5 -48.5t-52 -36t-75 -14.5q-98 0 -142 67t-44 208q0 289 191 289q47 0 81.5 -16.5t52.5 -40.5t29 -61t13.5 -68
t2.5 -72v-34zM128 324h191v29q0 55 -21 93t-72 38q-31 0 -52 -16.5t-30 -42t-12.5 -45t-3.5 -36.5v-20zM189 630v101h78v-101h-78z" />
    <glyph glyph-name="Eogonek" unicode="&#x118;" 
d="M439 0h-20q-61 -45 -82.5 -73t-21.5 -52q0 -38 40 -38q33 0 66 16l18 -35q-46 -28 -102 -28q-94 0 -94 78q0 74 123 132h-308v714h369v-78h-281v-224h265v-78h-265v-256h293v-78z" />
    <glyph glyph-name="eogonek" unicode="&#x119;" horiz-adv-x="444" 
d="M407 258h-282q0 -29 0.5 -45t3 -44.5t9.5 -45.5t17.5 -35.5t29 -27t43.5 -8.5q28 0 47.5 13t28 34t12 39.5t3.5 37.5h84q0 -42 -21.5 -90.5t-68.5 -78.5q-12 -6 -19 -9q-34 -24 -50 -39q-48 -48 -48 -84q0 -38 40 -38q33 0 66 16l18 -35q-46 -28 -102 -28q-94 0 -94 78
q0 64 93 118q-95 2 -137 68q-43 67 -43 207q0 289 191 289q47 0 81.5 -16.5t52.5 -40.5t29 -61t13.5 -68t2.5 -72v-34zM128 324h191v29q0 55 -21 93t-72 38q-31 0 -52 -16.5t-30 -42t-12.5 -45t-3.5 -36.5v-20z" />
    <glyph glyph-name="Ecaron" unicode="&#x11a;" 
d="M58 0v714h369v-78h-281v-224h265v-78h-265v-256h293v-78h-381zM382 915l-101 -142h-77l-100 142h78l61 -88l61 88h78z" />
    <glyph glyph-name="ecaron" unicode="&#x11b;" horiz-adv-x="444" 
d="M407 258h-282q0 -29 0.5 -45t3 -44.5t9.5 -45.5t17.5 -35.5t29 -27t43.5 -8.5q28 0 47.5 13t28 34t12 39.5t3.5 37.5h84q0 -19 -4.5 -41.5t-17 -49.5t-31.5 -48.5t-52 -36t-75 -14.5q-98 0 -142 67t-44 208q0 289 191 289q47 0 81.5 -16.5t52.5 -40.5t29 -61t13.5 -68
t2.5 -72v-34zM128 324h191v29q0 55 -21 93t-72 38q-31 0 -52 -16.5t-30 -42t-12.5 -45t-3.5 -36.5v-20zM367 751l-101 -142h-77l-100 142h78l61 -88l61 88h78z" />
    <glyph glyph-name="Gcircumflex" unicode="&#x11c;" horiz-adv-x="537" 
d="M489 516h-92q-9 140 -119 140q-44 0 -72.5 -22t-42.5 -67t-18.5 -92.5t-4.5 -117.5t4.5 -117.5t18.5 -92.5t42.5 -67t72.5 -22q35 0 60.5 16.5t38.5 40t20.5 59.5t9.5 63t2 62h-141v72h221v-371h-66v97h-2q-15 -48 -56 -79.5t-98 -31.5q-54 0 -94.5 21t-64 54t-37.5 83
t-18.5 100t-4.5 113q0 60 5 108.5t19.5 99.5t39 85t67 56t99.5 22q58 0 100 -19t62.5 -44t32.5 -59t14 -53t2 -37zM142 773l101 142h77l100 -142h-78l-61 88l-61 -88h-78z" />
    <glyph glyph-name="gcircumflex" unicode="&#x11d;" 
d="M408 536v-502q0 -218 -182 -218q-163 0 -176 134h84q6 -68 86 -68q31 0 52.5 10t31 20.5t14.5 32t5.5 30t0.5 27.5v70h-2q-14 -33 -47.5 -52.5t-73.5 -19.5q-37 0 -66 14.5t-46.5 40t-29 52.5t-16.5 60.5t-6.5 55.5t-1.5 45q0 79 14.5 138.5t55 101.5t105.5 42
q43 0 75 -24t41 -58h2v68h80zM221 478q-55 0 -76.5 -53t-21.5 -157q0 -196 97 -196q44 0 69 27.5t32.5 67.5t7.5 101q0 210 -108 210zM98 609l101 142h77l100 -142h-78l-61 88l-61 -88h-78z" />
    <glyph glyph-name="Gbreve" unicode="&#x11e;" horiz-adv-x="537" 
d="M489 516h-92q-9 140 -119 140q-44 0 -72.5 -22t-42.5 -67t-18.5 -92.5t-4.5 -117.5t4.5 -117.5t18.5 -92.5t42.5 -67t72.5 -22q35 0 60.5 16.5t38.5 40t20.5 59.5t9.5 63t2 62h-141v72h221v-371h-66v97h-2q-15 -48 -56 -79.5t-98 -31.5q-54 0 -94.5 21t-64 54t-37.5 83
t-18.5 100t-4.5 113q0 60 5 108.5t19.5 99.5t39 85t67 56t99.5 22q58 0 100 -19t62.5 -44t32.5 -59t14 -53t2 -37zM157 908h48q0 -26 24.5 -46.5t52.5 -20.5t52.5 20.5t24.5 46.5h48q0 -43 -29.5 -85t-95.5 -42t-95.5 42t-29.5 85z" />
    <glyph glyph-name="gbreve" unicode="&#x11f;" 
d="M408 536v-502q0 -218 -182 -218q-163 0 -176 134h84q6 -68 86 -68q31 0 52.5 10t31 20.5t14.5 32t5.5 30t0.5 27.5v70h-2q-14 -33 -47.5 -52.5t-73.5 -19.5q-37 0 -66 14.5t-46.5 40t-29 52.5t-16.5 60.5t-6.5 55.5t-1.5 45q0 79 14.5 138.5t55 101.5t105.5 42
q43 0 75 -24t41 -58h2v68h80zM221 478q-55 0 -76.5 -53t-21.5 -157q0 -196 97 -196q44 0 69 27.5t32.5 67.5t7.5 101q0 210 -108 210zM118 744h48q0 -26 24.5 -46.5t52.5 -20.5t52.5 20.5t24.5 46.5h48q0 -43 -29.5 -85t-95.5 -42t-95.5 42t-29.5 85z" />
    <glyph glyph-name="Gdotaccent" unicode="&#x120;" horiz-adv-x="537" 
d="M489 516h-92q-9 140 -119 140q-44 0 -72.5 -22t-42.5 -67t-18.5 -92.5t-4.5 -117.5t4.5 -117.5t18.5 -92.5t42.5 -67t72.5 -22q35 0 60.5 16.5t38.5 40t20.5 59.5t9.5 63t2 62h-141v72h221v-371h-66v97h-2q-15 -48 -56 -79.5t-98 -31.5q-54 0 -94.5 21t-64 54t-37.5 83
t-18.5 100t-4.5 113q0 60 5 108.5t19.5 99.5t39 85t67 56t99.5 22q58 0 100 -19t62.5 -44t32.5 -59t14 -53t2 -37zM244 794v101h78v-101h-78z" />
    <glyph glyph-name="gdotaccent" unicode="&#x121;" 
d="M408 536v-502q0 -218 -182 -218q-163 0 -176 134h84q6 -68 86 -68q31 0 52.5 10t31 20.5t14.5 32t5.5 30t0.5 27.5v70h-2q-14 -33 -47.5 -52.5t-73.5 -19.5q-37 0 -66 14.5t-46.5 40t-29 52.5t-16.5 60.5t-6.5 55.5t-1.5 45q0 79 14.5 138.5t55 101.5t105.5 42
q43 0 75 -24t41 -58h2v68h80zM221 478q-55 0 -76.5 -53t-21.5 -157q0 -196 97 -196q44 0 69 27.5t32.5 67.5t7.5 101q0 210 -108 210zM200 630v101h78v-101h-78z" />
    <glyph glyph-name="Gcommaaccent" unicode="&#x122;" horiz-adv-x="537" 
d="M489 516h-92q-9 140 -119 140q-44 0 -72.5 -22t-42.5 -67t-18.5 -92.5t-4.5 -117.5t4.5 -117.5t18.5 -92.5t42.5 -67t72.5 -22q35 0 60.5 16.5t38.5 40t20.5 59.5t9.5 63t2 62h-141v72h221v-371h-66v97h-2q-15 -48 -56 -79.5t-98 -31.5q-54 0 -94.5 21t-64 54t-37.5 83
t-18.5 100t-4.5 113q0 60 5 108.5t19.5 99.5t39 85t67 56t99.5 22q58 0 100 -19t62.5 -44t32.5 -59t14 -53t2 -37zM233 -141v91h83v-80q0 -40 -19 -58.5t-59 -21.5v26q11 3 16.5 6t11 12t6.5 25h-39z" />
    <glyph glyph-name="gcommaaccent" unicode="&#x123;" 
d="M408 536v-502q0 -218 -182 -218q-163 0 -176 134h84q6 -68 86 -68q31 0 52.5 10t31 20.5t14.5 32t5.5 30t0.5 27.5v70h-2q-14 -33 -47.5 -52.5t-73.5 -19.5q-37 0 -66 14.5t-46.5 40t-29 52.5t-16.5 60.5t-6.5 55.5t-1.5 45q0 79 14.5 138.5t55 101.5t105.5 42
q43 0 75 -24t41 -58h2v68h80zM221 478q-55 0 -76.5 -53t-21.5 -157q0 -196 97 -196q44 0 69 27.5t32.5 67.5t7.5 101q0 210 -108 210zM270 714v-91h-83v85q0 69 78 75v-26q-11 -3 -16.5 -6t-11 -12t-6.5 -25h39z" />
    <glyph glyph-name="Hcircumflex" unicode="&#x124;" horiz-adv-x="537" 
d="M479 714v-714h-88v344h-245v-344h-88v714h88v-292h245v292h88zM131 773l101 142h77l100 -142h-78l-61 88l-61 -88h-78z" />
    <glyph glyph-name="hcircumflex" unicode="&#x125;" 
d="M55 0v714h84v-239h2q16 32 54 53.5t75 21.5q40 0 67.5 -12.5t41 -28t20.5 -43t8 -43t1 -43.5v-380h-84v370q0 21 -2 35t-9 33.5t-24 29.5t-44 10q-40 0 -73 -27.5t-33 -80.5v-370h-84zM93 773l101 142h77l100 -142h-78l-61 88l-61 -88h-78z" />
    <glyph glyph-name="Hbar" unicode="&#x126;" horiz-adv-x="537" 
d="M479 714v-714h-88v334h-245v-334h-88v714h88v-178h245v178h88zM146 412h245v75h-245v-75z" />
    <glyph glyph-name="hbar" unicode="&#x127;" horiz-adv-x="478" 
d="M-3 591v49h73v74h84v-74h107v-49h-107v-116h2q16 32 54 53.5t75 21.5q40 0 67.5 -12.5t41 -28t20.5 -43t8 -43t1 -43.5v-380h-84v370q0 21 -2 35t-9 33.5t-24 29.5t-44 10q-40 0 -73 -27.5t-33 -80.5v-370h-84v591h-73z" />
    <glyph glyph-name="Itilde" unicode="&#x128;" horiz-adv-x="204" 
d="M58 0v714h88v-714h-88zM195 903h54q0 -42 -23 -76.5t-63 -34.5q-24 0 -65.5 19t-49.5 19q-32 0 -39 -45h-54q0 45 27 78t66 33q25 0 60 -19q42 -19 52 -19q26 0 35 45z" />
    <glyph glyph-name="itilde" unicode="&#x129;" horiz-adv-x="204" 
d="M60 0v536h84v-536h-84zM195 739h54q0 -42 -23 -76.5t-63 -34.5q-24 0 -65.5 19t-49.5 19q-32 0 -39 -45h-54q0 45 27 78t66 33q25 0 60 -19q42 -19 52 -19q26 0 35 45z" />
    <glyph glyph-name="Imacron" unicode="&#x12a;" horiz-adv-x="204" 
d="M58 0v714h88v-714h-88zM-30 817v54h264v-54h-264z" />
    <glyph glyph-name="imacron" unicode="&#x12b;" horiz-adv-x="204" 
d="M60 0v536h84v-536h-84zM-30 653v54h264v-54h-264z" />
    <glyph glyph-name="Iogonek" unicode="&#x12e;" horiz-adv-x="204" 
d="M146 714v-714q-52 -45 -70 -72.5t-18 -52.5q0 -38 34 -38q27 0 56 16l15 -35q-39 -28 -87 -28q-80 0 -80 78q0 74 105 132h-43v714h88z" />
    <glyph glyph-name="iogonek" unicode="&#x12f;" horiz-adv-x="204" 
d="M144 536v-536q-53 -44 -71.5 -72t-18.5 -53q0 -38 35 -38q28 0 57 16l15 -35q-41 -28 -88 -28q-81 0 -81 78q0 74 106 132h-38v536h84zM60 618v96h84v-96h-84z" />
    <glyph glyph-name="Idotaccent" unicode="&#x130;" horiz-adv-x="204" 
d="M58 0v714h88v-714h-88zM63 794v101h78v-101h-78z" />
    <glyph glyph-name="dotlessi" unicode="&#x131;" horiz-adv-x="204" 
d="M60 0v536h84v-536h-84z" />
    <glyph glyph-name="Jcircumflex" unicode="&#x134;" horiz-adv-x="426" 
d="M368 714v-509q0 -106 -38 -162.5t-141 -56.5q-84 0 -125.5 46.5t-41.5 116.5v59h84v-52q0 -98 82 -98q56 0 74 34.5t18 115.5v506h88zM181 773l101 142h77l100 -142h-78l-61 88l-61 -88h-78z" />
    <glyph glyph-name="jcircumflex" unicode="&#x135;" horiz-adv-x="204" 
d="M144 536v-588q0 -67 -30 -99.5t-98 -32.5q-6 0 -12.5 0.5t-14.5 1.5t-12 1v72q2 0 13.5 -1.5t17.5 -1.5q19 0 30 6t15.5 21t5.5 26.5t1 36.5v558h84zM-40 609l101 142h77l100 -142h-78l-61 88l-61 -88h-78z" />
    <glyph glyph-name="Kcommaaccent" unicode="&#x136;" horiz-adv-x="500" 
d="M58 0v714h88v-346h2l247 346h98l-216 -298l234 -416h-98l-193 344l-74 -101v-243h-88zM214 -141v91h83v-80q0 -40 -19 -58.5t-59 -21.5v26q11 3 16.5 6t11 12t6.5 25h-39z" />
    <glyph glyph-name="kcommaaccent" unicode="&#x137;" horiz-adv-x="444" 
d="M264 334l191 -334h-98l-149 265l-69 -84v-181h-84v714h84v-425h2l188 247h98zM192 -141v91h83v-80q0 -40 -19 -58.5t-59 -21.5v26q11 3 16.5 6t11 12t6.5 25h-39z" />
    <glyph glyph-name="Lacute" unicode="&#x139;" horiz-adv-x="444" 
d="M58 0v714h88v-636h290v-78h-378zM70 773l70 142h98l-108 -142h-60z" />
    <glyph glyph-name="lacute" unicode="&#x13a;" horiz-adv-x="204" 
d="M60 0v714h84v-714h-84zM60 773l70 142h98l-108 -142h-60z" />
    <glyph glyph-name="Lcommaaccent" unicode="&#x13b;" horiz-adv-x="444" 
d="M58 0v714h88v-636h290v-78h-378zM198 -141v91h83v-80q0 -40 -19 -58.5t-59 -21.5v26q11 3 16.5 6t11 12t6.5 25h-39z" />
    <glyph glyph-name="lcommaaccent" unicode="&#x13c;" horiz-adv-x="204" 
d="M60 0v714h84v-714h-84zM61 -141v91h83v-80q0 -40 -19 -58.5t-59 -21.5v26q11 3 16.5 6t11 12t6.5 25h-39z" />
    <glyph glyph-name="Lcaron" unicode="&#x13d;" horiz-adv-x="444" 
d="M58 0v714h88v-636h290v-78h-378zM221 572l26 142h87l-59 -142h-54z" />
    <glyph glyph-name="lcaron" unicode="&#x13e;" horiz-adv-x="259" 
d="M60 0v714h84v-714h-84zM186 572l26 142h87l-59 -142h-54z" />
    <glyph glyph-name="Ldot" unicode="&#x13f;" horiz-adv-x="444" 
d="M58 0v714h88v-636h290v-78h-378zM237 435v101h78v-101h-78z" />
    <glyph glyph-name="ldot" unicode="&#x140;" horiz-adv-x="293" 
d="M60 0v714h84v-714h-84zM200 435v101h78v-101h-78z" />
    <glyph glyph-name="Lslash" unicode="&#x141;" horiz-adv-x="444" 
d="M-8 197v72l66 47v398h88v-335l194 139v-72l-194 -139v-229h290v-78h-378v244z" />
    <glyph glyph-name="lslash" unicode="&#x142;" horiz-adv-x="204" 
d="M60 0v276l-60 -64v78l60 64v360h84v-271l60 63v-78l-60 -63v-365h-84z" />
    <glyph glyph-name="Nacute" unicode="&#x143;" horiz-adv-x="556" 
d="M58 0v714h114l236 -596h2v596h88v-714h-121l-229 578h-2v-578h-88zM245 773l70 142h98l-108 -142h-60z" />
    <glyph glyph-name="nacute" unicode="&#x144;" 
d="M55 0v536h80v-63h2q17 36 53.5 56.5t76.5 20.5t68.5 -12.5t42 -28t21 -43t8.5 -43.5t1 -43v-380h-84v370q0 21 -2 35t-9 33.5t-24 29.5t-44 10q-40 0 -73 -27.5t-33 -80.5v-370h-84zM188 609l70 142h98l-108 -142h-60z" />
    <glyph glyph-name="Ncommaaccent" unicode="&#x145;" horiz-adv-x="556" 
d="M58 0v714h114l236 -596h2v596h88v-714h-121l-229 578h-2v-578h-88zM232 -141v91h83v-80q0 -40 -19 -58.5t-59 -21.5v26q11 3 16.5 6t11 12t6.5 25h-39z" />
    <glyph glyph-name="ncommaaccent" unicode="&#x146;" 
d="M55 0v536h80v-63h2q17 36 53.5 56.5t76.5 20.5t68.5 -12.5t42 -28t21 -43t8.5 -43.5t1 -43v-380h-84v370q0 21 -2 35t-9 33.5t-24 29.5t-44 10q-40 0 -73 -27.5t-33 -80.5v-370h-84zM190 -141v91h83v-80q0 -40 -19 -58.5t-59 -21.5v26q11 3 16.5 6t11 12t6.5 25h-39z" />
    <glyph glyph-name="Ncaron" unicode="&#x147;" horiz-adv-x="556" 
d="M58 0v714h114l236 -596h2v596h88v-714h-121l-229 578h-2v-578h-88zM416 915l-101 -142h-77l-100 142h78l61 -88l61 88h78z" />
    <glyph glyph-name="ncaron" unicode="&#x148;" 
d="M55 0v536h80v-63h2q17 36 53.5 56.5t76.5 20.5t68.5 -12.5t42 -28t21 -43t8.5 -43.5t1 -43v-380h-84v370q0 21 -2 35t-9 33.5t-24 29.5t-44 10q-40 0 -73 -27.5t-33 -80.5v-370h-84zM369 751l-101 -142h-77l-100 142h78l61 -88l61 88h78z" />
    <glyph glyph-name="Omacron" unicode="&#x14c;" horiz-adv-x="556" 
d="M278 656q-44 0 -72.5 -22t-42.5 -67t-18.5 -92.5t-4.5 -117.5t4.5 -117.5t18.5 -92.5t42.5 -67t72.5 -22t72.5 22t42.5 67t18.5 92.5t4.5 117.5t-4.5 117.5t-18.5 92.5t-42.5 67t-72.5 22zM278 728q57 0 99.5 -22t67 -56t39 -85t19.5 -99.5t5 -108.5t-5 -108.5
t-19.5 -99.5t-39 -85t-67 -56t-99.5 -22t-99.5 22t-67 56t-39 85t-19.5 99.5t-5 108.5t5 108.5t19.5 99.5t39 85t67 56t99.5 22zM147 817v54h264v-54h-264z" />
    <glyph glyph-name="omacron" unicode="&#x14d;" horiz-adv-x="444" 
d="M29 268q0 282 193 282t193 -282t-193 -282t-193 282zM220 52q61 0 84 57.5t23 158.5q0 48 -4 83.5t-15 67.5t-33 48.5t-55 16.5q-31 0 -52 -17t-31.5 -48.5t-15 -67.5t-4.5 -83q0 -48 4 -83.5t15 -67.5t32 -48.5t52 -16.5zM91 653v54h264v-54h-264z" />
    <glyph glyph-name="Obreve" unicode="&#x14e;" horiz-adv-x="556" 
d="M278 656q-44 0 -72.5 -22t-42.5 -67t-18.5 -92.5t-4.5 -117.5t4.5 -117.5t18.5 -92.5t42.5 -67t72.5 -22t72.5 22t42.5 67t18.5 92.5t4.5 117.5t-4.5 117.5t-18.5 92.5t-42.5 67t-72.5 22zM278 728q57 0 99.5 -22t67 -56t39 -85t19.5 -99.5t5 -108.5t-5 -108.5
t-19.5 -99.5t-39 -85t-67 -56t-99.5 -22t-99.5 22t-67 56t-39 85t-19.5 99.5t-5 108.5t5 108.5t19.5 99.5t39 85t67 56t99.5 22zM152 908h48q0 -26 24.5 -46.5t52.5 -20.5t52.5 20.5t24.5 46.5h48q0 -43 -29.5 -85t-95.5 -42t-95.5 42t-29.5 85z" />
    <glyph glyph-name="obreve" unicode="&#x14f;" horiz-adv-x="444" 
d="M29 268q0 282 193 282t193 -282t-193 -282t-193 282zM220 52q61 0 84 57.5t23 158.5q0 48 -4 83.5t-15 67.5t-33 48.5t-55 16.5q-31 0 -52 -17t-31.5 -48.5t-15 -67.5t-4.5 -83q0 -48 4 -83.5t15 -67.5t32 -48.5t52 -16.5zM96 744h48q0 -26 24.5 -46.5t52.5 -20.5
t52.5 20.5t24.5 46.5h48q0 -43 -29.5 -85t-95.5 -42t-95.5 42t-29.5 85z" />
    <glyph glyph-name="Ohungarumlaut" unicode="&#x150;" horiz-adv-x="556" 
d="M278 656q-44 0 -72.5 -22t-42.5 -67t-18.5 -92.5t-4.5 -117.5t4.5 -117.5t18.5 -92.5t42.5 -67t72.5 -22t72.5 22t42.5 67t18.5 92.5t4.5 117.5t-4.5 117.5t-18.5 92.5t-42.5 67t-72.5 22zM278 728q57 0 99.5 -22t67 -56t39 -85t19.5 -99.5t5 -108.5t-5 -108.5
t-19.5 -99.5t-39 -85t-67 -56t-99.5 -22t-99.5 22t-67 56t-39 85t-19.5 99.5t-5 108.5t5 108.5t19.5 99.5t39 85t67 56t99.5 22zM328 773l70 142h98l-108 -142h-60zM164 773l70 142h98l-108 -142h-60z" />
    <glyph glyph-name="ohungarumlaut" unicode="&#x151;" horiz-adv-x="444" 
d="M29 268q0 282 193 282t193 -282t-193 -282t-193 282zM220 52q61 0 84 57.5t23 158.5q0 48 -4 83.5t-15 67.5t-33 48.5t-55 16.5q-31 0 -52 -17t-31.5 -48.5t-15 -67.5t-4.5 -83q0 -48 4 -83.5t15 -67.5t32 -48.5t52 -16.5zM271 609l70 142h98l-108 -142h-60zM107 609
l70 142h98l-108 -142h-60z" />
    <glyph glyph-name="OE" unicode="&#x152;" horiz-adv-x="796" 
d="M412 232v231q0 32 -1 50t-4.5 44t-12.5 41t-23 30t-37.5 21.5t-55.5 6.5q-31 0 -54 -10.5t-38.5 -31t-25.5 -45.5t-15 -61.5t-7 -71t-2 -79.5t2 -79.5t7 -71t15 -61.5t25.5 -45.5t38.5 -31t54 -10.5q78 0 106 46t28 128zM500 334v-256h272v-78h-358v63h-2
q-14 -35 -51 -56t-83 -21q-57 0 -99.5 21t-67 54t-39 83t-19.5 100t-5 113q0 60 5 108.5t19.5 99.5t39 85t67 56t99.5 22q42 0 81.5 -18.5t56.5 -50.5h2v55h342v-78h-260v-224h244v-78h-244z" />
    <glyph glyph-name="oe" unicode="&#x153;" horiz-adv-x="722" 
d="M413 344v-20h182v29q0 54 -20.5 92.5t-68.5 38.5q-29 0 -49 -16.5t-29 -42t-12 -45t-3 -36.5zM332 268q0 216 -105 216q-100 0 -100 -216t100 -216q105 0 105 216zM683 292v-34h-273q0 -34 0.5 -54.5t5.5 -53t14.5 -51t28 -33t45.5 -14.5q28 0 47.5 13t28 34t12 39.5
t3.5 37.5h84q0 -25 -8 -54.5t-25.5 -61.5t-53 -53t-82.5 -21q-32 0 -58 9t-40 20t-25 27t-14 22.5t-5 13.5q-19 -43 -56 -67.5t-85 -24.5q-188 0 -188 282t188 282q55 0 88.5 -21.5t58.5 -69.5q19 42 57 66.5t83 24.5q44 0 76.5 -16.5t50 -40.5t27.5 -61t12.5 -68t2.5 -72z
" />
    <glyph glyph-name="Racute" unicode="&#x154;" horiz-adv-x="519" 
d="M146 642v-252h87q23 0 36 1t37 8t38 20.5t25 41t11 67.5q0 54 -33.5 84t-95.5 30h-105zM58 0v714h231q85 0 134 -47.5t49 -131.5q0 -65 -26.5 -116t-83.5 -64v-2q45 -5 71.5 -38t29.5 -81l6 -122q2 -55 11 -78t27 -34h-106q-17 17 -24 103l-6 111q-3 35 -13 57.5
t-27 31.5t-31 12t-35 3h-119v-318h-88zM196 773l70 142h98l-108 -142h-60z" />
    <glyph glyph-name="racute" unicode="&#x155;" horiz-adv-x="296" 
d="M55 0v536h84v-80h2q21 45 47.5 69.5t68.5 24.5q25 0 37 -6v-82q-32 4 -45 4q-38 0 -74 -33.5t-36 -93.5v-339h-84zM78 609l70 142h98l-108 -142h-60z" />
    <glyph glyph-name="Rcommaaccent" unicode="&#x156;" horiz-adv-x="519" 
d="M146 642v-252h87q23 0 36 1t37 8t38 20.5t25 41t11 67.5q0 54 -33.5 84t-95.5 30h-105zM58 0v714h231q85 0 134 -47.5t49 -131.5q0 -65 -26.5 -116t-83.5 -64v-2q45 -5 71.5 -38t29.5 -81l6 -122q2 -55 11 -78t27 -34h-106q-17 17 -24 103l-6 111q-3 35 -13 57.5
t-27 31.5t-31 12t-35 3h-119v-318h-88zM219 -141v91h83v-80q0 -40 -19 -58.5t-59 -21.5v26q11 3 16.5 6t11 12t6.5 25h-39z" />
    <glyph glyph-name="rcommaaccent" unicode="&#x157;" horiz-adv-x="296" 
d="M55 0v536h84v-80h2q21 45 47.5 69.5t68.5 24.5q25 0 37 -6v-82q-32 4 -45 4q-38 0 -74 -33.5t-36 -93.5v-339h-84zM57 -141v91h83v-80q0 -40 -19 -58.5t-59 -21.5v26q11 3 16.5 6t11 12t6.5 25h-39z" />
    <glyph glyph-name="Rcaron" unicode="&#x158;" horiz-adv-x="519" 
d="M146 642v-252h87q23 0 36 1t37 8t38 20.5t25 41t11 67.5q0 54 -33.5 84t-95.5 30h-105zM58 0v714h231q85 0 134 -47.5t49 -131.5q0 -65 -26.5 -116t-83.5 -64v-2q45 -5 71.5 -38t29.5 -81l6 -122q2 -55 11 -78t27 -34h-106q-17 17 -24 103l-6 111q-3 35 -13 57.5
t-27 31.5t-31 12t-35 3h-119v-318h-88zM380 913l-101 -142h-77l-100 142h78l61 -88l61 88h78z" />
    <glyph glyph-name="rcaron" unicode="&#x159;" horiz-adv-x="296" 
d="M55 0v536h84v-80h2q21 45 47.5 69.5t68.5 24.5q25 0 37 -6v-82q-32 4 -45 4q-38 0 -74 -33.5t-36 -93.5v-339h-84zM304 751l-101 -142h-77l-100 142h78l61 -88l61 88h78z" />
    <glyph glyph-name="Sacute" unicode="&#x15a;" horiz-adv-x="500" 
d="M449 529h-88q0 127 -111 127q-57 0 -87.5 -29.5t-30.5 -86.5q0 -41 18.5 -68.5t48.5 -42t65.5 -26t71.5 -25t66 -33.5t48.5 -57t18.5 -90q0 -59 -20 -102.5t-53.5 -66t-70.5 -33t-78 -10.5q-120 0 -168 58.5t-48 179.5h88q0 -30 1.5 -49t9 -43.5t21 -39t39.5 -24.5
t63 -10q53 0 88.5 35t35.5 91q0 41 -18.5 69t-48.5 43t-66 26.5t-71.5 26t-65.5 34.5t-48.5 57.5t-18.5 90.5q0 23 4 46t17.5 51.5t35.5 49.5t61 35.5t91 14.5q101 0 149.5 -49.5t50.5 -149.5zM216 779l70 142h98l-108 -142h-60z" />
    <glyph glyph-name="sacute" unicode="&#x15b;" horiz-adv-x="407" 
d="M369 379h-84q0 54 -17.5 79.5t-61.5 25.5q-87 0 -87 -82q0 -13 3 -24t12 -20t15 -14.5t23 -12t23.5 -9t28 -9t27.5 -8.5q25 -8 39 -13.5t34 -18t31 -26.5t19 -38t8 -55q0 -81 -47.5 -124.5t-125.5 -43.5q-52 0 -89 15.5t-55 35t-27.5 50t-11 48t-1.5 41.5h84
q0 -57 21.5 -90.5t78.5 -33.5q18 0 36 5.5t35.5 27t17.5 56.5q0 24 -10 42t-26.5 28.5t-37.5 19t-43 15.5q-9 2 -14 4q-34 12 -49.5 18.5t-39 23.5t-33.5 44t-10 66q0 72 48.5 110t122.5 38q45 0 77 -12.5t48 -29t25 -42.5t11 -44t2 -43zM173 609l70 142h98l-108 -142h-60z
" />
    <glyph glyph-name="Scircumflex" unicode="&#x15c;" horiz-adv-x="500" 
d="M449 529h-88q0 127 -111 127q-57 0 -87.5 -29.5t-30.5 -86.5q0 -41 18.5 -68.5t48.5 -42t65.5 -26t71.5 -25t66 -33.5t48.5 -57t18.5 -90q0 -59 -20 -102.5t-53.5 -66t-70.5 -33t-78 -10.5q-120 0 -168 58.5t-48 179.5h88q0 -30 1.5 -49t9 -43.5t21 -39t39.5 -24.5
t63 -10q53 0 88.5 35t35.5 91q0 41 -18.5 69t-48.5 43t-66 26.5t-71.5 26t-65.5 34.5t-48.5 57.5t-18.5 90.5q0 23 4 46t17.5 51.5t35.5 49.5t61 35.5t91 14.5q101 0 149.5 -49.5t50.5 -149.5zM115 773l101 142h77l100 -142h-78l-61 88l-61 -88h-78z" />
    <glyph glyph-name="scircumflex" unicode="&#x15d;" horiz-adv-x="407" 
d="M369 379h-84q0 54 -17.5 79.5t-61.5 25.5q-87 0 -87 -82q0 -13 3 -24t12 -20t15 -14.5t23 -12t23.5 -9t28 -9t27.5 -8.5q25 -8 39 -13.5t34 -18t31 -26.5t19 -38t8 -55q0 -81 -47.5 -124.5t-125.5 -43.5q-52 0 -89 15.5t-55 35t-27.5 50t-11 48t-1.5 41.5h84
q0 -57 21.5 -90.5t78.5 -33.5q18 0 36 5.5t35.5 27t17.5 56.5q0 24 -10 42t-26.5 28.5t-37.5 19t-43 15.5q-9 2 -14 4q-34 12 -49.5 18.5t-39 23.5t-33.5 44t-10 66q0 72 48.5 110t122.5 38q45 0 77 -12.5t48 -29t25 -42.5t11 -44t2 -43zM72 609l101 142h77l100 -142h-78
l-61 88l-61 -88h-78z" />
    <glyph glyph-name="Scedilla" unicode="&#x15e;" horiz-adv-x="500" 
d="M139 -190l15 34l12 -3q13 -3 28.5 -6t23.5 -3q55 0 55 39q0 17 -14 27t-33 10q-21 0 -40 -7l-15 18l49 68q-45 3 -78 15q-60 23 -85.5 77.5t-25.5 144.5h88q0 -30 1.5 -49t9 -43.5t21 -39t39.5 -24.5t63 -10q53 0 88.5 35t35.5 91q0 41 -18.5 69t-48.5 43t-66 26.5
t-71.5 26t-65.5 34.5t-48.5 57.5t-18.5 90.5q0 23 4 46t17.5 51.5t35.5 49.5t61 35.5t91 14.5q101 0 149.5 -49.5t50.5 -149.5h-88q0 127 -111 127q-57 0 -87.5 -29.5t-30.5 -86.5q0 -41 18.5 -68.5t48.5 -42t65.5 -26t71.5 -25t66 -33.5t48.5 -57t18.5 -90
q0 -86 -40.5 -136t-104.5 -66q-37 -9 -62 -10l-29 -40l2 -2q15 4 30 4q32 0 56 -17.5t24 -56.5q0 -35 -32 -59.5t-75 -24.5q-57 0 -99 20z" />
    <glyph glyph-name="Scedilla" unicode="&#xf6c1;" horiz-adv-x="500" 
d="M139 -190l15 34l12 -3q13 -3 28.5 -6t23.5 -3q55 0 55 39q0 17 -14 27t-33 10q-21 0 -40 -7l-15 18l49 68q-45 3 -78 15q-60 23 -85.5 77.5t-25.5 144.5h88q0 -30 1.5 -49t9 -43.5t21 -39t39.5 -24.5t63 -10q53 0 88.5 35t35.5 91q0 41 -18.5 69t-48.5 43t-66 26.5
t-71.5 26t-65.5 34.5t-48.5 57.5t-18.5 90.5q0 23 4 46t17.5 51.5t35.5 49.5t61 35.5t91 14.5q101 0 149.5 -49.5t50.5 -149.5h-88q0 127 -111 127q-57 0 -87.5 -29.5t-30.5 -86.5q0 -41 18.5 -68.5t48.5 -42t65.5 -26t71.5 -25t66 -33.5t48.5 -57t18.5 -90
q0 -86 -40.5 -136t-104.5 -66q-37 -9 -62 -10l-29 -40l2 -2q15 4 30 4q32 0 56 -17.5t24 -56.5q0 -35 -32 -59.5t-75 -24.5q-57 0 -99 20z" />
    <glyph glyph-name="scedilla" unicode="&#x15f;" horiz-adv-x="407" 
d="M369 379h-84q0 54 -17.5 79.5t-61.5 25.5q-87 0 -87 -82q0 -13 3 -24t12 -20t15 -14.5t23 -12t23.5 -9t28 -9t27.5 -8.5q25 -8 39 -13.5t34 -18t31 -26.5t19 -38t8 -55q0 -61 -27.5 -101.5t-76.5 -55.5q-25 -9 -61 -11l10 14h-42l-9 -12q-46 5 -73 20q-27 16 -44 37.5
t-23.5 47.5t-8.5 43t-2 40h84q0 -57 21.5 -90.5t78.5 -33.5q18 0 36 5.5t35.5 27t17.5 56.5q0 24 -10 42t-26.5 28.5t-37.5 19t-43 15.5q-9 2 -14 4q-34 12 -49.5 18.5t-39 23.5t-33.5 44t-10 66q0 72 48.5 110t122.5 38q45 0 77 -12.5t48 -29t25 -42.5t11 -44t2 -43z
M94 -190l15 34l13 -3q12 -3 27.5 -6t23.5 -3q55 0 55 39q0 17 -14 27t-33 10q-21 0 -40 -7l-15 18l50 69q20 -2 33 -2h8l-29 -40l2 -2q15 4 30 4q32 0 56 -17.5t24 -56.5q0 -35 -32 -59.5t-75 -24.5q-57 0 -99 20z" />
    <glyph glyph-name="scedilla" unicode="&#xf6c2;" horiz-adv-x="407" 
d="M369 379h-84q0 54 -17.5 79.5t-61.5 25.5q-87 0 -87 -82q0 -13 3 -24t12 -20t15 -14.5t23 -12t23.5 -9t28 -9t27.5 -8.5q25 -8 39 -13.5t34 -18t31 -26.5t19 -38t8 -55q0 -61 -27.5 -101.5t-76.5 -55.5q-25 -9 -61 -11l10 14h-42l-9 -12q-46 5 -73 20q-27 16 -44 37.5
t-23.5 47.5t-8.5 43t-2 40h84q0 -57 21.5 -90.5t78.5 -33.5q18 0 36 5.5t35.5 27t17.5 56.5q0 24 -10 42t-26.5 28.5t-37.5 19t-43 15.5q-9 2 -14 4q-34 12 -49.5 18.5t-39 23.5t-33.5 44t-10 66q0 72 48.5 110t122.5 38q45 0 77 -12.5t48 -29t25 -42.5t11 -44t2 -43z
M94 -190l15 34l13 -3q12 -3 27.5 -6t23.5 -3q55 0 55 39q0 17 -14 27t-33 10q-21 0 -40 -7l-15 18l50 69q20 -2 33 -2h8l-29 -40l2 -2q15 4 30 4q32 0 56 -17.5t24 -56.5q0 -35 -32 -59.5t-75 -24.5q-57 0 -99 20z" />
    <glyph glyph-name="Scaron" unicode="&#x160;" horiz-adv-x="500" 
d="M449 529h-88q0 127 -111 127q-57 0 -87.5 -29.5t-30.5 -86.5q0 -41 18.5 -68.5t48.5 -42t65.5 -26t71.5 -25t66 -33.5t48.5 -57t18.5 -90q0 -59 -20 -102.5t-53.5 -66t-70.5 -33t-78 -10.5q-120 0 -168 58.5t-48 179.5h88q0 -30 1.5 -49t9 -43.5t21 -39t39.5 -24.5
t63 -10q53 0 88.5 35t35.5 91q0 41 -18.5 69t-48.5 43t-66 26.5t-71.5 26t-65.5 34.5t-48.5 57.5t-18.5 90.5q0 23 4 46t17.5 51.5t35.5 49.5t61 35.5t91 14.5q101 0 149.5 -49.5t50.5 -149.5zM393 915l-101 -142h-77l-100 142h78l61 -88l61 88h78z" />
    <glyph glyph-name="scaron" unicode="&#x161;" horiz-adv-x="407" 
d="M369 379h-84q0 54 -17.5 79.5t-61.5 25.5q-87 0 -87 -82q0 -13 3 -24t12 -20t15 -14.5t23 -12t23.5 -9t28 -9t27.5 -8.5q25 -8 39 -13.5t34 -18t31 -26.5t19 -38t8 -55q0 -81 -47.5 -124.5t-125.5 -43.5q-52 0 -89 15.5t-55 35t-27.5 50t-11 48t-1.5 41.5h84
q0 -57 21.5 -90.5t78.5 -33.5q18 0 36 5.5t35.5 27t17.5 56.5q0 24 -10 42t-26.5 28.5t-37.5 19t-43 15.5q-9 2 -14 4q-34 12 -49.5 18.5t-39 23.5t-33.5 44t-10 66q0 72 48.5 110t122.5 38q45 0 77 -12.5t48 -29t25 -42.5t11 -44t2 -43zM344 751l-101 -142h-77l-100 142h78
l61 -88l61 88h78z" />
    <glyph glyph-name="Tcommaaccent" unicode="&#x162;" 
d="M275 636v-636h-88v636h-179v78h447v-78h-180zM189 -141v91h83v-80q0 -40 -19 -58.5t-59 -21.5v26q11 3 16.5 6t11 12t6.5 25h-39z" />
    <glyph glyph-name="tcommaaccent" unicode="&#x163;" horiz-adv-x="259" 
d="M80 536v156h84v-156h93v-66h-93v-344q0 -33 11.5 -46.5t43.5 -13.5q10 0 37 3v-69q-22 -6 -68 -6q-63 0 -85.5 25t-22.5 81v370h-78v66h78zM120 -141v91h83v-80q0 -40 -19 -58.5t-59 -21.5v26q11 3 16.5 6t11 12t6.5 25h-39z" />
    <glyph glyph-name="Tcaron" unicode="&#x164;" 
d="M275 636v-636h-88v636h-179v78h447v-78h-180zM370 915l-101 -142h-77l-100 142h78l61 -88l61 88h78z" />
    <glyph glyph-name="tcaron" unicode="&#x165;" horiz-adv-x="322" 
d="M245 572l26 142h87l-59 -142h-54zM80 536v156h84v-156h93v-66h-93v-344q0 -33 11.5 -46.5t43.5 -13.5q10 0 37 3v-69q-22 -6 -68 -6q-63 0 -85.5 25t-22.5 81v370h-78v66h78z" />
    <glyph glyph-name="Tbar" unicode="&#x166;" 
d="M275 437v-437h-88v437h-114v49h114v150h-179v78h447v-78h-180v-150h112v-49h-112z" />
    <glyph glyph-name="tbar" unicode="&#x167;" horiz-adv-x="259" 
d="M-6 297v49h86v124h-78v66h78v156h84v-156h93v-66h-93v-124h100v-49h-100v-171q0 -33 11.5 -46.5t43.5 -13.5q10 0 37 3v-69q-22 -6 -68 -6q-63 0 -85.5 25t-22.5 81v197h-86z" />
    <glyph glyph-name="Utilde" unicode="&#x168;" horiz-adv-x="519" 
d="M50 212v502h88v-502q0 -80 28 -117t93 -37q67 0 94.5 37.5t27.5 116.5v502h88v-502q0 -105 -53.5 -165.5t-156.5 -60.5q-209 0 -209 226zM353 903h54q0 -42 -23 -76.5t-63 -34.5q-24 0 -65.5 19t-49.5 19q-32 0 -39 -45h-54q0 45 27 78t66 33q25 0 60 -19q42 -19 52 -19
q26 0 35 45z" />
    <glyph glyph-name="utilde" unicode="&#x169;" 
d="M408 536v-536h-80v63h-2q-17 -36 -53.5 -56.5t-76.5 -20.5t-68.5 12.5t-42 28t-21 43t-8.5 43.5t-1 43v380h84v-370q0 -21 2 -35t9 -33.5t24 -29.5t44 -10q40 0 73 27.5t33 80.5v370h84zM326 739h54q0 -42 -23 -76.5t-63 -34.5q-24 0 -65.5 19t-49.5 19q-31 0 -39 -45
h-54q0 45 27 78t66 33q25 0 60 -19q42 -19 52 -19q26 0 35 45z" />
    <glyph glyph-name="Umacron" unicode="&#x16a;" horiz-adv-x="519" 
d="M50 212v502h88v-502q0 -80 28 -117t93 -37q67 0 94.5 37.5t27.5 116.5v502h88v-502q0 -105 -53.5 -165.5t-156.5 -60.5q-209 0 -209 226zM128 817v54h264v-54h-264z" />
    <glyph glyph-name="umacron" unicode="&#x16b;" 
d="M408 536v-536h-80v63h-2q-17 -36 -53.5 -56.5t-76.5 -20.5t-68.5 12.5t-42 28t-21 43t-8.5 43.5t-1 43v380h84v-370q0 -21 2 -35t9 -33.5t24 -29.5t44 -10q40 0 73 27.5t33 80.5v370h84zM101 653v54h264v-54h-264z" />
    <glyph glyph-name="Ubreve" unicode="&#x16c;" horiz-adv-x="519" 
d="M50 212v502h88v-502q0 -80 28 -117t93 -37q67 0 94.5 37.5t27.5 116.5v502h88v-502q0 -105 -53.5 -165.5t-156.5 -60.5q-209 0 -209 226zM135 908h48q0 -26 24.5 -46.5t52.5 -20.5t52.5 20.5t24.5 46.5h48q0 -43 -29.5 -85t-95.5 -42t-95.5 42t-29.5 85z" />
    <glyph glyph-name="ubreve" unicode="&#x16d;" 
d="M408 536v-536h-80v63h-2q-17 -36 -53.5 -56.5t-76.5 -20.5t-68.5 12.5t-42 28t-21 43t-8.5 43.5t-1 43v380h84v-370q0 -21 2 -35t9 -33.5t24 -29.5t44 -10q40 0 73 27.5t33 80.5v370h84zM107 744h48q0 -26 24.5 -46.5t52.5 -20.5t52.5 20.5t24.5 46.5h48q0 -43 -29.5 -85
t-95.5 -42t-95.5 42t-29.5 85z" />
    <glyph glyph-name="Uring" unicode="&#x16e;" horiz-adv-x="519" 
d="M50 212v502h88v-502q0 -80 28 -117t93 -37q67 0 94.5 37.5t27.5 116.5v502h88v-502q0 -105 -53.5 -165.5t-156.5 -60.5q-209 0 -209 226zM203 837q0 -23 17 -40t40 -17t40 17t17 40t-17 40t-40 17t-40 -17t-17 -40zM161 837q0 42 28.5 70.5t70.5 28.5t70.5 -28.5
t28.5 -70.5t-28.5 -70.5t-70.5 -28.5t-70.5 28.5t-28.5 70.5z" />
    <glyph glyph-name="uring" unicode="&#x16f;" 
d="M408 536v-536h-80v63h-2q-17 -36 -53.5 -56.5t-76.5 -20.5t-68.5 12.5t-42 28t-21 43t-8.5 43.5t-1 43v380h84v-370q0 -21 2 -35t9 -33.5t24 -29.5t44 -10q40 0 73 27.5t33 80.5v370h84zM175 690q0 -23 17 -40t40 -17t40 17t17 40t-17 40t-40 17t-40 -17t-17 -40z
M133 690q0 42 28.5 70.5t70.5 28.5t70.5 -28.5t28.5 -70.5t-28.5 -70.5t-70.5 -28.5t-70.5 28.5t-28.5 70.5z" />
    <glyph glyph-name="Uhungarumlaut" unicode="&#x170;" horiz-adv-x="519" 
d="M50 212v502h88v-502q0 -80 28 -117t93 -37q67 0 94.5 37.5t27.5 116.5v502h88v-502q0 -105 -53.5 -165.5t-156.5 -60.5q-209 0 -209 226zM310 773l70 142h98l-108 -142h-60zM146 773l70 142h98l-108 -142h-60z" />
    <glyph glyph-name="uhungarumlaut" unicode="&#x171;" 
d="M408 536v-536h-80v63h-2q-17 -36 -53.5 -56.5t-76.5 -20.5t-68.5 12.5t-42 28t-21 43t-8.5 43.5t-1 43v380h84v-370q0 -21 2 -35t9 -33.5t24 -29.5t44 -10q40 0 73 27.5t33 80.5v370h84zM281 609l70 142h98l-108 -142h-60zM117 609l70 142h98l-108 -142h-60z" />
    <glyph glyph-name="Uogonek" unicode="&#x172;" horiz-adv-x="519" 
d="M50 212v502h88v-502q0 -80 28 -117t93 -37q67 0 94.5 37.5t27.5 116.5v502h88v-502q0 -103 -53 -165q-34 -40 -95 -54q-22 -17 -42 -35q-51 -47 -51 -83q0 -38 40 -38q33 0 66 16l18 -35q-46 -28 -102 -28q-94 0 -94 78q0 65 95 118q-101 1 -151 57q-50 59 -50 169z" />
    <glyph glyph-name="uogonek" unicode="&#x173;" 
d="M408 536v-536h-32q-28 -22 -52 -53q-33 -44 -33 -74q0 -36 36 -36q31 0 60 16l16 -35q-43 -28 -92 -28q-42 0 -63 20t-21 54q0 35 23 65.5t78 70.5v63h-2q-17 -36 -53.5 -56.5t-76.5 -20.5t-68.5 12.5t-42 28t-21 43t-8.5 43.5t-1 43v380h84v-370q0 -21 2 -35t9 -33.5
t24 -29.5t44 -10q40 0 73 27.5t33 80.5v370h84z" />
    <glyph glyph-name="Wcircumflex" unicode="&#x174;" horiz-adv-x="722" 
d="M150 0l-142 714h88l109 -584h2l101 584h106l101 -584h2l109 584h88l-147 -714h-107l-98 578h-2l-103 -578h-107zM223 773l101 142h77l100 -142h-78l-61 88l-61 -88h-78z" />
    <glyph glyph-name="wcircumflex" unicode="&#x175;" horiz-adv-x="648" 
d="M135 0l-125 536h88l86 -438h2l91 438h99l89 -438h2l83 438h88l-127 -536h-92l-94 438h-2l-90 -438h-98zM189 609l101 142h77l100 -142h-78l-61 88l-61 -88h-78z" />
    <glyph glyph-name="Ycircumflex" unicode="&#x176;" horiz-adv-x="462" 
d="M187 280l-189 434h97l136 -334l141 334h92l-189 -434v-280h-88v280zM92 773l101 142h77l100 -142h-78l-61 88l-61 -88h-78z" />
    <glyph glyph-name="ycircumflex" unicode="&#x177;" horiz-adv-x="406" 
d="M168 -11l-158 547h92l106 -430h2l94 430h92l-155 -572q-8 -28 -13.5 -43.5t-17 -37t-25 -32.5t-36 -19t-51.5 -8q-16 0 -61 3v66q18 -3 49 -3q46 0 66 52zM70 609l101 142h77l100 -142h-78l-61 88l-61 -88h-78z" />
    <glyph glyph-name="Ydieresis" unicode="&#x178;" horiz-adv-x="462" 
d="M187 280l-189 434h97l136 -334l141 334h92l-189 -434v-280h-88v280zM272 794v101h78v-101h-78zM110 794v101h78v-101h-78z" />
    <glyph glyph-name="Zacute" unicode="&#x179;" 
d="M23 0v74l321 562h-303v78h395v-81l-321 -555h325v-78h-417zM202 773l70 142h98l-108 -142h-60z" />
    <glyph glyph-name="zacute" unicode="&#x17a;" horiz-adv-x="389" 
d="M39 464v72h323v-70l-240 -394h238v-72h-333v66l243 398h-231zM162 609l70 142h98l-108 -142h-60z" />
    <glyph glyph-name="Zdotaccent" unicode="&#x17b;" 
d="M23 0v74l321 562h-303v78h395v-81l-321 -555h325v-78h-417zM194 794v101h78v-101h-78z" />
    <glyph glyph-name="zdotaccent" unicode="&#x17c;" horiz-adv-x="389" 
d="M39 464v72h323v-70l-240 -394h238v-72h-333v66l243 398h-231zM159 630v101h78v-101h-78z" />
    <glyph glyph-name="Zcaron" unicode="&#x17d;" 
d="M23 0v74l321 562h-303v78h395v-81l-321 -555h325v-78h-417zM373 915l-101 -142h-77l-100 142h78l61 -88l61 88h78z" />
    <glyph glyph-name="zcaron" unicode="&#x17e;" horiz-adv-x="389" 
d="M39 464v72h323v-70l-240 -394h238v-72h-333v66l243 398h-231zM337 751l-101 -142h-77l-100 142h78l61 -88l61 88h78z" />
    <glyph glyph-name="florin" unicode="&#x192;" horiz-adv-x="480" 
d="M-17 -172l14 66q11 -4 49 -4q34 0 51.5 19t27.5 71l79 400h-104l11 60h104l33 156q14 64 55 91t111 27q31 0 48 -4l-14 -66q-9 4 -35 4q-22 0 -37.5 -6.5t-24.5 -14.5t-16.5 -28t-11 -34.5t-9.5 -46.5l-15 -78h109l-11 -60h-109l-80 -411q-15 -74 -54.5 -109.5
t-113.5 -35.5q-32 0 -57 4z" />
    <glyph glyph-name="Scommaaccent" unicode="&#x218;" horiz-adv-x="500" 
d="M449 529h-88q0 127 -111 127q-57 0 -87.5 -29.5t-30.5 -86.5q0 -41 18.5 -68.5t48.5 -42t65.5 -26t71.5 -25t66 -33.5t48.5 -57t18.5 -90q0 -59 -20 -102.5t-53.5 -66t-70.5 -33t-78 -10.5q-120 0 -168 58.5t-48 179.5h88q0 -30 1.5 -49t9 -43.5t21 -39t39.5 -24.5
t63 -10q53 0 88.5 35t35.5 91q0 41 -18.5 69t-48.5 43t-66 26.5t-71.5 26t-65.5 34.5t-48.5 57.5t-18.5 90.5q0 23 4 46t17.5 51.5t35.5 49.5t61 35.5t91 14.5q101 0 149.5 -49.5t50.5 -149.5zM207 -141v91h83v-80q0 -40 -19 -58.5t-59 -21.5v26q11 3 16.5 6t11 12t6.5 25
h-39z" />
    <glyph glyph-name="scommaaccent" unicode="&#x219;" horiz-adv-x="407" 
d="M369 379h-84q0 54 -17.5 79.5t-61.5 25.5q-87 0 -87 -82q0 -13 3 -24t12 -20t15 -14.5t23 -12t23.5 -9t28 -9t27.5 -8.5q25 -8 39 -13.5t34 -18t31 -26.5t19 -38t8 -55q0 -81 -47.5 -124.5t-125.5 -43.5q-52 0 -89 15.5t-55 35t-27.5 50t-11 48t-1.5 41.5h84
q0 -57 21.5 -90.5t78.5 -33.5q18 0 36 5.5t35.5 27t17.5 56.5q0 24 -10 42t-26.5 28.5t-37.5 19t-43 15.5q-9 2 -14 4q-34 12 -49.5 18.5t-39 23.5t-33.5 44t-10 66q0 72 48.5 110t122.5 38q45 0 77 -12.5t48 -29t25 -42.5t11 -44t2 -43zM163 -141v91h83v-80
q0 -40 -19 -58.5t-59 -21.5v26q11 3 16.5 6t11 12t6.5 25h-39z" />
    <glyph glyph-name="uni021A" unicode="&#x21a;" 
d="M275 636v-636h-88v636h-179v78h447v-78h-180zM189 -141v91h83v-80q0 -40 -19 -58.5t-59 -21.5v26q11 3 16.5 6t11 12t6.5 25h-39z" />
    <glyph glyph-name="uni021B" unicode="&#x21b;" horiz-adv-x="259" 
d="M80 536v156h84v-156h93v-66h-93v-344q0 -33 11.5 -46.5t43.5 -13.5q10 0 37 3v-69q-22 -6 -68 -6q-63 0 -85.5 25t-22.5 81v370h-78v66h78zM120 -141v91h83v-80q0 -40 -19 -58.5t-59 -21.5v26q11 3 16.5 6t11 12t6.5 25h-39z" />
    <glyph glyph-name="circumflex" unicode="&#x2c6;" horiz-adv-x="204" 
d="M-37 609l101 142h77l100 -142h-78l-61 88l-61 -88h-78z" />
    <glyph glyph-name="caron" unicode="&#x2c7;" horiz-adv-x="204" 
d="M241 751l-101 -142h-77l-100 142h78l61 -88l61 88h78z" />
    <glyph glyph-name="uni02C9" unicode="&#x2c9;" horiz-adv-x="204" 
d="M-30 653v54h264v-54h-264z" />
    <glyph glyph-name="breve" unicode="&#x2d8;" horiz-adv-x="204" 
d="M-23 744h48q0 -26 24.5 -46.5t52.5 -20.5t52.5 20.5t24.5 46.5h48q0 -43 -29.5 -85t-95.5 -42t-95.5 42t-29.5 85z" />
    <glyph glyph-name="dotaccent" unicode="&#x2d9;" horiz-adv-x="204" 
d="M63 630v101h78v-101h-78z" />
    <glyph glyph-name="ring" unicode="&#x2da;" horiz-adv-x="204" 
d="M45 690q0 -23 17 -40t40 -17t40 17t17 40t-17 40t-40 17t-40 -17t-17 -40zM3 690q0 42 28.5 70.5t70.5 28.5t70.5 -28.5t28.5 -70.5t-28.5 -70.5t-70.5 -28.5t-70.5 28.5t-28.5 70.5z" />
    <glyph glyph-name="ogonek" unicode="&#x2db;" horiz-adv-x="204" 
d="M127 0h53q-61 -45 -82.5 -73t-21.5 -52q0 -38 40 -38q33 0 66 16l18 -35q-46 -28 -102 -28q-94 0 -94 78q0 74 123 132z" />
    <glyph glyph-name="tilde" unicode="&#x2dc;" horiz-adv-x="204" 
d="M195 739h54q0 -42 -23 -76.5t-63 -34.5q-24 0 -65.5 19t-49.5 19q-32 0 -39 -45h-54q0 45 27 78t66 33q25 0 60 -19q42 -19 52 -19q26 0 35 45z" />
    <glyph glyph-name="hungarumlaut" unicode="&#x2dd;" horiz-adv-x="204" 
d="M114 609l70 142h98l-108 -142h-60zM-50 609l70 142h98l-108 -142h-60z" />
    <glyph glyph-name="uni0394" unicode="&#x394;" horiz-adv-x="674" 
d="M550 72l-217 556l-213 -556h430zM662 0h-649l279 712h83z" />
    <glyph glyph-name="uni03A9" unicode="&#x3a9;" horiz-adv-x="748" 
d="M688 0h-256v183q85 17 130.5 77.5t45.5 149.5q0 104 -68 171.5t-172 67.5q-103 0 -172 -68t-69 -171q0 -88 46.5 -150.5t130.5 -76.5v-183h-257v67h193v72q-90 25 -141.5 101t-51.5 173q0 133 94 220.5t227 87.5q134 0 227 -86.5t93 -219.5q0 -99 -50.5 -174.5
t-141.5 -101.5v-72h192v-67z" />
    <glyph glyph-name="uni03BC" unicode="&#x3bc;" 
d="M408 536v-536h-80v63h-2q-17 -36 -53.5 -56.5t-76.5 -20.5q-38 0 -57 14v-176h-84v712h84v-370q0 -21 2 -35t9 -33.5t24 -29.5t44 -10q40 0 73 27.5t33 80.5v370h84z" />
    <glyph glyph-name="pi" unicode="&#x3c0;" horiz-adv-x="570" 
d="M547 68v-57q-36 -17 -69 -17q-29 0 -47.5 9t-26 27.5t-10 36.5t-2.5 47v296h-246v-410h-75v410h-69v69h541v-69h-76v-299q0 -26 7 -39.5t31 -13.5q21 0 42 10z" />
    <glyph glyph-name="endash" unicode="&#x2013;" horiz-adv-x="500" 
d="M0 248v72h500v-72h-500z" />
    <glyph glyph-name="emdash" unicode="&#x2014;" horiz-adv-x="1000" 
d="M0 248v72h1000v-72h-1000z" />
    <glyph glyph-name="quoteleft" unicode="&#x2018;" horiz-adv-x="240" 
d="M166 566v-106h-92v87q0 34 2.5 56t11.5 46t28 40t50 25v-47q-26 -12 -35 -29t-9 -48v-24h44z" />
    <glyph glyph-name="quoteright" unicode="&#x2019;" horiz-adv-x="240" 
d="M74 608v106h92v-87q0 -34 -2.5 -56t-11.5 -46t-28 -40t-50 -25v47q26 12 35 29t9 48v24h-44z" />
    <glyph glyph-name="quotesinglbase" unicode="&#x201a;" horiz-adv-x="240" 
d="M74 0v106h92v-87q0 -34 -2.5 -56t-11.5 -46t-28 -40t-50 -25v47q26 12 35 29t9 48v24h-44z" />
    <glyph glyph-name="quotedblleft" unicode="&#x201c;" horiz-adv-x="407" 
d="M171 566v-106h-92v87q0 34 2.5 56t11.5 46t28 40t50 25v-47q-26 -12 -35 -29t-9 -48v-24h44zM328 566v-106h-92v87q0 34 2.5 56t11.5 46t28 40t50 25v-47q-26 -12 -35 -29t-9 -48v-24h44z" />
    <glyph glyph-name="quotedblright" unicode="&#x201d;" horiz-adv-x="407" 
d="M171 714v-87q0 -34 -2.5 -56t-11.5 -46t-28 -40t-50 -25v47q26 12 35 29t9 48v24h-44v106h92zM328 714v-87q0 -34 -2.5 -56t-11.5 -46t-28 -40t-50 -25v47q26 12 35 29t9 48v24h-44v106h92z" />
    <glyph glyph-name="quotedblbase" unicode="&#x201e;" horiz-adv-x="407" 
d="M171 106v-87q0 -34 -2.5 -56t-11.5 -46t-28 -40t-50 -25v47q26 12 35 29t9 48v24h-44v106h92zM328 106v-87q0 -34 -2.5 -56t-11.5 -46t-28 -40t-50 -25v47q26 12 35 29t9 48v24h-44v106h92z" />
    <glyph glyph-name="dagger" unicode="&#x2020;" horiz-adv-x="482" 
d="M199 508v206h84v-206h172v-72h-172v-576h-84v576h-172v72h172z" />
    <glyph glyph-name="daggerdbl" unicode="&#x2021;" horiz-adv-x="482" 
d="M199 521v193h84v-193h172v-72h-172v-317h172v-72h-172v-200h-84v200h-172v72h172v317h-172v72h172z" />
    <glyph glyph-name="bullet" unicode="&#x2022;" horiz-adv-x="500" 
d="M72 357q0 74 52 126t126 52t126 -52t52 -126t-52 -126t-126 -52t-126 52t-52 126z" />
    <glyph glyph-name="ellipsis" unicode="&#x2026;" horiz-adv-x="1000" 
d="M787 0v106h92v-106h-92zM454 0v106h92v-106h-92zM121 0v106h92v-106h-92z" />
    <glyph glyph-name="perthousand" unicode="&#x2030;" horiz-adv-x="1037" 
d="M551 -14q-43 0 -70.5 15t-40 45t-16.5 59t-4 73t4 73t16.5 59t40 45t70.5 15t70.5 -15t40 -45t16.5 -59t4 -73t-4 -73t-16.5 -59t-40 -45t-70.5 -15zM551 40q38 0 48.5 32t10.5 106q0 37 -1.5 57.5t-7 41.5t-18 30t-32.5 9q-38 0 -48.5 -32t-10.5 -106q0 -37 1.5 -57.5
t7 -41.5t18 -30t32.5 -9zM177 324q-43 0 -70.5 15t-40 45t-16.5 59t-4 73t4 73t16.5 59t40 45t70.5 15t70.5 -15t40 -45t16.5 -59t4 -73t-4 -73t-16.5 -59t-40 -45t-70.5 -15zM860 -14q-43 0 -70.5 15t-40 45t-16.5 59t-4 73t4 73t16.5 59t40 45t70.5 15t70.5 -15t40 -45
t16.5 -59t4 -73t-4 -73t-16.5 -59t-40 -45t-70.5 -15zM177 378q38 0 48.5 32t10.5 106q0 37 -1.5 57.5t-7 41.5t-18 30t-32.5 9q-38 0 -48.5 -32t-10.5 -106q0 -37 1.5 -57.5t7 -41.5t18 -30t32.5 -9zM169 -14l310 722h70l-310 -722h-70zM860 40q38 0 48.5 32t10.5 106
q0 37 -1.5 57.5t-7 41.5t-18 30t-32.5 9q-38 0 -48.5 -32t-10.5 -106q0 -37 1.5 -57.5t7 -41.5t18 -30t32.5 -9z" />
    <glyph glyph-name="guilsinglleft" unicode="&#x2039;" horiz-adv-x="240" 
d="M49 245v78l142 143v-88l-94 -94l94 -94v-88z" />
    <glyph glyph-name="guilsinglright" unicode="&#x203a;" horiz-adv-x="240" 
d="M191 323v-78l-142 -143v88l94 94l-94 94v88z" />
    <glyph glyph-name="fraction" unicode="&#x2044;" horiz-adv-x="167" 
d="M-164 -31l435 756h60l-435 -756h-60z" />
    <glyph glyph-name="Euro" unicode="&#x20ac;" horiz-adv-x="480" 
d="M465 661l-32 -71q-60 52 -117 52q-40 0 -67.5 -16t-42 -46.5t-20.5 -59t-10 -69.5h227l-21 -60h-210l-1 -55h195l-21 -60h-173q1 -43 6.5 -75.5t19 -69t42 -57t71.5 -20.5q68 0 144 62v-87q-67 -43 -151 -43q-64 0 -108 23.5t-67.5 67t-34.5 90.5t-14 109h-61l21 60h39
l1 55h-62l21 60h44q24 260 229 260q76 0 153 -50z" />
    <glyph glyph-name="afii61289" unicode="&#x2113;" horiz-adv-x="500" 
d="M418 42q-62 -56 -133 -56q-59 0 -94.5 33t-35.5 96v109l-58 -61h-2l-27 40l87 84v258q0 81 37.5 128.5t95.5 47.5q51 0 82 -35t31 -95q0 -142 -173 -317v-147q0 -46 21.5 -66t52.5 -20q45 0 88 39h2zM340 586q0 37 -15 60.5t-37 23.5q-25 0 -42.5 -29t-17.5 -84v-218
q112 131 112 247z" />
    <glyph glyph-name="trademark" unicode="&#x2122;" horiz-adv-x="990" 
d="M848 302v340h-2l-139 -340h-39l-139 340h-2v-340h-66v412h98l130 -316l127 316h98v-412h-66zM185 302v352h-133v60h329v-60h-130v-352h-66z" />
    <glyph glyph-name="Omega" unicode="&#x2126;" horiz-adv-x="748" 
d="M688 0h-256v183q85 17 130.5 77.5t45.5 149.5q0 104 -68 171.5t-172 67.5q-103 0 -172 -68t-69 -171q0 -88 46.5 -150.5t130.5 -76.5v-183h-257v67h193v72q-90 25 -141.5 101t-51.5 173q0 133 94 220.5t227 87.5q134 0 227 -86.5t93 -219.5q0 -99 -50.5 -174.5
t-141.5 -101.5v-72h192v-67z" />
    <glyph glyph-name="estimated" unicode="&#x212e;" horiz-adv-x="600" 
d="M561 259h-404v-181q59 -59 145 -59q122 0 193 120l35 -21q-46 -72 -98 -103.5t-130 -31.5q-115 0 -186.5 79t-71.5 197q0 119 71 197.5t187 78.5q115 0 186.5 -77t72.5 -199zM157 295h291v145q-63 60 -147 60t-144 -60v-145z" />
    <glyph glyph-name="partialdiff" unicode="&#x2202;" horiz-adv-x="511" 
d="M389 280q-63 85 -148 85q-63 0 -98.5 -45.5t-35.5 -109.5t35 -113t97 -49q52 0 87.5 41t49 91t13.5 100zM469 362q0 -52 -5 -98.5t-20 -99t-39.5 -89.5t-67.5 -62t-100 -25q-92 0 -148 66t-56 159q0 91 54.5 152.5t144.5 61.5q96 0 161 -76q0 7 0.5 22t0.5 23q0 44 -9 87
t-27.5 83.5t-54 66t-82.5 25.5q-53 0 -114 -47l-42 50q68 60 153 60q57 0 101.5 -22t72 -57.5t45.5 -84t25 -96.5t7 -99z" />
    <glyph glyph-name="Delta" unicode="&#x2206;" horiz-adv-x="674" 
d="M550 72l-217 556l-213 -556h430zM662 0h-649l279 712h83z" />
    <glyph glyph-name="product" unicode="&#x220f;" horiz-adv-x="719" 
d="M650 -214h-78v928h-426v-928h-78v1000h582v-1000z" />
    <glyph glyph-name="summation" unicode="&#x2211;" horiz-adv-x="615" 
d="M589 -214h-564v64l322 440l-308 432v64h538v-72h-437l301 -424l-319 -432h467v-72z" />
    <glyph glyph-name="minus" unicode="&#x2212;" horiz-adv-x="600" 
d="M47 220v66h506v-66h-506z" />
    <glyph glyph-name="uni2215" unicode="&#x2215;" horiz-adv-x="167" 
d="M-164 -31l435 756h60l-435 -756h-60z" />
    <glyph glyph-name="uni2219" unicode="&#x2219;" horiz-adv-x="240" 
d="M64 327q0 23 16.5 39.5t39.5 16.5t39.5 -16.5t16.5 -39.5t-16.5 -39.5t-39.5 -16.5t-39.5 16.5t-16.5 39.5z" />
    <glyph glyph-name="radical" unicode="&#x221a;" horiz-adv-x="504" 
d="M514 786l-211 -1000h-75l-162 334l-47 -22l-28 60l112 52l151 -317l184 893h76z" />
    <glyph glyph-name="infinity" unicode="&#x221e;" horiz-adv-x="759" 
d="M337 251q-29 27 -45 40.5t-48 31.5t-57 18q-37 0 -58.5 -26t-21.5 -63q0 -39 22 -62.5t61 -23.5q62 0 147 85zM652 252q0 40 -21.5 65t-60.5 25q-12 0 -23.5 -3t-24 -9.5t-21.5 -11.5t-22.5 -16.5t-19 -16.5t-20 -18.5t-16.5 -15.5q32 -30 46 -42t44.5 -27.5t59.5 -15.5
q37 0 58 24.5t21 61.5zM717 255q0 -68 -40 -112.5t-107 -44.5q-87 0 -190 109q-3 -3 -23.5 -21.5t-26 -23t-23 -18.5t-28 -19t-26.5 -13t-31.5 -10.5t-32.5 -2.5q-66 0 -106.5 43t-40.5 110q0 66 39.5 111t105.5 45q38 0 76.5 -20t58.5 -38t58 -56l17.5 17.5t19 18.5t18 17
t20 17.5t19.5 14t22.5 13.5t22 9t25 7t25.5 2q66 0 107 -44t41 -111z" />
    <glyph glyph-name="integral" unicode="&#x222b;" horiz-adv-x="554" 
d="M420 730q0 -17 -12 -27.5t-30 -10.5t-34 21.5t-22 21.5q-8 0 -14.5 -7t-9.5 -18.5t-5 -25t-2 -29v-27t0.5 -22.5t0.5 -12l1 -39v-511q0 -119 -15 -167q-27 -90 -111 -90q-26 0 -47.5 13.5t-21.5 38.5q0 14 11.5 25t25.5 11q18 0 32.5 -21t19.5 -21q7 0 12.5 7.5t8.5 20.5
t5 27.5t2.5 31.5t0.5 28.5v23.5l-1 12v22v495q0 9 -0.5 39t-0.5 46.5t2 46t6.5 47.5t14 40.5t23 35t34 21.5t47.5 9q31 0 55 -14t24 -42z" />
    <glyph glyph-name="approxequal" unicode="&#x2248;" horiz-adv-x="593" 
d="M510 234h50q-7 -63 -38.5 -104t-90.5 -41q-45 0 -143 36t-129 36t-51 -23t-24 -55h-52q23 148 129 148q44 0 139.5 -35.5t134.5 -35.5q60 0 75 74zM511 415h50q-7 -63 -39 -104.5t-91 -41.5q-46 0 -143 35.5t-128 35.5q-30 0 -50 -22.5t-26 -54.5h-51q7 62 38.5 105
t90.5 43q44 0 139.5 -35.5t134.5 -35.5q60 0 75 75z" />
    <glyph glyph-name="notequal" unicode="&#x2260;" horiz-adv-x="593" 
d="M550 114h-287l-76 -146l-62 32l59 114h-141v72h178l67 127h-245v71h283l77 148l62 -32l-61 -116h146v-71h-183l-67 -127h250v-72z" />
    <glyph glyph-name="lessequal" unicode="&#x2264;" horiz-adv-x="593" 
d="M550 -30h-507v72h507v-72zM550 82l-507 184v75l507 187v-78l-408 -146l408 -145v-77z" />
    <glyph glyph-name="greaterequal" unicode="&#x2265;" horiz-adv-x="593" 
d="M550 -30h-507v72h507v-72zM550 266l-507 -184v77l408 145l-408 146v78l507 -187v-75z" />
    <glyph glyph-name="lozenge" unicode="&#x25ca;" horiz-adv-x="593" 
d="M428 356l-132 315l-131 -315l131 -315zM504 356l-172 -391h-72l-171 391l171 391h72z" />
    <glyph glyph-name="commaaccent" unicode="&#xf004;" horiz-adv-x="240" 
d="M78 -141v91h83v-80q0 -40 -19 -58.5t-59 -21.5v26q11 3 16.5 6t11 12t6.5 25h-39z" />
    <glyph glyph-name="commaaccent" unicode="&#xf6c3;" horiz-adv-x="240" 
d="M78 -141v91h83v-80q0 -40 -19 -58.5t-59 -21.5v26q11 3 16.5 6t11 12t6.5 25h-39z" />
    <glyph glyph-name="dotlessj" unicode="&#xf6be;" horiz-adv-x="204" 
d="M144 536v-588q0 -67 -30 -99.5t-98 -32.5q-6 0 -12.5 0.5t-14.5 1.5t-12 1v72q2 0 13.5 -1.5t17.5 -1.5q19 0 30 6t15.5 21t5.5 26.5t1 36.5v558h84z" />
    <glyph glyph-name="dotlessj" unicode="&#xfb0f;" horiz-adv-x="204" 
d="M144 536v-588q0 -67 -30 -99.5t-98 -32.5q-6 0 -12.5 0.5t-14.5 1.5t-12 1v72q2 0 13.5 -1.5t17.5 -1.5q19 0 30 6t15.5 21t5.5 26.5t1 36.5v558h84z" />
    <glyph glyph-name="uniF8FF" unicode="&#xf8ff;" horiz-adv-x="512" 
d="M222 117h56v67h-56v-67zM225 234h46q0 52 6 72q6 19 43 52q37 34 50 60t13 60q0 59 -35 95t-89 36q-56 0 -92 -34t-43 -103l50 -8q11 95 82 95q31 0 53.5 -24.5t22.5 -60.5q0 -20 -9.5 -37t-40.5 -46q-31 -31 -46 -59q-13 -25 -13 -81zM462 50h-412v617h412v-617z
M512 718h-512v-718h512v718z" />
    <glyph glyph-name="commaaccent.alt" horiz-adv-x="240" 
d="M162 714v-91h-83v85q0 69 78 75v-26q-11 -3 -16.5 -6t-11 -12t-6.5 -25h39z" />
    <glyph glyph-name="caron.alt" horiz-adv-x="204" 
d="M52 572l26 142h87l-59 -142h-54z" />
    <glyph glyph-name="grave.cap" horiz-adv-x="204" 
d="M-16 915h98l70 -142h-60z" />
    <glyph glyph-name="acute.cap" horiz-adv-x="204" 
d="M52 773l70 142h98l-108 -142h-60z" />
    <glyph glyph-name="circumflex.cap" horiz-adv-x="204" 
d="M-37 773l101 142h77l100 -142h-78l-61 88l-61 -88h-78z" />
    <glyph glyph-name="caron.cap" horiz-adv-x="204" 
d="M241 915l-101 -142h-77l-100 142h78l61 -88l61 88h78z" />
    <glyph glyph-name="tilde.cap" horiz-adv-x="204" 
d="M195 903h54q0 -42 -23 -76.5t-63 -34.5q-24 0 -65.5 19t-49.5 19q-32 0 -39 -45h-54q0 45 27 78t66 33q25 0 60 -19q42 -19 52 -19q26 0 35 45z" />
    <glyph glyph-name="dieresis.cap" horiz-adv-x="204" 
d="M144 794v101h78v-101h-78zM-18 794v101h78v-101h-78z" />
    <glyph glyph-name="macron.cap" horiz-adv-x="204" 
d="M-30 817v54h264v-54h-264z" />
    <glyph glyph-name="breve.cap" horiz-adv-x="204" 
d="M-23 890h48q0 -26 24.5 -46.5t52.5 -20.5t52.5 20.5t24.5 46.5h48q0 -43 -29.5 -85t-95.5 -42t-95.5 42t-29.5 85z" />
    <glyph glyph-name="ring.cap" horiz-adv-x="204" 
d="M45 844q0 -23 17 -40t40 -17t40 17t17 40t-17 40t-40 17t-40 -17t-17 -40zM3 844q0 42 28.5 70.5t70.5 28.5t70.5 -28.5t28.5 -70.5t-28.5 -70.5t-70.5 -28.5t-70.5 28.5t-28.5 70.5z" />
    <glyph glyph-name="hungarumlaut.cap" horiz-adv-x="204" 
d="M114 773l70 142h98l-108 -142h-60zM-50 773l70 142h98l-108 -142h-60z" />
    <glyph glyph-name="dotaccent.cap" horiz-adv-x="204" 
d="M63 794v101h78v-101h-78z" />
    </font>
</defs>
</svg>
