<?xml version="1.0" standalone="no"?>
<!DOCTYPE svg PUBLIC "-//W3C//DTD SVG 1.1//EN" "http://www.w3.org/Graphics/SVG/1.1/DTD/svg11.dtd" >
<svg>
<metadata>
Created by FontForge 20110222 at Tue Jul  1 04:33:47 2014
 By Orthosie Webhosting
Copyright (c) 1988, 1990, 1993, 2003 Linotype Library GmbH, www.linotype.com. All rights reserved. Copyright (c) 1988, 1990, 1993 Adobe Systems Incorporated. All Rights Reserved.
</metadata>
<defs>
<font id="HelveticaNeueLTPro77BoldCondensed" horiz-adv-x="480" >
  <font-face 
    font-family="HelveticaNeueLTPro77BoldCondensed"
    font-weight="700"
    font-stretch="normal"
    units-per-em="1000"
    panose-1="2 11 7 6 3 5 2 3 2 4"
    ascent="714"
    descent="-286"
    x-height="538"
    cap-height="714"
    bbox="-164 -253 1066 1370"
    underline-thickness="50"
    underline-position="-50"
    unicode-range="U+000D-FB02"
  />
<missing-glyph horiz-adv-x="512" 
d="M222 117h56v67h-56v-67zM225 234h46q0 52 6 72q6 19 43 52q37 34 50 60t13 60q0 59 -35 95t-89 36q-56 0 -92 -34t-43 -103l50 -8q11 95 82 95q31 0 53.5 -24.5t22.5 -60.5q0 -20 -9.5 -37t-40.5 -46q-31 -31 -46 -59q-13 -25 -13 -81zM462 50h-412v617h412v-617z
M512 718h-512v-718h512v718z" />
    <glyph glyph-name="IJ" unicode="IJ" horiz-adv-x="719" 
d="M201 0h-144v714h144v-714zM531 714h144v-514q0 -113 -52.5 -163.5t-162.5 -50.5q-105 0 -147 56.5t-42 152.5v31h132v-22q0 -60 13.5 -86t50.5 -26t50.5 26t13.5 86v510z" />
    <glyph glyph-name="ij" unicode="ij" 
d="M51 604v118h138v-118h-138zM51 0v538h138v-538h-138zM291 604v118h138v-118h-138zM291 10v528h138v-575q0 -72 -34.5 -105.5t-123.5 -33.5q-16 0 -56 2v100q6 -2 11 -2h11q35 0 44.5 18.5t9.5 67.5z" />
    <glyph glyph-name="napostrophe" unicode="&#x22;n" horiz-adv-x="530" 
d="M76 0v538h132v-63h2q42 77 137 77q137 0 137 -153v-399h-138v371q0 41 -14 58t-45 17q-73 0 -73 -89v-357h-138zM30 832h112v-97q0 -32 -8 -53.5t-24 -32t-29.5 -14t-35.5 -6.5v36q18 6 26.5 16.5t9.5 32.5h-51v118z" />
    <glyph glyph-name="fi" unicode="fi" horiz-adv-x="537" 
d="M76 0v444h-70v94h70v61q0 70 36.5 99.5t107.5 29.5q36 0 74 -3v-98q-5 1 -14 1h-13q-29 0 -41 -10t-12 -33v-47h80v-94h-80v-444h-138zM348 604v118h138v-118h-138zM348 0v538h138v-538h-138z" />
    <glyph glyph-name="fl" unicode="fl" horiz-adv-x="537" 
d="M76 0v444h-70v94h70v61q0 70 36.5 99.5t107.5 29.5q36 0 74 -3v-98q-5 1 -14 1h-13q-29 0 -41 -10t-12 -33v-47h80v-94h-80v-444h-138zM348 0v722h138v-722h-138z" />
    <glyph glyph-name=".notdef" horiz-adv-x="512" 
d="M222 117h56v67h-56v-67zM225 234h46q0 52 6 72q6 19 43 52q37 34 50 60t13 60q0 59 -35 95t-89 36q-56 0 -92 -34t-43 -103l50 -8q11 95 82 95q31 0 53.5 -24.5t22.5 -60.5q0 -20 -9.5 -37t-40.5 -46q-31 -31 -46 -59q-13 -25 -13 -81zM462 50h-412v617h412v-617z
M512 718h-512v-718h512v718z" />
    <glyph glyph-name=".null" horiz-adv-x="500" 
 />
    <glyph glyph-name=".null" horiz-adv-x="500" 
 />
    <glyph glyph-name="nonmarkingreturn" horiz-adv-x="333" 
 />
    <glyph glyph-name="CR" unicode="&#xd;" horiz-adv-x="0" 
 />
    <glyph glyph-name="space" unicode=" " horiz-adv-x="240" 
 />
    <glyph glyph-name="exclam" unicode="!" horiz-adv-x="296" 
d="M79 132h138v-132h-138v132zM198 199h-100l-19 283v232h138v-232z" />
    <glyph glyph-name="quotedbl" unicode="&#x22;" horiz-adv-x="463" 
d="M72 393v321h124v-321h-124zM267 393v321h124v-321h-124z" />
    <glyph glyph-name="numbersign" unicode="#" 
d="M199 408l-15 -122h97l16 122h-98zM0 174v112h87l16 122h-73v112h86l22 174h96l-21 -174h97l22 174h97l-22 -174h73v-112h-86l-16 -122h73v-112h-86l-22 -174h-97l22 174h-98l-21 -174h-97l22 174h-74z" />
    <glyph glyph-name="dollar" unicode="$" 
d="M205 -101v87q-60 5 -100 22.5t-60 46.5t-28 61t-8 75v21h138q0 -51 11 -81t47 -39v202l-50 18q-137 49 -137 192q0 91 48.5 142.5t138.5 61.5v69h64v-69q185 -16 185 -189v-14h-138q-2 83 -47 97v-189l79 -32q63 -27 93 -65t30 -116q0 -106 -50 -156.5t-152 -57.5v-87
h-64zM205 442v160q-49 -14 -49 -76q0 -56 49 -84zM269 269v-177q58 13 58 80q0 37 -14 59t-44 38z" />
    <glyph glyph-name="percent" unicode="%" horiz-adv-x="778" 
d="M140 -31l406 756h89l-406 -756h-89zM133 521q0 -66 8 -92.5t36 -26.5t36 26.5t8 92.5q0 61 -8 86t-36 25t-36 -25t-8 -86zM27 517q0 103 30.5 147t119.5 44t119.5 -44t30.5 -147t-30.5 -147t-119.5 -44t-119.5 44t-30.5 147zM451 177q0 103 30.5 147t119.5 44t119.5 -44
t30.5 -147t-30.5 -147t-119.5 -44t-119.5 44t-30.5 147zM557 181q0 -66 8 -92.5t36 -26.5t36 26.5t8 92.5q0 61 -8 86t-36 25t-36 -25t-8 -86z" />
    <glyph glyph-name="ampersand" unicode="&#x26;" horiz-adv-x="593" 
d="M319 380l107 -145q25 52 25 108h124q0 -107 -73 -211l94 -132h-153l-40 55q-58 -69 -172 -69q-64 0 -109.5 20t-68 53.5t-32 66t-9.5 66.5q0 115 144 206l-25 37q-29 42 -38.5 69t-9.5 60q0 68 50.5 109t131.5 41q88 0 133 -41.5t45 -107.5q0 -53 -29.5 -96t-94.5 -89z
M343 143l-120 170q-40 -32 -56.5 -59.5t-16.5 -61.5q0 -36 27 -65t73 -29q57 0 93 45zM201 568q0 -30 36 -78l17 -24l26 22q45 38 45 78q0 29 -17.5 44.5t-45.5 15.5q-27 0 -44 -15.5t-17 -42.5z" />
    <glyph glyph-name="quotesingle" unicode="'" horiz-adv-x="260" 
d="M68 393v321h124v-321h-124z" />
    <glyph glyph-name="parenleft" unicode="(" horiz-adv-x="296" 
d="M190 714h106q-62 -114 -88 -217.5t-26 -231.5t26 -231.5t88 -217.5h-106q-140 222 -140 449t140 449z" />
    <glyph glyph-name="parenright" unicode=")" horiz-adv-x="296" 
d="M0 714h106q140 -222 140 -449t-140 -449h-106q62 114 88 217.5t26 231.5t-26 231.5t-88 217.5z" />
    <glyph glyph-name="asterisk" unicode="*" horiz-adv-x="390" 
d="M154 714h82v-128l122 40l25 -78l-122 -40l76 -104l-67 -48l-75 104l-75 -104l-67 48l76 104l-122 40l25 78l122 -40v128z" />
    <glyph glyph-name="plus" unicode="+" horiz-adv-x="600" 
d="M238 0v191h-191v124h191v191h124v-191h191v-124h-191v-191h-124z" />
    <glyph glyph-name="comma" unicode="," horiz-adv-x="240" 
d="M54 156h132v-130q0 -88 -28.5 -135.5t-103.5 -55.5v70q25 5 38.5 27.5t13.5 51.5v16h-52v156z" />
    <glyph glyph-name="hyphen" unicode="-" horiz-adv-x="370" 
d="M44 348h282v-118h-282v118z" />
    <glyph glyph-name="period" unicode="." horiz-adv-x="240" 
d="M54 156h132v-156h-132v156z" />
    <glyph glyph-name="slash" unicode="/" horiz-adv-x="332" 
d="M-3 -14l226 742h112l-226 -742h-112z" />
    <glyph glyph-name="zero" unicode="0" 
d="M18 330q0 50 1 83.5t6 76.5t14 71.5t25 58.5t39.5 47.5t58 29t78.5 11.5q127 0 174.5 -76.5t47.5 -267.5q0 -50 -1 -83.5t-6 -76.5t-14 -71.5t-25 -58.5t-39.5 -47.5t-58 -29t-78.5 -11.5q-127 0 -174.5 76.5t-47.5 267.5zM162 376v-77q0 -133 16 -176t62 -43
q47 0 62.5 49.5t15.5 188.5v77q0 133 -16 176t-62 43q-47 0 -62.5 -49.5t-15.5 -188.5z" />
    <glyph glyph-name="one" unicode="1" 
d="M326 0h-144v500h-141v94h13q144 0 166 114h106v-708z" />
    <glyph glyph-name="two" unicode="2" 
d="M454 112v-112h-436q0 92 37.5 163.5t118.5 146.5l58 54q46 40 60 72.5t14 89.5q0 88 -70 88q-34 0 -52.5 -20.5t-23 -47t-4.5 -70.5h-138v27q0 205 220 205q106 0 159 -49.5t53 -143.5q0 -69 -25 -120t-85 -105l-80 -74q-60 -55 -73 -104h267z" />
    <glyph glyph-name="three" unicode="3" 
d="M20 207h138q1 -67 17.5 -97t61.5 -30q47 0 63 29.5t16 84.5q0 56 -19.5 88.5t-73.5 32.5h-48v94h47q42 0 62 32t20 80q0 50 -16.5 71.5t-52.5 21.5q-43 0 -58 -29t-15 -86h-132q0 209 208 209q204 0 204 -182q0 -63 -28.5 -104t-79.5 -52v-2q126 -21 126 -167
q0 -40 -10 -74.5t-33.5 -68t-72.5 -53t-119 -19.5q-101 0 -153 57t-52 161v3z" />
    <glyph glyph-name="four" unicode="4" 
d="M14 147v118l235 443h149v-449h68v-112h-68v-147h-132v147h-252zM266 259v269h-2l-138 -269h140z" />
    <glyph glyph-name="five" unicode="5" 
d="M425 694v-112h-261l-15 -161h2q39 53 130 53q49 0 84 -19t53.5 -52.5t27 -71.5t8.5 -83q0 -128 -49.5 -195t-177.5 -67q-52 0 -91 13t-61 33t-35.5 47.5t-17.5 52t-4 51.5v19h138q0 -116 70 -116q84 0 84 138q0 87 -17.5 118.5t-65.5 31.5q-60 0 -68 -65h-129l26 385h369
z" />
    <glyph glyph-name="six" unicode="6" 
d="M165 220q0 -69 16 -104.5t63 -35.5t62.5 35t15.5 105q0 72 -18 103t-60 31q-43 0 -61 -31t-18 -103zM449 528h-138q0 86 -65 86q-28 0 -46 -13t-27 -39t-12 -55.5t-3 -72.5v-35h2q40 61 133 61q89 0 131 -59.5t42 -161.5q0 -253 -229 -253q-57 0 -99 18.5t-65.5 47.5
t-37 74.5t-17.5 89t-4 101.5q0 42 0.5 66.5t2.5 62.5t6.5 61.5t13 54.5t20 49.5t29.5 39t41.5 31.5t55 18.5t69.5 7.5q85 0 140 -42.5t57 -137.5z" />
    <glyph glyph-name="seven" unicode="7" 
d="M22 694h436v-110q-84 -118 -136.5 -271.5t-71.5 -312.5h-151q39 321 221 570h-298v124z" />
    <glyph glyph-name="eight" unicode="8" 
d="M158 202q0 -122 82 -122t82 122t-82 122t-82 -122zM170 517q0 -99 70 -99t70 99q0 97 -70 97t-70 -97zM14 200q0 69 31 116t89 59v2q-53 13 -77.5 52.5t-24.5 83.5q0 195 208 195t208 -195q0 -44 -25 -83.5t-77 -52.5v-2q58 -12 89 -59t31 -116q0 -28 -4.5 -53.5t-19 -56
t-38 -52.5t-66 -37t-98.5 -15t-98.5 15t-66 37t-38 52.5t-19 56t-4.5 53.5z" />
    <glyph glyph-name="nine" unicode="9" 
d="M158 474q0 -72 18 -103t60 -31q43 0 61 31t18 103q0 69 -16 104.5t-63 35.5t-62.5 -35t-15.5 -105zM31 165h138q0 -85 65 -85q28 0 46 13t27 39t12 55.5t3 72.5v34h-2q-40 -60 -133 -60q-89 0 -131 59.5t-42 161.5q0 253 229 253q57 0 98.5 -18.5t65 -47.5t37.5 -74.5
t18 -89t4 -101.5q0 -37 -0.5 -60t-2 -57.5t-5 -56t-9 -50.5t-15 -47.5t-22 -39.5t-30.5 -34t-40 -24.5t-51 -16.5t-63 -5q-86 0 -140.5 42t-56.5 137z" />
    <glyph glyph-name="colon" unicode=":" horiz-adv-x="240" 
d="M54 365v156h132v-156h-132zM54 0v156h132v-156h-132z" />
    <glyph glyph-name="semicolon" unicode=";" horiz-adv-x="240" 
d="M54 521h132v-156h-132v156zM54 156h132v-130q0 -88 -28.5 -135.5t-103.5 -55.5v70q25 5 38.5 27.5t13.5 51.5v16h-52v156z" />
    <glyph glyph-name="semicolon" unicode="&#x37e;" horiz-adv-x="240" 
d="M54 521h132v-156h-132v156zM54 156h132v-130q0 -88 -28.5 -135.5t-103.5 -55.5v70q25 5 38.5 27.5t13.5 51.5v16h-52v156z" />
    <glyph glyph-name="less" unicode="&#x3c;" horiz-adv-x="600" 
d="M47 200v106l506 208v-124l-338 -137l338 -137v-124z" />
    <glyph glyph-name="equal" unicode="=" horiz-adv-x="600" 
d="M47 82v124h506v-124h-506zM47 300v124h506v-124h-506z" />
    <glyph glyph-name="greater" unicode="&#x3e;" horiz-adv-x="600" 
d="M47 -8v124l338 137l-338 137v124l506 -208v-106z" />
    <glyph glyph-name="question" unicode="?" horiz-adv-x="481" 
d="M162 132h138v-132h-138v132zM168 493h-132v23q0 93 51 149.5t147 56.5q103 0 157 -51.5t54 -141.5q0 -84 -63 -156l-40 -45q-28 -31 -38.5 -54.5t-10.5 -60.5v-15h-124v39q0 49 14 83.5t48 73.5l38 43q38 42 38 106q0 39 -17.5 62t-50.5 23q-71 0 -71 -110v-25z" />
    <glyph glyph-name="at" unicode="@" horiz-adv-x="800" 
d="M522 488l13 53h88l-58 -250q-6 -29 -6 -41q0 -20 20 -20q34 0 69 50.5t35 123.5q0 98 -79.5 164t-186.5 66q-115 0 -195.5 -84t-80.5 -194q0 -114 84 -195t199 -81q110 0 217 64h89q-112 -158 -330 -158q-154 0 -262.5 108.5t-108.5 262.5t108.5 262.5t262.5 108.5
t262.5 -84.5t108.5 -218.5q0 -60 -20 -110.5t-49.5 -82t-65 -53.5t-65.5 -31t-51 -9q-60 0 -65 53h-2q-51 -53 -120 -53q-57 0 -101.5 47t-44.5 123q0 97 60 171.5t154 74.5q80 0 121 -67zM299 326q0 -34 20 -57.5t51 -23.5q49 0 82.5 40t33.5 88q0 32 -22 54t-53 22
q-46 0 -79 -39.5t-33 -83.5z" />
    <glyph glyph-name="A" unicode="A" horiz-adv-x="556" 
d="M277 590l-69 -321h140l-69 321h-2zM0 0l189 714h178l189 -714h-150l-33 151h-190l-33 -151h-150z" />
    <glyph glyph-name="B" unicode="B" horiz-adv-x="556" 
d="M194 321v-215h56q56 0 86 24.5t30 83.5q0 107 -110 107h-62zM194 608v-187h41q61 0 88 21.5t27 72.5q0 50 -24.5 71.5t-79.5 21.5h-52zM50 0v714h241q203 0 203 -181q0 -59 -27.5 -100t-80.5 -56v-2q61 -8 95.5 -51.5t34.5 -114.5q0 -93 -52.5 -151t-170.5 -58h-243z" />
    <glyph glyph-name="C" unicode="C" horiz-adv-x="537" 
d="M499 473h-144q0 80 -19 114.5t-67 34.5q-53 0 -71.5 -59.5t-18.5 -215.5q0 -106 10.5 -162.5t29.5 -74.5t52 -18q44 0 67 37t23 144h144q0 -64 -9.5 -111.5t-33 -89.5t-70 -64t-114.5 -22q-63 0 -108 18.5t-71 48.5t-40.5 80.5t-19 100.5t-4.5 123t4.5 123t19 100.5
t40.5 80.5t71 48.5t108 18.5q59 0 102 -17.5t65 -41.5t35 -62t16 -67t3 -67z" />
    <glyph glyph-name="D" unicode="D" horiz-adv-x="574" 
d="M201 608v-502h64q73 0 96.5 53.5t23.5 203.5q0 67 -4 107.5t-16.5 74.5t-37.5 48.5t-65 14.5h-61zM57 0v714h236q73 0 120.5 -23.5t72.5 -72t34 -107t9 -144.5q0 -196 -53 -281.5t-192 -85.5h-227z" />
    <glyph glyph-name="E" unicode="E" horiz-adv-x="481" 
d="M50 714h399v-118h-255v-168h240v-118h-240v-192h265v-118h-409v714z" />
    <glyph glyph-name="F" unicode="F" horiz-adv-x="463" 
d="M50 0v714h399v-118h-255v-168h240v-118h-240v-310h-144z" />
    <glyph glyph-name="G" unicode="G" horiz-adv-x="556" 
d="M505 502h-138q0 46 -20.5 83t-61.5 37q-52 0 -75 -58t-23 -192q0 -143 20.5 -211.5t78.5 -68.5q31 0 60 30.5t29 83.5v73h-95v106h233v-385h-106v66h-2q-50 -80 -150 -80q-65 0 -107.5 23.5t-65 74.5t-31 116.5t-8.5 164.5q0 188 53.5 275.5t186.5 87.5q115 0 168.5 -57
t53.5 -169z" />
    <glyph glyph-name="H" unicode="H" horiz-adv-x="556" 
d="M50 0v714h144v-273h168v273h144v-714h-144v317h-168v-317h-144z" />
    <glyph glyph-name="I" unicode="I" horiz-adv-x="258" 
d="M201 0h-144v714h144v-714z" />
    <glyph glyph-name="J" unicode="J" horiz-adv-x="463" 
d="M275 714h144v-514q0 -113 -52.5 -163.5t-162.5 -50.5q-105 0 -147 56.5t-42 152.5v31h132v-22q0 -60 13.5 -86t50.5 -26t50.5 26t13.5 86v510z" />
    <glyph glyph-name="K" unicode="K" horiz-adv-x="537" 
d="M50 714h144v-286h2l182 286h156l-194 -306l216 -408h-162l-147 293l-53 -81v-212h-144v714z" />
    <glyph glyph-name="L" unicode="L" horiz-adv-x="463" 
d="M449 0h-399v714h144v-596h255v-118z" />
    <glyph glyph-name="M" unicode="M" horiz-adv-x="740" 
d="M53 0v714h214l102 -504h2l103 504h213v-714h-132v570h-2l-127 -570h-112l-127 570h-2v-570h-132z" />
    <glyph glyph-name="N" unicode="N" horiz-adv-x="574" 
d="M50 714h166l174 -489h2v489h132v-714h-164l-176 500h-2v-500h-132v714z" />
    <glyph glyph-name="O" unicode="O" horiz-adv-x="556" 
d="M35 357q0 73 4.5 123t19 100.5t40.5 80.5t71 48.5t108 18.5t108 -18.5t71 -48.5t40.5 -80.5t19 -100.5t4.5 -123t-4.5 -123t-19 -100.5t-40.5 -80.5t-71 -48.5t-108 -18.5t-108 18.5t-71 48.5t-40.5 80.5t-19 100.5t-4.5 123zM179 357q0 -152 19 -208.5t80 -56.5t80 56.5
t19 208.5q0 151 -19 208t-80 57t-80 -57t-19 -208z" />
    <glyph glyph-name="P" unicode="P" horiz-adv-x="519" 
d="M194 608v-217h64q44 0 70 27t26 80q0 110 -100 110h-60zM50 0v714h252q102 0 149 -61.5t47 -152.5q0 -108 -60.5 -161.5t-166.5 -53.5h-77v-285h-144z" />
    <glyph glyph-name="Q" unicode="Q" horiz-adv-x="556" 
d="M179 357q0 -152 19 -208.5t80 -56.5t80 56.5t19 208.5q0 151 -19 208t-80 57t-80 -57t-19 -208zM543 -11l-85 -77l-85 88q-23 -8 -44 -11q-23 -3 -51 -3q-63 0 -108 18.5t-71 48.5t-40.5 80.5t-19 100.5t-4.5 123t4.5 123t19 100.5t40.5 80.5t71 48.5t108 18.5t108 -18.5
t71 -48.5t40.5 -80.5t19 -100.5t4.5 -123q0 -104 -11 -173.5t-44 -116.5z" />
    <glyph glyph-name="R" unicode="R" horiz-adv-x="556" 
d="M50 0v714h266q91 0 140.5 -46.5t49.5 -137.5q0 -151 -119 -176v-2q70 -9 91.5 -53.5t23.5 -164.5q1 -62 7 -89.5t25 -38.5v-6h-156q-16 21 -18 75l-4 137q-5 90 -85 90h-77v-302h-144zM194 608v-206h60q108 0 108 107q0 99 -100 99h-68z" />
    <glyph glyph-name="S" unicode="S" horiz-adv-x="519" 
d="M22 223h144v-21q0 -55 20.5 -82.5t74.5 -27.5q36 0 61 23t25 65q0 47 -27 72t-101 50q-99 33 -143 81.5t-44 134.5q0 103 58 156.5t163 53.5q102 0 161.5 -47t59.5 -145v-20h-138q0 106 -78 106q-82 0 -82 -83q0 -35 15.5 -57t58.5 -40l111 -48q78 -35 107 -77.5
t29 -111.5q0 -219 -248 -219q-119 0 -173 53t-54 155v29z" />
    <glyph glyph-name="T" unicode="T" 
d="M12 714h456v-118h-156v-596h-144v596h-156v118z" />
    <glyph glyph-name="U" unicode="U" horiz-adv-x="538" 
d="M41 714h144v-498q0 -59 18 -91.5t66 -32.5t66 32.5t18 91.5v498h144v-498q0 -65 -18.5 -111.5t-52 -71.5t-72 -36t-85.5 -11q-48 0 -85.5 9.5t-71.5 33.5t-52.5 71t-18.5 116v498z" />
    <glyph glyph-name="V" unicode="V" horiz-adv-x="519" 
d="M3 714h154l101 -528h3l106 528h149l-164 -714h-185z" />
    <glyph glyph-name="W" unicode="W" horiz-adv-x="760" 
d="M138 0l-130 714h138l79 -528h2l84 528h138l84 -528h2l79 528h138l-130 -714h-161l-80 518h-2l-80 -518h-161z" />
    <glyph glyph-name="X" unicode="X" horiz-adv-x="537" 
d="M184 361l-164 353h159l92 -231l91 231h157l-166 -353l178 -361h-162l-103 242l-102 -242h-158z" />
    <glyph glyph-name="Y" unicode="Y" horiz-adv-x="520" 
d="M3 714h162l94 -276h2l100 276h156l-185 -433v-281h-144v281z" />
    <glyph glyph-name="Z" unicode="Z" horiz-adv-x="481" 
d="M24 0v105l263 491h-245v118h411v-109l-267 -487h271v-118h-433z" />
    <glyph glyph-name="bracketleft" unicode="[" horiz-adv-x="315" 
d="M80 -184v898h229v-100h-105v-698h105v-100h-229z" />
    <glyph glyph-name="backslash" unicode="\" horiz-adv-x="332" 
d="M223 -14l-226 742h112l226 -742h-112z" />
    <glyph glyph-name="bracketright" unicode="]" horiz-adv-x="315" 
d="M6 -184v100h105v698h-105v100h229v-898h-229z" />
    <glyph glyph-name="asciicircum" unicode="^" horiz-adv-x="600" 
d="M180 309h-124l188 385h112l188 -385h-124l-120 247z" />
    <glyph glyph-name="underscore" unicode="_" horiz-adv-x="500" 
d="M500 -125h-500v50h500v-50z" />
    <glyph glyph-name="grave" unicode="`" horiz-adv-x="222" 
d="M176 602h-94l-98 144h138z" />
    <glyph glyph-name="a" unicode="a" horiz-adv-x="481" 
d="M169 373h-124v13q0 87 52 126.5t137 39.5q114 0 154.5 -41.5t40.5 -123.5v-283q0 -62 17 -104h-132q-9 16 -17 56h-2q-23 -41 -54 -55.5t-83 -14.5q-66 0 -98 46t-32 108q0 74 31 111t105 57l78 21q31 8 43 22t12 41q0 66 -64 66t-64 -70v-15zM297 163v106
q-24 -19 -59 -27q-41 -9 -59.5 -30t-18.5 -57q0 -33 13 -54t39 -21q33 0 59 21t26 62z" />
    <glyph glyph-name="b" unicode="b" horiz-adv-x="500" 
d="M46 0v714h138v-226h2q43 64 116 64q85 0 125 -67t40 -216t-40 -216t-125 -67q-79 0 -122 71h-2v-57h-132zM184 269q0 -94 15 -135.5t58 -41.5t57.5 41.5t14.5 135.5t-14.5 135.5t-57.5 41.5t-58 -41.5t-15 -135.5z" />
    <glyph glyph-name="c" unicode="c" horiz-adv-x="463" 
d="M437 344h-132q0 108 -62 108q-48 0 -63.5 -41.5t-15.5 -142.5q0 -104 15 -146t59 -42q35 0 51 30t16 96h132q0 -109 -49 -164.5t-156 -55.5t-156.5 63t-49.5 220q0 156 56.5 219.5t161.5 63.5q94 0 143.5 -55t49.5 -153z" />
    <glyph glyph-name="d" unicode="d" horiz-adv-x="500" 
d="M322 0v57h-2q-43 -71 -122 -71q-85 0 -125 67t-40 216t40 216t125 67q73 0 116 -64h2v226h138v-714h-132zM171 269q0 -94 14.5 -135.5t57.5 -41.5t58 41.5t15 135.5t-15 135.5t-58 41.5t-57.5 -41.5t-14.5 -135.5z" />
    <glyph glyph-name="e" unicode="e" horiz-adv-x="463" 
d="M437 248h-273v-43q0 -54 16 -89.5t52 -35.5q34 0 50.5 24t22.5 77h124q-8 -195 -195 -195q-42 0 -74.5 9.5t-54 23.5t-37 38.5t-23.5 46.5t-12.5 55t-5.5 56.5t-1 58.5q0 48 4 85t17.5 75t36.5 62.5t62.5 40t93.5 15.5q113 0 155 -68.5t42 -204.5v-31zM164 330h141
q-2 68 -16 98t-54 30q-38 0 -54.5 -31t-16.5 -76v-21z" />
    <glyph glyph-name="f" unicode="f" horiz-adv-x="296" 
d="M76 0v444h-70v94h70v61q0 70 36.5 99.5t107.5 29.5q36 0 74 -3v-98q-5 1 -14 1h-13q-29 0 -41 -10t-12 -33v-47h80v-94h-80v-444h-138z" />
    <glyph glyph-name="g" unicode="g" horiz-adv-x="500" 
d="M173 252q0 -65 14.5 -102.5t54.5 -37.5q42 0 58.5 40t16.5 114q0 100 -15.5 140t-56.5 40q-44 0 -58 -40.5t-14 -153.5zM317 538h132v-511q0 -109 -52.5 -160t-171.5 -51q-88 0 -135.5 37.5t-47.5 106.5h132q0 -26 21 -41q22 -15 46 -15q76 0 76 97v71h-2
q-46 -66 -115 -66q-84 0 -124.5 64t-40.5 208q0 55 6 97.5t22.5 85.5t52 67t88.5 24q75 0 111 -74h2v60z" />
    <glyph glyph-name="h" unicode="h" horiz-adv-x="500" 
d="M46 0v714h138v-231h2q40 69 131 69q137 0 137 -153v-399h-138v371q0 41 -14 58t-45 17q-73 0 -73 -89v-357h-138z" />
    <glyph glyph-name="i" unicode="i" horiz-adv-x="240" 
d="M51 604v118h138v-118h-138zM51 0v538h138v-538h-138z" />
    <glyph glyph-name="j" unicode="j" horiz-adv-x="240" 
d="M51 604v118h138v-118h-138zM51 10v528h138v-575q0 -72 -34.5 -105.5t-123.5 -33.5q-16 0 -56 2v100q6 -2 11 -2h11q35 0 44.5 18.5t9.5 67.5z" />
    <glyph glyph-name="k" unicode="k" horiz-adv-x="500" 
d="M51 714h138v-377h2l139 201h152l-155 -212l178 -326h-152l-115 221l-49 -64v-157h-138v714z" />
    <glyph glyph-name="l" unicode="l" horiz-adv-x="240" 
d="M51 0v714h138v-714h-138z" />
    <glyph glyph-name="m" unicode="m" horiz-adv-x="758" 
d="M46 0v538h132v-55h2q49 69 136 69q101 0 124 -86h2q32 86 136 86q134 0 134 -161v-391h-138v376q0 70 -54 70q-72 0 -72 -92v-354h-138v376q0 70 -54 70q-72 0 -72 -92v-354h-138z" />
    <glyph glyph-name="n" unicode="n" horiz-adv-x="500" 
d="M46 0v538h132v-63h2q42 77 137 77q137 0 137 -153v-399h-138v371q0 41 -14 58t-45 17q-73 0 -73 -89v-357h-138z" />
    <glyph glyph-name="o" unicode="o" 
d="M28 269q0 143 49 213t163 70q119 2 165.5 -66.5t46.5 -216.5q0 -143 -49 -213t-163 -70q-119 -2 -165.5 66.5t-46.5 216.5zM166 269q0 -48 2 -77t9 -57.5t22.5 -41.5t40.5 -13q41 0 57.5 43t16.5 146t-16.5 146t-57.5 43q-25 0 -40.5 -13t-22.5 -41.5t-9 -57.5t-2 -77z
" />
    <glyph glyph-name="p" unicode="p" horiz-adv-x="500" 
d="M46 -176v714h132v-57h2q43 71 122 71q85 0 125 -67t40 -216t-40 -216t-125 -67q-73 0 -116 64h-2v-226h-138zM184 269q0 -94 15 -135.5t58 -41.5t57.5 41.5t14.5 135.5t-14.5 135.5t-57.5 41.5t-58 -41.5t-15 -135.5z" />
    <glyph glyph-name="q" unicode="q" horiz-adv-x="500" 
d="M316 -176v226h-2q-43 -64 -116 -64q-85 0 -125 67t-40 216t40 216t125 67q79 0 122 -71h2v57h132v-714h-138zM316 269q0 94 -15 135.5t-58 41.5t-57.5 -41.5t-14.5 -135.5t14.5 -135.5t57.5 -41.5t58 41.5t15 135.5z" />
    <glyph glyph-name="r" unicode="r" horiz-adv-x="333" 
d="M46 0v538h132v-72h2q46 86 124 86q9 0 25 -2v-132q-30 2 -43 2q-42 0 -72 -23.5t-30 -73.5v-323h-138z" />
    <glyph glyph-name="s" unicode="s" horiz-adv-x="444" 
d="M23 176h124v-18q0 -36 18.5 -57t53.5 -21q70 0 70 64q0 41 -50 61l-97 35q-115 41 -115 150q0 71 49 116.5t149 45.5q184 0 184 -153v-22h-124q0 42 -14 61.5t-47 19.5q-28 0 -46.5 -15t-18.5 -43q0 -44 60 -63l83 -28q65 -22 92 -57.5t27 -96.5q0 -82 -55 -125.5
t-145 -43.5q-111 0 -154.5 43.5t-43.5 127.5v19z" />
    <glyph glyph-name="t" unicode="t" horiz-adv-x="296" 
d="M76 538v154h138v-154h80v-94h-80v-291q0 -33 10 -46t39 -13q13 0 31 2v-96q-62 -6 -90 -6q-79 0 -103.5 29t-24.5 113v308h-70v94h70z" />
    <glyph glyph-name="u" unicode="u" horiz-adv-x="500" 
d="M322 0v63h-2q-42 -77 -137 -77q-137 0 -137 153v399h138v-371q0 -41 14 -58t45 -17q73 0 73 89v357h138v-538h-132z" />
    <glyph glyph-name="v" unicode="v" horiz-adv-x="444" 
d="M228 153l73 385h138l-135 -538h-160l-139 538h144l77 -385h2z" />
    <glyph glyph-name="w" unicode="w" horiz-adv-x="704" 
d="M124 0l-117 538h138l63 -382h2l67 382h150l71 -382h2l65 382h132l-116 -538h-157l-71 382h-2l-67 -382h-160z" />
    <glyph glyph-name="x" unicode="x" horiz-adv-x="462" 
d="M231 376l74 162h144l-140 -261l146 -277h-144l-80 176l-80 -176h-144l146 277l-140 261h144z" />
    <glyph glyph-name="y" unicode="y" horiz-adv-x="444" 
d="M46 -176v103q18 -3 36 -3q68 0 74 76l-151 538h144l80 -372h2l70 372h138l-130 -502q-19 -73 -34.5 -112t-39.5 -63t-53 -30.5t-80 -6.5h-56z" />
    <glyph glyph-name="z" unicode="z" horiz-adv-x="426" 
d="M24 0v106l215 320h-205v112h368v-106l-215 -320h215v-112h-378z" />
    <glyph glyph-name="braceleft" unicode="{" horiz-adv-x="315" 
d="M30 224v82q26 0 46 23.5t20 57.5v193q0 64 26.5 99t77.5 35h89v-100h-30q-39 0 -39 -72v-166q0 -45 -19.5 -74.5t-52.5 -35.5v-2q33 -6 52.5 -35.5t19.5 -74.5v-166q0 -72 39 -72h30v-100h-89q-51 0 -77.5 35t-26.5 99v193q0 34 -20 57.5t-46 23.5z" />
    <glyph glyph-name="bar" unicode="|" horiz-adv-x="222" 
d="M49 -14v742h124v-742h-124z" />
    <glyph glyph-name="braceright" unicode="}" horiz-adv-x="315" 
d="M26 -184v100h30q39 0 39 72v166q0 45 19.5 74.5t52.5 35.5v2q-33 6 -52.5 35.5t-19.5 74.5v166q0 72 -39 72h-30v100h89q51 0 77.5 -35t26.5 -99v-193q0 -34 20 -57.5t46 -23.5v-82q-26 0 -46 -23.5t-20 -57.5v-193q0 -64 -26.5 -99t-77.5 -35h-89z" />
    <glyph glyph-name="asciitilde" unicode="~" horiz-adv-x="600" 
d="M495 349l36 -106q-46 -86 -123 -86q-52 0 -118 34t-95 34q-27 0 -53.5 -23t-36.5 -45l-36 106q46 86 123 86q53 0 109 -29q74 -39 104 -39q27 0 53.5 23t36.5 45z" />
    <glyph glyph-name="uni00A0" unicode="&#xa0;" horiz-adv-x="240" 
 />
    <glyph glyph-name="exclamdown" unicode="&#xa1;" horiz-adv-x="296" 
d="M79 406v132h138v-132h-138zM79 -176v232l19 283h100l19 -283v-232h-138z" />
    <glyph glyph-name="cent" unicode="&#xa2;" 
d="M222 -102v88q-43 2 -75 15t-59 42.5t-41 85t-14 136.5q0 62 7.5 107.5t27 86.5t58 64.5t96.5 28.5v76h52v-76q173 -10 173 -204h-132q0 88 -41 104v-366q41 24 41 123h132q0 -102 -41 -157t-132 -66v-88h-52zM222 86v366q-31 -11 -41 -53t-10 -128q0 -54 1.5 -83
t13.5 -62t36 -40z" />
    <glyph glyph-name="sterling" unicode="&#xa3;" 
d="M9 306v82h67q-45 87 -45 142q0 78 55 128t159 50q214 0 218 -207h-132q0 113 -78 113q-44 0 -64 -22.5t-20 -56.5q0 -37 26 -90l28 -57h167v-82h-141q5 -15 5 -39q0 -44 -20 -79t-70 -77l4 -2q16 7 45 7q13 0 54.5 -15t59.5 -15q40 0 104 42l44 -94q-73 -48 -149 -48
q-22 0 -86 18t-96 18q-42 0 -98 -28l-41 86q53 34 85 80.5t32 96.5q0 21 -11 49h-102z" />
    <glyph glyph-name="currency" unicode="&#xa4;" 
d="M117 347q0 -60 33.5 -94.5t89.5 -34.5t89.5 34.5t33.5 94.5t-33.5 94.5t-89.5 34.5t-89.5 -34.5t-33.5 -94.5zM61 107l-61 62l50 50q-39 59 -39 128q0 70 39 128l-50 50l61 62l51 -50q58 39 128 39t128 -39l51 50l61 -62l-50 -50q39 -58 39 -128t-39 -128l50 -50l-61 -62
l-51 51q-58 -40 -128 -40q-72 0 -128 40z" />
    <glyph glyph-name="yen" unicode="&#xa5;" 
d="M178 0v159h-142v82h142v43l-11 23h-131v82h92l-145 305h149l107 -269h2l112 269h144l-145 -305h92v-82h-131l-11 -23v-43h142v-82h-142v-159h-124z" />
    <glyph glyph-name="brokenbar" unicode="&#xa6;" horiz-adv-x="222" 
d="M49 457v271h124v-271h-124zM49 -14v271h124v-271h-124z" />
    <glyph glyph-name="section" unicode="&#xa7;" horiz-adv-x="481" 
d="M165 272l99 -54q20 -10 39 -25q47 39 47 75q0 26 -15 44t-53 38l-96 51q-55 -32 -55 -75q0 -36 34 -54zM38 37h132v-15q0 -37 19.5 -58.5t50.5 -21.5q33 0 49.5 19.5t16.5 47.5q0 53 -64 84l-123 59q-106 51 -106 154q0 47 24 84.5t66 58.5q-60 45 -60 114q0 85 56 125
t149 40q97 0 143.5 -43.5t46.5 -118.5h-132q0 30 -14 49q-15 19 -55 19q-29 0 -45.5 -16t-16.5 -41q0 -38 64 -69l119 -56q110 -52 110 -163q0 -39 -22 -81t-56 -61q54 -44 54 -124q0 -175 -204 -175q-100 0 -151 46t-51 128v15z" />
    <glyph glyph-name="dieresis" unicode="&#xa8;" horiz-adv-x="222" 
d="M141 615v118h112v-118h-112zM-31 615v118h112v-118h-112z" />
    <glyph glyph-name="copyright" unicode="&#xa9;" horiz-adv-x="800" 
d="M29 357q0 154 108.5 262.5t262.5 108.5t262.5 -108.5t108.5 -262.5t-108.5 -262.5t-262.5 -108.5t-262.5 108.5t-108.5 262.5zM141 357q0 -110 74.5 -187.5t184.5 -77.5t184.5 77.5t74.5 187.5t-74.5 187.5t-184.5 77.5t-184.5 -77.5t-74.5 -187.5zM495 298h100
q-12 -73 -62.5 -114.5t-117.5 -41.5q-93 0 -150 62.5t-57 155.5q0 95 55 156.5t149 61.5q70 0 120 -40.5t59 -112.5h-96q-19 67 -88 67q-50 0 -77.5 -36.5t-27.5 -95.5q0 -56 28.5 -94t75.5 -38q37 0 60.5 19t28.5 51z" />
    <glyph glyph-name="ordfeminine" unicode="&#xaa;" horiz-adv-x="314" 
d="M193 478v59q-12 -9 -35 -15q-48 -10 -48 -49q0 -42 32 -42q20 0 35.5 11.5t15.5 35.5zM293 609v-172q0 -39 11 -63h-100q-3 4 -11 35q-17 -25 -37 -33.5t-57 -8.5q-46 0 -67.5 27t-21.5 65q0 47 20 69.5t69 32.5l58 12q36 9 36 34q0 37 -37 37q-41 0 -41 -39v-9h-94v13
q0 99 137 99q80 0 107.5 -25t27.5 -74z" />
    <glyph glyph-name="guillemotleft" unicode="&#xab;" horiz-adv-x="426" 
d="M52 208v162l149 120v-132l-79 -69l79 -69v-132zM225 208v162l149 120v-132l-79 -69l79 -69v-132z" />
    <glyph glyph-name="logicalnot" unicode="&#xac;" horiz-adv-x="600" 
d="M429 98v202h-382v124h506v-326h-124z" />
    <glyph glyph-name="uni00AD" unicode="&#xad;" horiz-adv-x="370" 
d="M44 348h282v-118h-282v118z" />
    <glyph glyph-name="registered" unicode="&#xae;" horiz-adv-x="800" 
d="M141 357q0 -110 74.5 -187.5t184.5 -77.5t184.5 77.5t74.5 187.5t-74.5 187.5t-184.5 77.5t-184.5 -77.5t-74.5 -187.5zM29 357q0 154 108.5 262.5t262.5 108.5t262.5 -108.5t108.5 -262.5t-108.5 -262.5t-262.5 -108.5t-262.5 108.5t-108.5 262.5zM343 487v-99h67
q33 0 50 10t17 40q0 49 -76 49h-58zM255 157v400h156q154 0 154 -124q0 -48 -27.5 -76.5t-71.5 -34.5l99 -165h-96l-94 161h-32v-161h-88z" />
    <glyph glyph-name="macron" unicode="&#xaf;" horiz-adv-x="222" 
d="M-36 712h294v-76h-294v76z" />
    <glyph glyph-name="degree" unicode="&#xb0;" horiz-adv-x="400" 
d="M128 560q0 -30 21 -51t51 -21t51 21t21 51t-21 51t-51 21t-51 -21t-21 -51zM52 560q0 62 43 105t105 43t105 -43t43 -105t-43 -105t-105 -43t-105 43t-43 105z" />
    <glyph glyph-name="plusminus" unicode="&#xb1;" horiz-adv-x="600" 
d="M47 0v124h506v-124h-506zM238 398v108h124v-108h191v-124h-191v-108h-124v108h-191v124h191z" />
    <glyph glyph-name="twosuperior" unicode="&#xb2;" horiz-adv-x="312" 
d="M312 280h-312q0 117 101 188l50 36q49 35 49 81q0 21 -11.5 34t-31.5 13q-51 0 -51 -73h-106v25q0 124 160 124q152 0 152 -108q0 -43 -14 -72t-52 -58l-57 -44q-46 -35 -53 -64h176v-82z" />
    <glyph glyph-name="threesuperior" unicode="&#xb3;" horiz-adv-x="312" 
d="M0 416h106q2 -67 49 -67q45 0 45 53q0 63 -60 63h-28v70h28q27 0 40.5 15.5t13.5 37.5q0 19 -11.5 31.5t-29.5 12.5q-46 0 -46 -60h-100q0 68 36 103q34 33 109 33q76 0 112 -26t36 -83q0 -39 -18.5 -63.5t-51.5 -31.5v-2q82 -15 82 -100q0 -129 -169 -129
q-143 0 -143 133v10z" />
    <glyph glyph-name="acute" unicode="&#xb4;" horiz-adv-x="222" 
d="M46 602l54 144h138l-98 -144h-94z" />
    <glyph glyph-name="mu" unicode="&#xb5;" horiz-adv-x="500" 
d="M316 181v357h138v-538h-132v63h-2q-21 -38 -50 -57.5t-56 -19.5q-16 0 -30 8v-170h-138v714h138v-371q0 -41 14 -58t45 -17q73 0 73 89z" />
    <glyph glyph-name="paragraph" unicode="&#xb6;" 
d="M182 -138v473q-89 0 -135 47.5t-46 138.5q0 108 51 150.5t147 42.5h268v-852h-106v758h-73v-758h-106z" />
    <glyph glyph-name="periodcentered" unicode="&#xb7;" horiz-adv-x="240" 
d="M23 282q0 41 28 69t69 28t69 -28t28 -69t-28 -69t-69 -28t-69 28t-28 69z" />
    <glyph glyph-name="cedilla" unicode="&#xb8;" horiz-adv-x="222" 
d="M95 0h52l-38 -58q15 5 33 5q35 0 60.5 -19.5t23.5 -52.5q0 -44 -32.5 -68t-93.5 -24q-66 0 -100 19l19 46q28 -15 69 -15q21 0 35.5 9t14.5 24q0 30 -44 32q-18 0 -34 -6l-22 20z" />
    <glyph glyph-name="onesuperior" unicode="&#xb9;" horiz-adv-x="312" 
d="M115 280v290h-91v70h8q96 0 109 68h86v-428h-112z" />
    <glyph glyph-name="ordmasculine" unicode="&#xba;" horiz-adv-x="314" 
d="M112 537q0 -53 8.5 -79.5t36.5 -26.5q25 0 35 24.5t10 81.5t-10 82t-35 25q-27 0 -36 -27t-9 -80zM12 537q0 88 32.5 129.5t112.5 41.5q82 2 113.5 -39t31.5 -132q0 -87 -32.5 -128.5t-112.5 -41.5q-82 -2 -113.5 39t-31.5 131z" />
    <glyph glyph-name="guillemotright" unicode="&#xbb;" horiz-adv-x="426" 
d="M225 88v132l79 69l-79 69v132l149 -120v-162zM52 88v132l79 69l-79 69v132l149 -120v-162z" />
    <glyph glyph-name="onequarter" unicode="&#xbc;" horiz-adv-x="721" 
d="M91 280v290h-91v70h8q96 0 109 68h86v-428h-112zM96 -31l406 756h89l-406 -756h-89zM401 77v91l152 260h124v-269h44v-82h-44v-77h-106v77h-170zM571 159v145h-2l-86 -145h88z" />
    <glyph glyph-name="onehalf" unicode="&#xbd;" horiz-adv-x="721" 
d="M721 0h-312q0 117 101 188l50 36q49 35 49 81q0 21 -11.5 34t-31.5 13q-51 0 -51 -73h-106v25q0 124 160 124q152 0 152 -108q0 -43 -14 -72t-52 -58l-57 -44q-46 -35 -53 -64h176v-82zM91 280v290h-91v70h8q96 0 109 68h86v-428h-112zM72 -31l406 756h89l-406 -756h-89z
" />
    <glyph glyph-name="threequarters" unicode="&#xbe;" horiz-adv-x="721" 
d="M0 416h106q2 -67 49 -67q45 0 45 53q0 63 -60 63h-28v70h28q27 0 40.5 15.5t13.5 37.5q0 19 -11.5 31.5t-29.5 12.5q-46 0 -46 -60h-100q0 68 36 103q34 33 109 33q76 0 112 -26t36 -83q0 -39 -18.5 -63.5t-51.5 -31.5v-2q82 -15 82 -100q0 -129 -169 -129
q-143 0 -143 133v10zM135 -31l406 756h89l-406 -756h-89zM483 159h88v145h-2zM401 77v91l152 260h124v-269h44v-82h-44v-77h-106v77h-170z" />
    <glyph glyph-name="questiondown" unicode="&#xbf;" horiz-adv-x="481" 
d="M319 406h-138v132h138v-132zM313 45h132v-23q0 -93 -51 -149.5t-147 -56.5q-103 0 -157 51.5t-54 141.5q0 84 63 156l40 45q28 31 38.5 54.5t10.5 60.5v15h124v-39q0 -49 -14 -83.5t-48 -73.5l-38 -43q-38 -42 -38 -106q0 -39 17.5 -62t50.5 -23q71 0 71 110v25z" />
    <glyph glyph-name="Agrave" unicode="&#xc0;" horiz-adv-x="556" 
d="M277 590l-69 -321h140l-69 321h-2zM0 0l189 714h178l189 -714h-150l-33 151h-190l-33 -151h-150zM340 756h-94l-98 144h138z" />
    <glyph glyph-name="Aacute" unicode="&#xc1;" horiz-adv-x="556" 
d="M277 590l-69 -321h140l-69 321h-2zM0 0l189 714h178l189 -714h-150l-33 151h-190l-33 -151h-150zM212 756l54 144h138l-98 -144h-94z" />
    <glyph glyph-name="Acircumflex" unicode="&#xc2;" horiz-adv-x="556" 
d="M277 590l-69 -321h140l-69 321h-2zM0 0l189 714h178l189 -714h-150l-33 151h-190l-33 -151h-150zM127 756l78 144h144l78 -144h-106l-46 85l-48 -85h-100z" />
    <glyph glyph-name="Atilde" unicode="&#xc3;" horiz-adv-x="556" 
d="M277 590l-69 -321h140l-69 321h-2zM0 0l189 714h178l189 -714h-150l-33 151h-190l-33 -151h-150zM191 765h-70q17 124 93 124q28 0 43 -7l48 -21q15 -6 30 -6q13 0 20.5 12t7.5 24h72q-5 -55 -30 -89.5t-63 -34.5q-22 0 -63 17t-56 17q-25 0 -32 -36z" />
    <glyph glyph-name="Adieresis" unicode="&#xc4;" horiz-adv-x="556" 
d="M277 590l-69 -321h140l-69 321h-2zM0 0l189 714h178l189 -714h-150l-33 151h-190l-33 -151h-150zM308 771v118h112v-118h-112zM136 771v118h112v-118h-112z" />
    <glyph glyph-name="Aring" unicode="&#xc5;" horiz-adv-x="556" 
d="M277 590l-69 -321h140l-69 321h-2zM0 0l189 714h178l189 -714h-150l-33 151h-190l-33 -151h-150zM222 844q0 -24 16.5 -40.5t40.5 -16.5t40.5 16.5t16.5 40.5t-16.5 40.5t-40.5 16.5t-40.5 -16.5t-16.5 -40.5zM166 844q0 48 33 79t80 31t80 -31t33 -79t-32.5 -78
t-80.5 -30q-49 0 -81 29.5t-32 78.5z" />
    <glyph glyph-name="AE" unicode="&#xc6;" horiz-adv-x="759" 
d="M234 269h120v333h-9zM-5 0l269 714h463v-118h-235v-168h220v-118h-220v-192h245v-118h-383v151h-159l-50 -151h-150z" />
    <glyph glyph-name="Ccedilla" unicode="&#xc7;" horiz-adv-x="537" 
d="M499 473h-144q0 80 -19 114.5t-67 34.5q-53 0 -71.5 -59.5t-18.5 -215.5q0 -106 10.5 -162.5t29.5 -74.5t52 -18q44 0 67 37t23 144h144q0 -99 -24.5 -165.5t-87.5 -98.5q-40 -20 -98 -23l-29 -44q15 5 33 5q35 0 60.5 -19.5t23.5 -52.5q0 -44 -32.5 -68t-93.5 -24
q-66 0 -100 19l19 46q28 -15 69 -15q21 0 35.5 9t14.5 24q0 30 -44 32q-17 0 -34 -6l-22 20l49 76q-58 4 -95 25q-68 40 -91 122t-23 222q0 73 4.5 123t19 100.5t40.5 80.5t71 48.5t108 18.5q59 0 102 -17.5t65 -41.5t35 -62t16 -67t3 -67z" />
    <glyph glyph-name="Egrave" unicode="&#xc8;" horiz-adv-x="481" 
d="M50 714h399v-118h-255v-168h240v-118h-240v-192h265v-118h-409v714zM319 756h-94l-98 144h138z" />
    <glyph glyph-name="Eacute" unicode="&#xc9;" horiz-adv-x="481" 
d="M50 714h399v-118h-255v-168h240v-118h-240v-192h265v-118h-409v714zM199 756l54 144h138l-98 -144h-94z" />
    <glyph glyph-name="Ecircumflex" unicode="&#xca;" horiz-adv-x="481" 
d="M50 714h399v-118h-255v-168h240v-118h-240v-192h265v-118h-409v714zM101 756l78 144h144l78 -144h-106l-46 85l-48 -85h-100z" />
    <glyph glyph-name="Edieresis" unicode="&#xcb;" horiz-adv-x="481" 
d="M50 714h399v-118h-255v-168h240v-118h-240v-192h265v-118h-409v714zM278 769v118h112v-118h-112zM106 769v118h112v-118h-112z" />
    <glyph glyph-name="Igrave" unicode="&#xcc;" horiz-adv-x="258" 
d="M201 0h-144v714h144v-714zM202 756h-94l-98 144h138z" />
    <glyph glyph-name="Iacute" unicode="&#xcd;" horiz-adv-x="258" 
d="M201 0h-144v714h144v-714zM58 756l54 144h138l-98 -144h-94z" />
    <glyph glyph-name="Icircumflex" unicode="&#xce;" horiz-adv-x="258" 
d="M201 0h-144v714h144v-714zM-19 756l78 144h144l78 -144h-106l-46 85l-48 -85h-100z" />
    <glyph glyph-name="Idieresis" unicode="&#xcf;" horiz-adv-x="258" 
d="M201 0h-144v714h144v-714zM160 769v118h112v-118h-112zM-12 769v118h112v-118h-112z" />
    <glyph glyph-name="Eth" unicode="&#xd0;" horiz-adv-x="574" 
d="M201 608v-187h93v-106h-93v-209h64q73 0 96.5 53.5t23.5 203.5q0 67 -4 107.5t-16.5 74.5t-37.5 48.5t-65 14.5h-61zM57 0v315h-57v106h57v293h236q73 0 120.5 -23.5t72.5 -72t34 -107t9 -144.5q0 -196 -53 -281.5t-192 -85.5h-227z" />
    <glyph glyph-name="Ntilde" unicode="&#xd1;" horiz-adv-x="574" 
d="M50 714h166l174 -489h2v489h132v-714h-164l-176 500h-2v-500h-132v714zM202 765h-70q17 124 93 124q28 0 43 -7l48 -21q15 -6 30 -6q13 0 20.5 12t7.5 24h72q-5 -55 -30 -89.5t-63 -34.5q-22 0 -63 17t-56 17q-24 0 -32 -36z" />
    <glyph glyph-name="Ograve" unicode="&#xd2;" horiz-adv-x="556" 
d="M35 357q0 73 4.5 123t19 100.5t40.5 80.5t71 48.5t108 18.5t108 -18.5t71 -48.5t40.5 -80.5t19 -100.5t4.5 -123t-4.5 -123t-19 -100.5t-40.5 -80.5t-71 -48.5t-108 -18.5t-108 18.5t-71 48.5t-40.5 80.5t-19 100.5t-4.5 123zM179 357q0 -152 19 -208.5t80 -56.5t80 56.5
t19 208.5q0 151 -19 208t-80 57t-80 -57t-19 -208zM340 756h-94l-98 144h138z" />
    <glyph glyph-name="Oacute" unicode="&#xd3;" horiz-adv-x="556" 
d="M35 357q0 73 4.5 123t19 100.5t40.5 80.5t71 48.5t108 18.5t108 -18.5t71 -48.5t40.5 -80.5t19 -100.5t4.5 -123t-4.5 -123t-19 -100.5t-40.5 -80.5t-71 -48.5t-108 -18.5t-108 18.5t-71 48.5t-40.5 80.5t-19 100.5t-4.5 123zM179 357q0 -152 19 -208.5t80 -56.5t80 56.5
t19 208.5q0 151 -19 208t-80 57t-80 -57t-19 -208zM227 756l54 144h138l-98 -144h-94z" />
    <glyph glyph-name="Ocircumflex" unicode="&#xd4;" horiz-adv-x="556" 
d="M35 357q0 73 4.5 123t19 100.5t40.5 80.5t71 48.5t108 18.5t108 -18.5t71 -48.5t40.5 -80.5t19 -100.5t4.5 -123t-4.5 -123t-19 -100.5t-40.5 -80.5t-71 -48.5t-108 -18.5t-108 18.5t-71 48.5t-40.5 80.5t-19 100.5t-4.5 123zM179 357q0 -152 19 -208.5t80 -56.5t80 56.5
t19 208.5q0 151 -19 208t-80 57t-80 -57t-19 -208zM130 756l78 144h144l78 -144h-106l-46 85l-48 -85h-100z" />
    <glyph glyph-name="Otilde" unicode="&#xd5;" horiz-adv-x="556" 
d="M35 357q0 73 4.5 123t19 100.5t40.5 80.5t71 48.5t108 18.5t108 -18.5t71 -48.5t40.5 -80.5t19 -100.5t4.5 -123t-4.5 -123t-19 -100.5t-40.5 -80.5t-71 -48.5t-108 -18.5t-108 18.5t-71 48.5t-40.5 80.5t-19 100.5t-4.5 123zM179 357q0 -152 19 -208.5t80 -56.5t80 56.5
t19 208.5q0 151 -19 208t-80 57t-80 -57t-19 -208zM190 765h-70q17 124 93 124q28 0 43 -7l48 -21q15 -6 30 -6q13 0 20.5 12t7.5 24h72q-5 -55 -30 -89.5t-63 -34.5q-22 0 -63 17t-56 17q-24 0 -32 -36z" />
    <glyph glyph-name="Odieresis" unicode="&#xd6;" horiz-adv-x="556" 
d="M35 357q0 73 4.5 123t19 100.5t40.5 80.5t71 48.5t108 18.5t108 -18.5t71 -48.5t40.5 -80.5t19 -100.5t4.5 -123t-4.5 -123t-19 -100.5t-40.5 -80.5t-71 -48.5t-108 -18.5t-108 18.5t-71 48.5t-40.5 80.5t-19 100.5t-4.5 123zM179 357q0 -152 19 -208.5t80 -56.5t80 56.5
t19 208.5q0 151 -19 208t-80 57t-80 -57t-19 -208zM309 769v118h112v-118h-112zM137 769v118h112v-118h-112z" />
    <glyph glyph-name="multiply" unicode="&#xd7;" horiz-adv-x="600" 
d="M59 98l156 155l-156 155l86 86l155 -156l155 156l86 -86l-156 -155l156 -155l-86 -86l-155 156l-155 -156z" />
    <glyph glyph-name="Oslash" unicode="&#xd8;" horiz-adv-x="556" 
d="M83 -30l30 70q-46 42 -62 119t-16 198q0 73 4.5 123t19 100.5t40.5 80.5t71 48.5t108 18.5q73 0 121 -24l26 61l48 -21l-30 -70q46 -42 62 -119t16 -198q0 -73 -4.5 -123t-19 -100.5t-40.5 -80.5t-71 -48.5t-108 -18.5q-74 0 -121 24l-26 -61zM369 505l-161 -376
q19 -37 70 -37q61 0 80 56.5t19 208.5q0 101 -6 148h-2zM187 209l161 377q-22 36 -70 36q-61 0 -80 -57t-19 -208q0 -104 6 -148h2z" />
    <glyph glyph-name="Ugrave" unicode="&#xd9;" horiz-adv-x="538" 
d="M41 714h144v-498q0 -59 18 -91.5t66 -32.5t66 32.5t18 91.5v498h144v-498q0 -65 -18.5 -111.5t-52 -71.5t-72 -36t-85.5 -11q-48 0 -85.5 9.5t-71.5 33.5t-52.5 71t-18.5 116v498zM333 756h-94l-98 144h138z" />
    <glyph glyph-name="Uacute" unicode="&#xda;" horiz-adv-x="538" 
d="M41 714h144v-498q0 -59 18 -91.5t66 -32.5t66 32.5t18 91.5v498h144v-498q0 -65 -18.5 -111.5t-52 -71.5t-72 -36t-85.5 -11q-48 0 -85.5 9.5t-71.5 33.5t-52.5 71t-18.5 116v498zM220 756l54 144h138l-98 -144h-94z" />
    <glyph glyph-name="Ucircumflex" unicode="&#xdb;" horiz-adv-x="538" 
d="M41 714h144v-498q0 -59 18 -91.5t66 -32.5t66 32.5t18 91.5v498h144v-498q0 -65 -18.5 -111.5t-52 -71.5t-72 -36t-85.5 -11q-48 0 -85.5 9.5t-71.5 33.5t-52.5 71t-18.5 116v498zM120 756l78 144h144l78 -144h-106l-46 85l-48 -85h-100z" />
    <glyph glyph-name="Udieresis" unicode="&#xdc;" horiz-adv-x="538" 
d="M41 714h144v-498q0 -59 18 -91.5t66 -32.5t66 32.5t18 91.5v498h144v-498q0 -65 -18.5 -111.5t-52 -71.5t-72 -36t-85.5 -11q-48 0 -85.5 9.5t-71.5 33.5t-52.5 71t-18.5 116v498zM299 769v118h112v-118h-112zM127 769v118h112v-118h-112z" />
    <glyph glyph-name="Yacute" unicode="&#xdd;" horiz-adv-x="520" 
d="M3 714h162l94 -276h2l100 276h156l-185 -433v-281h-144v281zM216 758l54 144h138l-98 -144h-94z" />
    <glyph glyph-name="Thorn" unicode="&#xde;" horiz-adv-x="519" 
d="M194 480v-217h64q44 0 70 27t26 80q0 110 -100 110h-60zM50 0v714h144v-128h108q102 0 149 -61.5t47 -152.5q0 -108 -60.5 -161.5t-166.5 -53.5h-77v-157h-144z" />
    <glyph glyph-name="germandbls" unicode="&#xdf;" horiz-adv-x="500" 
d="M179 0h-138v527q0 105 51.5 153t160.5 48q96 0 146.5 -43.5t50.5 -127.5q0 -58 -19 -91.5t-70 -55.5v-2q111 -18 111 -192q0 -222 -179 -222q-46 0 -66 4v94q9 -4 21 -4q51 0 68.5 35.5t17.5 110.5q0 121 -80 121h-25v94h17q66 0 66 95q0 90 -66 90q-38 0 -52.5 -28
t-14.5 -82v-524z" />
    <glyph glyph-name="agrave" unicode="&#xe0;" horiz-adv-x="481" 
d="M169 373h-124v13q0 87 52 126.5t137 39.5q114 0 154.5 -41.5t40.5 -123.5v-283q0 -62 17 -104h-132q-9 16 -17 56h-2q-23 -41 -54 -55.5t-83 -14.5q-66 0 -98 46t-32 108q0 74 31 111t105 57l78 21q31 8 43 22t12 41q0 66 -64 66t-64 -70v-15zM297 163v106
q-24 -19 -59 -27q-41 -9 -59.5 -30t-18.5 -57q0 -33 13 -54t39 -21q33 0 59 21t26 62zM308 602h-94l-98 144h138z" />
    <glyph glyph-name="aacute" unicode="&#xe1;" horiz-adv-x="481" 
d="M169 373h-124v13q0 87 52 126.5t137 39.5q114 0 154.5 -41.5t40.5 -123.5v-283q0 -62 17 -104h-132q-9 16 -17 56h-2q-23 -41 -54 -55.5t-83 -14.5q-66 0 -98 46t-32 108q0 74 31 111t105 57l78 21q31 8 43 22t12 41q0 66 -64 66t-64 -70v-15zM297 163v106
q-24 -19 -59 -27q-41 -9 -59.5 -30t-18.5 -57q0 -33 13 -54t39 -21q33 0 59 21t26 62zM190 602l54 144h138l-98 -144h-94z" />
    <glyph glyph-name="acircumflex" unicode="&#xe2;" horiz-adv-x="481" 
d="M169 373h-124v13q0 87 52 126.5t137 39.5q114 0 154.5 -41.5t40.5 -123.5v-283q0 -62 17 -104h-132q-9 16 -17 56h-2q-23 -41 -54 -55.5t-83 -14.5q-66 0 -98 46t-32 108q0 74 31 111t105 57l78 21q31 8 43 22t12 41q0 66 -64 66t-64 -70v-15zM297 163v106
q-24 -19 -59 -27q-41 -9 -59.5 -30t-18.5 -57q0 -33 13 -54t39 -21q33 0 59 21t26 62zM90 602l78 144h144l78 -144h-106l-46 85l-48 -85h-100z" />
    <glyph glyph-name="atilde" unicode="&#xe3;" horiz-adv-x="481" 
d="M169 373h-124v13q0 87 52 126.5t137 39.5q114 0 154.5 -41.5t40.5 -123.5v-283q0 -62 17 -104h-132q-9 16 -17 56h-2q-23 -41 -54 -55.5t-83 -14.5q-66 0 -98 46t-32 108q0 74 31 111t105 57l78 21q31 8 43 22t12 41q0 66 -64 66t-64 -70v-15zM297 163v106
q-24 -19 -59 -27q-41 -9 -59.5 -30t-18.5 -57q0 -33 13 -54t39 -21q33 0 59 21t26 62zM155 611h-70q17 124 93 124q28 0 43 -7l48 -21q15 -6 30 -6q13 0 20.5 12t7.5 24h72q-5 -55 -30 -89.5t-63 -34.5q-22 0 -63 17t-56 17q-25 0 -32 -36z" />
    <glyph glyph-name="adieresis" unicode="&#xe4;" horiz-adv-x="481" 
d="M169 373h-124v13q0 87 52 126.5t137 39.5q114 0 154.5 -41.5t40.5 -123.5v-283q0 -62 17 -104h-132q-9 16 -17 56h-2q-23 -41 -54 -55.5t-83 -14.5q-66 0 -98 46t-32 108q0 74 31 111t105 57l78 21q31 8 43 22t12 41q0 66 -64 66t-64 -70v-15zM297 163v106
q-24 -19 -59 -27q-41 -9 -59.5 -30t-18.5 -57q0 -33 13 -54t39 -21q33 0 59 21t26 62zM271 615v118h112v-118h-112zM99 615v118h112v-118h-112z" />
    <glyph glyph-name="aring" unicode="&#xe5;" horiz-adv-x="481" 
d="M169 373h-124v13q0 87 52 126.5t137 39.5q114 0 154.5 -41.5t40.5 -123.5v-283q0 -62 17 -104h-132q-9 16 -17 56h-2q-23 -41 -54 -55.5t-83 -14.5q-66 0 -98 46t-32 108q0 74 31 111t105 57l78 21q31 8 43 22t12 41q0 66 -64 66t-64 -70v-15zM297 163v106
q-24 -19 -59 -27q-41 -9 -59.5 -30t-18.5 -57q0 -33 13 -54t39 -21q33 0 59 21t26 62zM180 690q0 -24 16.5 -40.5t40.5 -16.5t40.5 16.5t16.5 40.5t-16.5 40.5t-40.5 16.5t-40.5 -16.5t-16.5 -40.5zM124 690q0 48 33 79t80 31t80 -31t33 -79t-32.5 -78t-80.5 -30
q-49 0 -81 29.5t-32 78.5z" />
    <glyph glyph-name="ae" unicode="&#xe6;" horiz-adv-x="722" 
d="M168 373h-124v13q0 87 52 126.5t137 39.5q55 0 86.5 -14t52.5 -50q31 64 127 64q59 0 98 -18.5t60 -56.5t29.5 -85t8.5 -113v-31h-271v-43q0 -54 16 -89.5t51 -35.5q33 0 49.5 24.5t22.5 76.5h124q-8 -195 -194 -195q-126 0 -162 93q-31 -57 -68 -75t-106 -18
q-66 0 -98 46t-32 108q0 74 31 111t105 57l78 21q31 8 43 22t12 41q0 66 -64 66t-64 -70v-15zM424 330h139q-2 69 -16 98.5t-53 29.5q-37 0 -53.5 -31.5t-16.5 -75.5v-21zM296 163v106q-24 -19 -59 -27q-41 -9 -59.5 -30t-18.5 -57q0 -33 13 -54t39 -21q33 0 59 21t26 62z
" />
    <glyph glyph-name="ccedilla" unicode="&#xe7;" horiz-adv-x="463" 
d="M437 344h-132q0 108 -62 108q-48 0 -63.5 -41.5t-15.5 -142.5q0 -104 15 -146t59 -42q35 0 51 30t16 96h132q0 -106 -48 -163q-40 -48 -128 -56l-29 -45q15 5 33 5q35 0 60.5 -19.5t23.5 -52.5q0 -44 -32.5 -68t-93.5 -24q-66 0 -100 19l19 46q28 -15 69 -15q21 0 35.5 9
t14.5 24q0 30 -44 32q-17 0 -34 -6l-22 20l48 75q-35 1 -68 13q-58 21 -86.5 85.5t-28.5 183.5q0 156 56.5 219.5t161.5 63.5q94 0 143.5 -55t49.5 -153z" />
    <glyph glyph-name="egrave" unicode="&#xe8;" horiz-adv-x="463" 
d="M437 248h-273v-43q0 -54 16 -89.5t52 -35.5q34 0 50.5 24t22.5 77h124q-8 -195 -195 -195q-42 0 -74.5 9.5t-54 23.5t-37 38.5t-23.5 46.5t-12.5 55t-5.5 56.5t-1 58.5q0 48 4 85t17.5 75t36.5 62.5t62.5 40t93.5 15.5q113 0 155 -68.5t42 -204.5v-31zM164 330h141
q-2 68 -16 98t-54 30q-38 0 -54.5 -31t-16.5 -76v-21zM302 602h-94l-98 144h138z" />
    <glyph glyph-name="eacute" unicode="&#xe9;" horiz-adv-x="463" 
d="M437 248h-273v-43q0 -54 16 -89.5t52 -35.5q34 0 50.5 24t22.5 77h124q-8 -195 -195 -195q-42 0 -74.5 9.5t-54 23.5t-37 38.5t-23.5 46.5t-12.5 55t-5.5 56.5t-1 58.5q0 48 4 85t17.5 75t36.5 62.5t62.5 40t93.5 15.5q113 0 155 -68.5t42 -204.5v-31zM164 330h141
q-2 68 -16 98t-54 30q-38 0 -54.5 -31t-16.5 -76v-21zM190 602l54 144h138l-98 -144h-94z" />
    <glyph glyph-name="ecircumflex" unicode="&#xea;" horiz-adv-x="463" 
d="M437 248h-273v-43q0 -54 16 -89.5t52 -35.5q34 0 50.5 24t22.5 77h124q-8 -195 -195 -195q-42 0 -74.5 9.5t-54 23.5t-37 38.5t-23.5 46.5t-12.5 55t-5.5 56.5t-1 58.5q0 48 4 85t17.5 75t36.5 62.5t62.5 40t93.5 15.5q113 0 155 -68.5t42 -204.5v-31zM164 330h141
q-2 68 -16 98t-54 30q-38 0 -54.5 -31t-16.5 -76v-21zM90 602l78 144h144l78 -144h-106l-46 85l-48 -85h-100z" />
    <glyph glyph-name="edieresis" unicode="&#xeb;" horiz-adv-x="463" 
d="M437 248h-273v-43q0 -54 16 -89.5t52 -35.5q34 0 50.5 24t22.5 77h124q-8 -195 -195 -195q-42 0 -74.5 9.5t-54 23.5t-37 38.5t-23.5 46.5t-12.5 55t-5.5 56.5t-1 58.5q0 48 4 85t17.5 75t36.5 62.5t62.5 40t93.5 15.5q113 0 155 -68.5t42 -204.5v-31zM164 330h141
q-2 68 -16 98t-54 30q-38 0 -54.5 -31t-16.5 -76v-21zM270 615v118h112v-118h-112zM98 615v118h112v-118h-112z" />
    <glyph glyph-name="igrave" unicode="&#xec;" horiz-adv-x="240" 
d="M51 0v538h138v-538h-138zM188 602h-94l-98 144h138z" />
    <glyph glyph-name="iacute" unicode="&#xed;" horiz-adv-x="240" 
d="M51 0v538h138v-538h-138zM51 602l54 144h138l-98 -144h-94z" />
    <glyph glyph-name="icircumflex" unicode="&#xee;" horiz-adv-x="240" 
d="M51 0v538h138v-538h-138zM-29 602l78 144h144l78 -144h-106l-46 85l-48 -85h-100z" />
    <glyph glyph-name="idieresis" unicode="&#xef;" horiz-adv-x="240" 
d="M51 0v538h138v-538h-138zM150 615v118h112v-118h-112zM-22 615v118h112v-118h-112z" />
    <glyph glyph-name="eth" unicode="&#xf0;" 
d="M105 583l-39 42l76 45q-24 24 -66 64l104 61q32 -28 67 -63l75 45l43 -42l-77 -45q84 -92 124 -190t40 -231q0 -143 -49 -213t-163 -70q-119 -2 -165.5 66.5t-46.5 216.5q0 263 174 263q39 0 70 -26l2 2q-31 50 -92 120zM166 262q0 -46 2 -74.5t9 -55.5t22.5 -39.5
t40.5 -12.5q41 0 57.5 41.5t16.5 140.5q0 95 -16.5 135.5t-57.5 40.5q-25 0 -40.5 -12.5t-22.5 -39t-9 -53.5t-2 -71z" />
    <glyph glyph-name="ntilde" unicode="&#xf1;" horiz-adv-x="500" 
d="M46 0v538h132v-63h2q42 77 137 77q137 0 137 -153v-399h-138v371q0 41 -14 58t-45 17q-73 0 -73 -89v-357h-138zM156 611h-70q17 124 93 124q28 0 43 -7l48 -21q15 -6 30 -6q13 0 20.5 12t7.5 24h72q-5 -55 -30 -89.5t-63 -34.5q-22 0 -63 17t-56 17q-24 0 -32 -36z" />
    <glyph glyph-name="ograve" unicode="&#xf2;" 
d="M28 269q0 143 49 213t163 70q119 2 165.5 -66.5t46.5 -216.5q0 -143 -49 -213t-163 -70q-119 -2 -165.5 66.5t-46.5 216.5zM166 269q0 -48 2 -77t9 -57.5t22.5 -41.5t40.5 -13q41 0 57.5 43t16.5 146t-16.5 146t-57.5 43q-25 0 -40.5 -13t-22.5 -41.5t-9 -57.5t-2 -77z
M299 602h-94l-98 144h138z" />
    <glyph glyph-name="oacute" unicode="&#xf3;" 
d="M28 269q0 143 49 213t163 70q119 2 165.5 -66.5t46.5 -216.5q0 -143 -49 -213t-163 -70q-119 -2 -165.5 66.5t-46.5 216.5zM166 269q0 -48 2 -77t9 -57.5t22.5 -41.5t40.5 -13q41 0 57.5 43t16.5 146t-16.5 146t-57.5 43q-25 0 -40.5 -13t-22.5 -41.5t-9 -57.5t-2 -77z
M191 602l54 144h138l-98 -144h-94z" />
    <glyph glyph-name="ocircumflex" unicode="&#xf4;" 
d="M28 269q0 143 49 213t163 70q119 2 165.5 -66.5t46.5 -216.5q0 -143 -49 -213t-163 -70q-119 -2 -165.5 66.5t-46.5 216.5zM166 269q0 -48 2 -77t9 -57.5t22.5 -41.5t40.5 -13q41 0 57.5 43t16.5 146t-16.5 146t-57.5 43q-25 0 -40.5 -13t-22.5 -41.5t-9 -57.5t-2 -77z
M90 602l78 144h144l78 -144h-106l-46 85l-48 -85h-100z" />
    <glyph glyph-name="otilde" unicode="&#xf5;" 
d="M28 269q0 143 49 213t163 70q119 2 165.5 -66.5t46.5 -216.5q0 -143 -49 -213t-163 -70q-119 -2 -165.5 66.5t-46.5 216.5zM166 269q0 -48 2 -77t9 -57.5t22.5 -41.5t40.5 -13q41 0 57.5 43t16.5 146t-16.5 146t-57.5 43q-25 0 -40.5 -13t-22.5 -41.5t-9 -57.5t-2 -77z
M153 611h-70q17 124 93 124q28 0 43 -7l48 -21q15 -6 30 -6q13 0 20.5 12t7.5 24h72q-5 -55 -30 -89.5t-63 -34.5q-22 0 -63 17t-56 17q-25 0 -32 -36z" />
    <glyph glyph-name="odieresis" unicode="&#xf6;" 
d="M28 269q0 143 49 213t163 70q119 2 165.5 -66.5t46.5 -216.5q0 -143 -49 -213t-163 -70q-119 -2 -165.5 66.5t-46.5 216.5zM166 269q0 -48 2 -77t9 -57.5t22.5 -41.5t40.5 -13q41 0 57.5 43t16.5 146t-16.5 146t-57.5 43q-25 0 -40.5 -13t-22.5 -41.5t-9 -57.5t-2 -77z
M270 615v118h112v-118h-112zM98 615v118h112v-118h-112z" />
    <glyph glyph-name="divide" unicode="&#xf7;" horiz-adv-x="600" 
d="M203 41q0 41 28 69t69 28t69 -28t28 -69t-28 -69t-69 -28t-69 28t-28 69zM203 465q0 41 28 69t69 28t69 -28t28 -69t-28 -69t-69 -28t-69 28t-28 69zM47 191v124h506v-124h-506z" />
    <glyph glyph-name="oslash" unicode="&#xf8;" 
d="M53 -35l37 70q-62 59 -62 234q0 143 49 213t163 70q67 1 109 -21l34 65l44 -23l-37 -70q62 -59 62 -234q0 -143 -49 -213t-163 -70q-68 -2 -109 21l-34 -65zM310 351l-124 -238q16 -33 54 -33q41 0 57.5 43t16.5 146q0 36 -2 82h-2zM170 186l123 238q-16 34 -53 34
q-25 0 -40.5 -13t-22.5 -41.5t-9 -57.5t-2 -77v-44q0 -15 2 -39h2z" />
    <glyph glyph-name="ugrave" unicode="&#xf9;" horiz-adv-x="500" 
d="M322 0v63h-2q-42 -77 -137 -77q-137 0 -137 153v399h138v-371q0 -41 14 -58t45 -17q73 0 73 89v357h138v-538h-132zM312 602h-94l-98 144h138z" />
    <glyph glyph-name="uacute" unicode="&#xfa;" horiz-adv-x="500" 
d="M322 0v63h-2q-42 -77 -137 -77q-137 0 -137 153v399h138v-371q0 -41 14 -58t45 -17q73 0 73 89v357h138v-538h-132zM200 602l54 144h138l-98 -144h-94z" />
    <glyph glyph-name="ucircumflex" unicode="&#xfb;" horiz-adv-x="500" 
d="M322 0v63h-2q-42 -77 -137 -77q-137 0 -137 153v399h138v-371q0 -41 14 -58t45 -17q73 0 73 89v357h138v-538h-132zM100 602l78 144h144l78 -144h-106l-46 85l-48 -85h-100z" />
    <glyph glyph-name="udieresis" unicode="&#xfc;" horiz-adv-x="500" 
d="M322 0v63h-2q-42 -77 -137 -77q-137 0 -137 153v399h138v-371q0 -41 14 -58t45 -17q73 0 73 89v357h138v-538h-132zM280 615v118h112v-118h-112zM108 615v118h112v-118h-112z" />
    <glyph glyph-name="yacute" unicode="&#xfd;" horiz-adv-x="444" 
d="M46 -176v103q18 -3 36 -3q68 0 74 76l-151 538h144l80 -372h2l70 372h138l-130 -502q-19 -73 -34.5 -112t-39.5 -63t-53 -30.5t-80 -6.5h-56zM178 602l54 144h138l-98 -144h-94z" />
    <glyph glyph-name="thorn" unicode="&#xfe;" horiz-adv-x="500" 
d="M46 -176v890h138v-233h2q33 71 116 71q85 0 125 -67t40 -216t-40 -216t-125 -67q-73 0 -116 64h-2v-226h-138zM184 269q0 -94 15 -135.5t58 -41.5t57.5 41.5t14.5 135.5t-14.5 135.5t-57.5 41.5t-58 -41.5t-15 -135.5z" />
    <glyph glyph-name="ydieresis" unicode="&#xff;" horiz-adv-x="444" 
d="M46 -176v103q18 -3 36 -3q68 0 74 76l-151 538h144l80 -372h2l70 372h138l-130 -502q-19 -73 -34.5 -112t-39.5 -63t-53 -30.5t-80 -6.5h-56zM261 615v118h112v-118h-112zM89 615v118h112v-118h-112z" />
    <glyph glyph-name="Amacron" unicode="&#x100;" horiz-adv-x="556" 
d="M277 590l-69 -321h140l-69 321h-2zM0 0l189 714h178l189 -714h-150l-33 151h-190l-33 -151h-150zM131 866h294v-76h-294v76z" />
    <glyph glyph-name="amacron" unicode="&#x101;" horiz-adv-x="481" 
d="M169 373h-124v13q0 87 52 126.5t137 39.5q114 0 154.5 -41.5t40.5 -123.5v-283q0 -62 17 -104h-132q-9 16 -17 56h-2q-23 -41 -54 -55.5t-83 -14.5q-66 0 -98 46t-32 108q0 74 31 111t105 57l78 21q31 8 43 22t12 41q0 66 -64 66t-64 -70v-15zM297 163v106
q-24 -19 -59 -27q-41 -9 -59.5 -30t-18.5 -57q0 -33 13 -54t39 -21q33 0 59 21t26 62zM96 712h294v-76h-294v76z" />
    <glyph glyph-name="Abreve" unicode="&#x102;" horiz-adv-x="556" 
d="M277 590l-69 -321h140l-69 321h-2zM0 0l189 714h178l189 -714h-150l-33 151h-190l-33 -151h-150zM139 899h65q3 -29 23.5 -47t50.5 -18t50.5 18t23.5 47h65q0 -22 -7 -45t-22 -45.5t-43.5 -36.5t-66.5 -14q-72 0 -105.5 45t-33.5 96z" />
    <glyph glyph-name="abreve" unicode="&#x103;" horiz-adv-x="481" 
d="M169 373h-124v13q0 87 52 126.5t137 39.5q114 0 154.5 -41.5t40.5 -123.5v-283q0 -62 17 -104h-132q-9 16 -17 56h-2q-23 -41 -54 -55.5t-83 -14.5q-66 0 -98 46t-32 108q0 74 31 111t105 57l78 21q31 8 43 22t12 41q0 66 -64 66t-64 -70v-15zM297 163v106
q-24 -19 -59 -27q-41 -9 -59.5 -30t-18.5 -57q0 -33 13 -54t39 -21q33 0 59 21t26 62zM105 745h65q3 -29 24 -47t50 -18q30 0 50.5 18t23.5 47h65q0 -22 -7 -45t-22 -45.5t-43.5 -36.5t-66.5 -14q-72 0 -105.5 45t-33.5 96z" />
    <glyph glyph-name="Aogonek" unicode="&#x104;" horiz-adv-x="556" 
d="M463 -133l30 -49q-48 -35 -114 -35q-53 0 -74.5 23t-21.5 56q0 37 33 74.5t90 63.5l-33 151h-190l-33 -151h-150l189 714h178l189 -714h-83q-59 -42 -80 -69.5t-21 -52.5q0 -31 28 -31q29 0 63 20zM277 590l-69 -321h140l-69 321h-2z" />
    <glyph glyph-name="aogonek" unicode="&#x105;" horiz-adv-x="481" 
d="M382 -133l27 -49q-45 -35 -103 -35q-48 0 -67 23t-19 56q0 63 93 138q-8 16 -16 56h-2q-23 -41 -54 -55.5t-83 -14.5q-66 0 -98 46t-32 108q0 74 31 111t105 57l78 21q31 8 43 22t12 41q0 66 -64 66t-64 -70v-15h-124v13q0 87 52 126.5t137 39.5q114 0 154.5 -41.5
t40.5 -123.5v-283q0 -62 17 -104h-66l2 1h-1q-27 -25 -40 -40q-41 -50 -41 -83q0 -31 25 -31t57 20zM297 163v106q-24 -19 -59 -27q-41 -9 -59.5 -30t-18.5 -57q0 -33 13 -54t39 -21q33 0 59 21t26 62z" />
    <glyph glyph-name="Cacute" unicode="&#x106;" horiz-adv-x="537" 
d="M499 473h-144q0 80 -19 114.5t-67 34.5q-53 0 -71.5 -59.5t-18.5 -215.5q0 -106 10.5 -162.5t29.5 -74.5t52 -18q44 0 67 37t23 144h144q0 -64 -9.5 -111.5t-33 -89.5t-70 -64t-114.5 -22q-63 0 -108 18.5t-71 48.5t-40.5 80.5t-19 100.5t-4.5 123t4.5 123t19 100.5
t40.5 80.5t71 48.5t108 18.5q59 0 102 -17.5t65 -41.5t35 -62t16 -67t3 -67zM222 756l54 144h138l-98 -144h-94z" />
    <glyph glyph-name="cacute" unicode="&#x107;" horiz-adv-x="463" 
d="M437 344h-132q0 108 -62 108q-48 0 -63.5 -41.5t-15.5 -142.5q0 -104 15 -146t59 -42q35 0 51 30t16 96h132q0 -109 -49 -164.5t-156 -55.5t-156.5 63t-49.5 220q0 156 56.5 219.5t161.5 63.5q94 0 143.5 -55t49.5 -153zM191 602l54 144h138l-98 -144h-94z" />
    <glyph glyph-name="Ccircumflex" unicode="&#x108;" horiz-adv-x="537" 
d="M499 473h-144q0 80 -19 114.5t-67 34.5q-53 0 -71.5 -59.5t-18.5 -215.5q0 -106 10.5 -162.5t29.5 -74.5t52 -18q44 0 67 37t23 144h144q0 -64 -9.5 -111.5t-33 -89.5t-70 -64t-114.5 -22q-63 0 -108 18.5t-71 48.5t-40.5 80.5t-19 100.5t-4.5 123t4.5 123t19 100.5
t40.5 80.5t71 48.5t108 18.5q59 0 102 -17.5t65 -41.5t35 -62t16 -67t3 -67zM126 756l78 144h144l78 -144h-106l-46 85l-48 -85h-100z" />
    <glyph glyph-name="ccircumflex" unicode="&#x109;" horiz-adv-x="463" 
d="M437 344h-132q0 108 -62 108q-48 0 -63.5 -41.5t-15.5 -142.5q0 -104 15 -146t59 -42q35 0 51 30t16 96h132q0 -109 -49 -164.5t-156 -55.5t-156.5 63t-49.5 220q0 156 56.5 219.5t161.5 63.5q94 0 143.5 -55t49.5 -153zM92 602l78 144h144l78 -144h-106l-46 85l-48 -85
h-100z" />
    <glyph glyph-name="Cdotaccent" unicode="&#x10a;" horiz-adv-x="537" 
d="M499 473h-144q0 80 -19 114.5t-67 34.5q-53 0 -71.5 -59.5t-18.5 -215.5q0 -106 10.5 -162.5t29.5 -74.5t52 -18q44 0 67 37t23 144h144q0 -64 -9.5 -111.5t-33 -89.5t-70 -64t-114.5 -22q-63 0 -108 18.5t-71 48.5t-40.5 80.5t-19 100.5t-4.5 123t4.5 123t19 100.5
t40.5 80.5t71 48.5t108 18.5q59 0 102 -17.5t65 -41.5t35 -62t16 -67t3 -67zM219 887h112v-118h-112v118z" />
    <glyph glyph-name="cdotaccent" unicode="&#x10b;" horiz-adv-x="463" 
d="M437 344h-132q0 108 -62 108q-48 0 -63.5 -41.5t-15.5 -142.5q0 -104 15 -146t59 -42q35 0 51 30t16 96h132q0 -109 -49 -164.5t-156 -55.5t-156.5 63t-49.5 220q0 156 56.5 219.5t161.5 63.5q94 0 143.5 -55t49.5 -153zM184 733h112v-118h-112v118z" />
    <glyph glyph-name="Ccaron" unicode="&#x10c;" horiz-adv-x="537" 
d="M499 473h-144q0 80 -19 114.5t-67 34.5q-53 0 -71.5 -59.5t-18.5 -215.5q0 -106 10.5 -162.5t29.5 -74.5t52 -18q44 0 67 37t23 144h144q0 -64 -9.5 -111.5t-33 -89.5t-70 -64t-114.5 -22q-63 0 -108 18.5t-71 48.5t-40.5 80.5t-19 100.5t-4.5 123t4.5 123t19 100.5
t40.5 80.5t71 48.5t108 18.5q59 0 102 -17.5t65 -41.5t35 -62t16 -67t3 -67zM203 756l-78 144h106l46 -85l48 85h100l-78 -144h-144z" />
    <glyph glyph-name="ccaron" unicode="&#x10d;" horiz-adv-x="463" 
d="M437 344h-132q0 108 -62 108q-48 0 -63.5 -41.5t-15.5 -142.5q0 -104 15 -146t59 -42q35 0 51 30t16 96h132q0 -109 -49 -164.5t-156 -55.5t-156.5 63t-49.5 220q0 156 56.5 219.5t161.5 63.5q94 0 143.5 -55t49.5 -153zM171 602l-78 144h106l46 -85l48 85h100l-78 -144
h-144z" />
    <glyph glyph-name="Dcaron" unicode="&#x10e;" horiz-adv-x="574" 
d="M201 608v-502h64q73 0 96.5 53.5t23.5 203.5q0 67 -4 107.5t-16.5 74.5t-37.5 48.5t-65 14.5h-61zM57 0v714h236q73 0 120.5 -23.5t72.5 -72t34 -107t9 -144.5q0 -196 -53 -281.5t-192 -85.5h-227zM184 756l-78 144h106l46 -85l48 85h100l-78 -144h-144z" />
    <glyph glyph-name="dcaron" unicode="&#x10f;" horiz-adv-x="607" 
d="M322 0v57h-2q-43 -71 -122 -71q-85 0 -125 67t-40 216t40 216t125 67q73 0 116 -64h2v226h138v-714h-132zM171 269q0 -94 14.5 -135.5t57.5 -41.5t58 41.5t15 135.5t-15 135.5t-58 41.5t-57.5 -41.5t-14.5 -135.5zM492 570l33 144h120l-63 -144h-90z" />
    <glyph glyph-name="Dcroat" unicode="&#x110;" horiz-adv-x="574" 
d="M201 608v-187h93v-106h-93v-209h64q73 0 96.5 53.5t23.5 203.5q0 67 -4 107.5t-16.5 74.5t-37.5 48.5t-65 14.5h-61zM57 0v315h-57v106h57v293h236q73 0 120.5 -23.5t72.5 -72t34 -107t9 -144.5q0 -196 -53 -281.5t-192 -85.5h-227z" />
    <glyph glyph-name="dcroat" unicode="&#x111;" horiz-adv-x="540" 
d="M322 0v57h-2q-43 -71 -122 -71q-85 0 -125 67t-40 216t40 216t125 67q73 0 116 -64h2v98h-110v61h110v67h138v-67h86v-61h-86v-586h-132zM171 269q0 -94 14.5 -135.5t57.5 -41.5t58 41.5t15 135.5t-15 135.5t-58 41.5t-57.5 -41.5t-14.5 -135.5z" />
    <glyph glyph-name="Emacron" unicode="&#x112;" horiz-adv-x="481" 
d="M50 714h399v-118h-255v-168h240v-118h-240v-192h265v-118h-409v714zM104 866h294v-76h-294v76z" />
    <glyph glyph-name="emacron" unicode="&#x113;" horiz-adv-x="463" 
d="M437 248h-273v-43q0 -54 16 -89.5t52 -35.5q34 0 50.5 24t22.5 77h124q-8 -195 -195 -195q-42 0 -74.5 9.5t-54 23.5t-37 38.5t-23.5 46.5t-12.5 55t-5.5 56.5t-1 58.5q0 48 4 85t17.5 75t36.5 62.5t62.5 40t93.5 15.5q113 0 155 -68.5t42 -204.5v-31zM164 330h141
q-2 68 -16 98t-54 30q-38 0 -54.5 -31t-16.5 -76v-21zM90 712h294v-76h-294v76z" />
    <glyph glyph-name="Ebreve" unicode="&#x114;" horiz-adv-x="481" 
d="M50 714h399v-118h-255v-168h240v-118h-240v-192h265v-118h-409v714zM108 899h65q3 -29 24 -47t50 -18t50 18t24 47h65q0 -22 -7 -45t-22 -45.5t-43.5 -36.5t-66.5 -14q-72 0 -105.5 45t-33.5 96z" />
    <glyph glyph-name="ebreve" unicode="&#x115;" horiz-adv-x="463" 
d="M437 248h-273v-43q0 -54 16 -89.5t52 -35.5q34 0 50.5 24t22.5 77h124q-8 -195 -195 -195q-42 0 -74.5 9.5t-54 23.5t-37 38.5t-23.5 46.5t-12.5 55t-5.5 56.5t-1 58.5q0 48 4 85t17.5 75t36.5 62.5t62.5 40t93.5 15.5q113 0 155 -68.5t42 -204.5v-31zM164 330h141
q-2 68 -16 98t-54 30q-38 0 -54.5 -31t-16.5 -76v-21zM98 745h65q3 -29 23.5 -47t50.5 -18q29 0 50 18t24 47h65q0 -22 -7 -45t-22 -45.5t-43.5 -36.5t-66.5 -14q-72 0 -105.5 45t-33.5 96z" />
    <glyph glyph-name="Edotaccent" unicode="&#x116;" horiz-adv-x="481" 
d="M50 714h399v-118h-255v-168h240v-118h-240v-192h265v-118h-409v714zM196 887h112v-118h-112v118z" />
    <glyph glyph-name="edotaccent" unicode="&#x117;" horiz-adv-x="463" 
d="M437 248h-273v-43q0 -54 16 -89.5t52 -35.5q34 0 50.5 24t22.5 77h124q-8 -195 -195 -195q-42 0 -74.5 9.5t-54 23.5t-37 38.5t-23.5 46.5t-12.5 55t-5.5 56.5t-1 58.5q0 48 4 85t17.5 75t36.5 62.5t62.5 40t93.5 15.5q113 0 155 -68.5t42 -204.5v-31zM164 330h141
q-2 68 -16 98t-54 30q-38 0 -54.5 -31t-16.5 -76v-21zM182 733h112v-118h-112v118z" />
    <glyph glyph-name="Eogonek" unicode="&#x118;" horiz-adv-x="481" 
d="M429 -133l30 -49q-48 -35 -114 -35q-53 0 -74.5 23t-21.5 56q0 37 33 74.5t90 63.5h-322v714h399v-118h-255v-168h240v-118h-240v-192h265v-118h-20q-59 -42 -80 -69.5t-21 -52.5q0 -31 28 -31q29 0 63 20z" />
    <glyph glyph-name="eogonek" unicode="&#x119;" horiz-adv-x="463" 
d="M301 -133l30 -49q-48 -35 -114 -35q-53 0 -74.5 23t-21.5 56q0 38 33 75q22 26 62 50q-60 1 -99 25q-57 36 -74 100t-17 162q0 48 4 85t17.5 75t36.5 62.5t62.5 40t93.5 15.5q113 0 155 -68.5t42 -204.5v-31h-273v-43q0 -54 16 -89.5t52 -35.5q34 0 50.5 24t22.5 77h124
q-5 -95 -50 -145q-28 -31 -78 -43q-10 -8 -41 -33q-50 -47 -50 -82q0 -31 28 -31q29 0 63 20zM164 330h141q-2 68 -16 98t-54 30q-38 0 -54.5 -31t-16.5 -76v-21z" />
    <glyph glyph-name="Ecaron" unicode="&#x11a;" horiz-adv-x="481" 
d="M50 714h399v-118h-255v-168h240v-118h-240v-192h265v-118h-409v714zM181 756l-78 144h106l46 -85l48 85h100l-78 -144h-144z" />
    <glyph glyph-name="ecaron" unicode="&#x11b;" horiz-adv-x="463" 
d="M437 248h-273v-43q0 -54 16 -89.5t52 -35.5q34 0 50.5 24t22.5 77h124q-8 -195 -195 -195q-42 0 -74.5 9.5t-54 23.5t-37 38.5t-23.5 46.5t-12.5 55t-5.5 56.5t-1 58.5q0 48 4 85t17.5 75t36.5 62.5t62.5 40t93.5 15.5q113 0 155 -68.5t42 -204.5v-31zM164 330h141
q-2 68 -16 98t-54 30q-38 0 -54.5 -31t-16.5 -76v-21zM164 602l-78 144h106l46 -85l48 85h100l-78 -144h-144z" />
    <glyph glyph-name="Gcircumflex" unicode="&#x11c;" horiz-adv-x="556" 
d="M505 502h-138q0 46 -20.5 83t-61.5 37q-52 0 -75 -58t-23 -192q0 -143 20.5 -211.5t78.5 -68.5q31 0 60 30.5t29 83.5v73h-95v106h233v-385h-106v66h-2q-50 -80 -150 -80q-65 0 -107.5 23.5t-65 74.5t-31 116.5t-8.5 164.5q0 188 53.5 275.5t186.5 87.5q115 0 168.5 -57
t53.5 -169zM137 756l78 144h144l78 -144h-106l-46 85l-48 -85h-100z" />
    <glyph glyph-name="gcircumflex" unicode="&#x11d;" horiz-adv-x="500" 
d="M173 252q0 -65 14.5 -102.5t54.5 -37.5q42 0 58.5 40t16.5 114q0 100 -15.5 140t-56.5 40q-44 0 -58 -40.5t-14 -153.5zM317 538h132v-511q0 -109 -52.5 -160t-171.5 -51q-88 0 -135.5 37.5t-47.5 106.5h132q0 -26 21 -41q22 -15 46 -15q76 0 76 97v71h-2
q-46 -66 -115 -66q-84 0 -124.5 64t-40.5 208q0 55 6 97.5t22.5 85.5t52 67t88.5 24q75 0 111 -74h2v60zM110 602l78 144h144l78 -144h-106l-46 85l-48 -85h-100z" />
    <glyph glyph-name="Gbreve" unicode="&#x11e;" horiz-adv-x="556" 
d="M505 502h-138q0 46 -20.5 83t-61.5 37q-52 0 -75 -58t-23 -192q0 -143 20.5 -211.5t78.5 -68.5q31 0 60 30.5t29 83.5v73h-95v106h233v-385h-106v66h-2q-50 -80 -150 -80q-65 0 -107.5 23.5t-65 74.5t-31 116.5t-8.5 164.5q0 188 53.5 275.5t186.5 87.5q115 0 168.5 -57
t53.5 -169zM145 899h65q3 -29 23.5 -47t50.5 -18t50.5 18t23.5 47h65q0 -22 -7 -45t-22 -45.5t-43.5 -36.5t-66.5 -14q-72 0 -105.5 45t-33.5 96z" />
    <glyph glyph-name="gbreve" unicode="&#x11f;" horiz-adv-x="500" 
d="M173 252q0 -65 14.5 -102.5t54.5 -37.5q42 0 58.5 40t16.5 114q0 100 -15.5 140t-56.5 40q-44 0 -58 -40.5t-14 -153.5zM317 538h132v-511q0 -109 -52.5 -160t-171.5 -51q-88 0 -135.5 37.5t-47.5 106.5h132q0 -26 21 -41q22 -15 46 -15q76 0 76 97v71h-2
q-46 -66 -115 -66q-84 0 -124.5 64t-40.5 208q0 55 6 97.5t22.5 85.5t52 67t88.5 24q75 0 111 -74h2v60zM114 745h65q3 -29 24 -47t50 -18t50 18t24 47h65q0 -22 -7 -45t-22 -45.5t-43.5 -36.5t-66.5 -14q-72 0 -105.5 45t-33.5 96z" />
    <glyph glyph-name="Gdotaccent" unicode="&#x120;" horiz-adv-x="556" 
d="M505 502h-138q0 46 -20.5 83t-61.5 37q-52 0 -75 -58t-23 -192q0 -143 20.5 -211.5t78.5 -68.5q31 0 60 30.5t29 83.5v73h-95v106h233v-385h-106v66h-2q-50 -80 -150 -80q-65 0 -107.5 23.5t-65 74.5t-31 116.5t-8.5 164.5q0 188 53.5 275.5t186.5 87.5q115 0 168.5 -57
t53.5 -169zM230 887h112v-118h-112v118z" />
    <glyph glyph-name="gdotaccent" unicode="&#x121;" horiz-adv-x="500" 
d="M173 252q0 -65 14.5 -102.5t54.5 -37.5q42 0 58.5 40t16.5 114q0 100 -15.5 140t-56.5 40q-44 0 -58 -40.5t-14 -153.5zM317 538h132v-511q0 -109 -52.5 -160t-171.5 -51q-88 0 -135.5 37.5t-47.5 106.5h132q0 -26 21 -41q22 -15 46 -15q76 0 76 97v71h-2
q-46 -66 -115 -66q-84 0 -124.5 64t-40.5 208q0 55 6 97.5t22.5 85.5t52 67t88.5 24q75 0 111 -74h2v60zM198 733h112v-118h-112v118z" />
    <glyph glyph-name="Gcommaaccent" unicode="&#x122;" horiz-adv-x="556" 
d="M505 502h-138q0 46 -20.5 83t-61.5 37q-52 0 -75 -58t-23 -192q0 -143 20.5 -211.5t78.5 -68.5q31 0 60 30.5t29 83.5v73h-95v106h233v-385h-106v66h-2q-50 -80 -150 -80q-65 0 -107.5 23.5t-65 74.5t-31 116.5t-8.5 164.5q0 188 53.5 275.5t186.5 87.5q115 0 168.5 -57
t53.5 -169zM225 -50h112v-97q0 -32 -8 -53.5t-24 -32t-29.5 -14t-35.5 -6.5v36q18 6 26.5 16.5t9.5 32.5h-51v118z" />
    <glyph glyph-name="gcommaaccent" unicode="&#x123;" horiz-adv-x="500" 
d="M173 252q0 -65 14.5 -102.5t54.5 -37.5q42 0 58.5 40t16.5 114q0 100 -15.5 140t-56.5 40q-44 0 -58 -40.5t-14 -153.5zM317 538h132v-511q0 -109 -52.5 -160t-171.5 -51q-88 0 -135.5 37.5t-47.5 106.5h132q0 -26 21 -41q22 -15 46 -15q76 0 76 97v71h-2
q-46 -66 -115 -66q-84 0 -124.5 64t-40.5 208q0 55 6 97.5t22.5 85.5t52 67t88.5 24q75 0 111 -74h2v60zM282 1167h-112v97q0 32 8 53.5t24 32t29.5 14t35.5 6.5v-36q-18 -6 -26.5 -16.5t-9.5 -32.5h51v-118zM314 596h-112v97q0 32 8 53.5t24 32t29.5 14t35.5 6.5v-36
q-18 -6 -26.5 -16.5t-9.5 -32.5h51v-118z" />
    <glyph glyph-name="Hcircumflex" unicode="&#x124;" horiz-adv-x="556" 
d="M50 0v714h144v-273h168v273h144v-714h-144v317h-168v-317h-144zM129 756l78 144h144l78 -144h-106l-46 85l-48 -85h-100z" />
    <glyph glyph-name="hcircumflex" unicode="&#x125;" horiz-adv-x="500" 
d="M46 0v714h138v-231h2q40 69 131 69q137 0 137 -153v-399h-138v371q0 41 -14 58t-45 17q-73 0 -73 -89v-357h-138zM100 756l78 144h144l78 -144h-106l-46 85l-48 -85h-100z" />
    <glyph glyph-name="Hbar" unicode="&#x126;" horiz-adv-x="556" 
d="M50 0v714h144v-146h168v146h144v-714h-144v300h-168v-300h-144zM194 420h168v87h-168v-87z" />
    <glyph glyph-name="hbar" unicode="&#x127;" horiz-adv-x="540" 
d="M86 647v67h138v-67h111v-61h-111v-103h2q40 69 131 69q137 0 137 -153v-399h-138v371q0 41 -14 58t-45 17q-73 0 -73 -89v-357h-138v586h-86v61h86z" />
    <glyph glyph-name="Itilde" unicode="&#x128;" horiz-adv-x="258" 
d="M201 0h-144v714h144v-714zM43 765h-70q17 124 93 124q28 0 43 -7l48 -21q15 -6 30 -6q13 0 20.5 12t7.5 24h72q-5 -55 -30 -89.5t-63 -34.5q-22 0 -63 17t-56 17q-25 0 -32 -36z" />
    <glyph glyph-name="itilde" unicode="&#x129;" horiz-adv-x="240" 
d="M51 0v538h138v-538h-138zM33 611h-70q17 124 93 124q28 0 43 -7l48 -21q15 -6 30 -6q13 0 20.5 12t7.5 24h72q-5 -55 -30 -89.5t-63 -34.5q-22 0 -63 17t-56 17q-25 0 -32 -36z" />
    <glyph glyph-name="Imacron" unicode="&#x12a;" horiz-adv-x="258" 
d="M201 0h-144v714h144v-714zM-17 866h294v-76h-294v76z" />
    <glyph glyph-name="imacron" unicode="&#x12b;" horiz-adv-x="240" 
d="M51 0v538h138v-538h-138zM-27 712h294v-76h-294v76z" />
    <glyph glyph-name="Iogonek" unicode="&#x12e;" horiz-adv-x="258" 
d="M191 -133l30 -49q-48 -35 -114 -35q-53 0 -74.5 23t-21.5 56q0 37 33 74.5t90 63.5h-77v714h144v-714q-59 -42 -80 -69.5t-21 -52.5q0 -31 28 -31q29 0 63 20z" />
    <glyph glyph-name="iogonek" unicode="&#x12f;" horiz-adv-x="240" 
d="M178 -133l30 -49q-48 -35 -114 -35q-53 0 -74.5 23t-21.5 56q0 37 33 74.5t90 63.5h-70v538h138v-538h-1q-59 -42 -80 -69.5t-21 -52.5q0 -31 28 -31q29 0 63 20zM51 604v118h138v-118h-138z" />
    <glyph glyph-name="Idotaccent" unicode="&#x130;" horiz-adv-x="258" 
d="M201 0h-144v714h144v-714zM73 887h112v-118h-112v118z" />
    <glyph glyph-name="dotlessi" unicode="&#x131;" horiz-adv-x="240" 
d="M51 0v538h138v-538h-138z" />
    <glyph glyph-name="Jcircumflex" unicode="&#x134;" horiz-adv-x="463" 
d="M275 714h144v-514q0 -113 -52.5 -163.5t-162.5 -50.5q-105 0 -147 56.5t-42 152.5v31h132v-22q0 -60 13.5 -86t50.5 -26t50.5 26t13.5 86v510zM196 756l78 144h144l78 -144h-106l-46 85l-48 -85h-100z" />
    <glyph glyph-name="jcircumflex" unicode="&#x135;" horiz-adv-x="240" 
d="M51 10v528h138v-575q0 -72 -34.5 -105.5t-123.5 -33.5q-16 0 -56 2v100q6 -2 11 -2h11q35 0 44.5 18.5t9.5 67.5zM-33 602l78 144h144l78 -144h-106l-46 85l-48 -85h-100z" />
    <glyph glyph-name="Kcommaaccent" unicode="&#x136;" horiz-adv-x="537" 
d="M50 714h144v-286h2l182 286h156l-194 -306l216 -408h-162l-147 293l-53 -81v-212h-144v714zM233 -50h112v-97q0 -32 -8 -53.5t-24 -32t-29.5 -14t-35.5 -6.5v36q18 6 26.5 16.5t9.5 32.5h-51v118z" />
    <glyph glyph-name="kcommaaccent" unicode="&#x137;" horiz-adv-x="500" 
d="M51 714h138v-377h2l139 201h152l-155 -212l178 -326h-152l-115 221l-49 -64v-157h-138v714zM214 -50h112v-97q0 -32 -8 -53.5t-24 -32t-29.5 -14t-35.5 -6.5v36q18 6 26.5 16.5t9.5 32.5h-51v118z" />
    <glyph glyph-name="Lacute" unicode="&#x139;" horiz-adv-x="463" 
d="M449 0h-399v714h144v-596h255v-118zM70 756l54 144h138l-98 -144h-94z" />
    <glyph glyph-name="lacute" unicode="&#x13a;" horiz-adv-x="240" 
d="M51 0v714h138v-714h-138zM52 756l54 144h138l-98 -144h-94z" />
    <glyph glyph-name="Lcommaaccent" unicode="&#x13b;" horiz-adv-x="463" 
d="M449 0h-399v714h144v-596h255v-118zM197 -50h112v-97q0 -32 -8 -53.5t-24 -32t-29.5 -14t-35.5 -6.5v36q18 6 26.5 16.5t9.5 32.5h-51v118z" />
    <glyph glyph-name="lcommaaccent" unicode="&#x13c;" horiz-adv-x="240" 
d="M51 0v714h138v-714h-138zM67 -50h112v-97q0 -32 -8 -53.5t-24 -32t-29.5 -14t-35.5 -6.5v36q18 6 26.5 16.5t9.5 32.5h-51v118z" />
    <glyph glyph-name="Lcaron" unicode="&#x13d;" horiz-adv-x="463" 
d="M449 0h-399v714h144v-596h255v-118zM245 570l33 144h120l-63 -144h-90z" />
    <glyph glyph-name="lcaron" unicode="&#x13e;" horiz-adv-x="342" 
d="M51 0v714h138v-714h-138zM227 570l33 144h120l-63 -144h-90z" />
    <glyph glyph-name="Ldot" unicode="&#x13f;" horiz-adv-x="463" 
d="M449 0h-399v714h144v-596h255v-118zM267 538h112v-118h-112v118z" />
    <glyph glyph-name="ldot" unicode="&#x140;" horiz-adv-x="397" 
d="M51 0v714h138v-714h-138zM245 538h112v-118h-112v118z" />
    <glyph glyph-name="Lslash" unicode="&#x141;" horiz-adv-x="463" 
d="M50 0v256l-50 -31v106l50 31v352h144v-262l126 79v-106l-126 -79v-228h255v-118h-399z" />
    <glyph glyph-name="lslash" unicode="&#x142;" horiz-adv-x="240" 
d="M51 0v282l-63 -42v88l63 42v344h138v-253l63 41v-88l-63 -41v-373h-138z" />
    <glyph glyph-name="Nacute" unicode="&#x143;" horiz-adv-x="574" 
d="M50 714h166l174 -489h2v489h132v-714h-164l-176 500h-2v-500h-132v714zM238 756l54 144h138l-98 -144h-94z" />
    <glyph glyph-name="nacute" unicode="&#x144;" horiz-adv-x="500" 
d="M46 0v538h132v-63h2q42 77 137 77q137 0 137 -153v-399h-138v371q0 41 -14 58t-45 17q-73 0 -73 -89v-357h-138zM195 602l54 144h138l-98 -144h-94z" />
    <glyph glyph-name="Ncommaaccent" unicode="&#x145;" horiz-adv-x="574" 
d="M50 714h166l174 -489h2v489h132v-714h-164l-176 500h-2v-500h-132v714zM232 -50h112v-97q0 -32 -8 -53.5t-24 -32t-29.5 -14t-35.5 -6.5v36q18 6 26.5 16.5t9.5 32.5h-51v118z" />
    <glyph glyph-name="ncommaaccent" unicode="&#x146;" horiz-adv-x="500" 
d="M46 0v538h132v-63h2q42 77 137 77q137 0 137 -153v-399h-138v371q0 41 -14 58t-45 17q-73 0 -73 -89v-357h-138zM196 -50h112v-97q0 -32 -8 -53.5t-24 -32t-29.5 -14t-35.5 -6.5v36q18 6 26.5 16.5t9.5 32.5h-51v118z" />
    <glyph glyph-name="Ncaron" unicode="&#x147;" horiz-adv-x="574" 
d="M50 714h166l174 -489h2v489h132v-714h-164l-176 500h-2v-500h-132v714zM215 756l-78 144h106l46 -85l48 85h100l-78 -144h-144z" />
    <glyph glyph-name="ncaron" unicode="&#x148;" horiz-adv-x="500" 
d="M46 0v538h132v-63h2q42 77 137 77q137 0 137 -153v-399h-138v371q0 41 -14 58t-45 17q-73 0 -73 -89v-357h-138zM176 602l-78 144h106l46 -85l48 85h100l-78 -144h-144z" />
    <glyph glyph-name="Omacron" unicode="&#x14c;" horiz-adv-x="556" 
d="M35 357q0 73 4.5 123t19 100.5t40.5 80.5t71 48.5t108 18.5t108 -18.5t71 -48.5t40.5 -80.5t19 -100.5t4.5 -123t-4.5 -123t-19 -100.5t-40.5 -80.5t-71 -48.5t-108 -18.5t-108 18.5t-71 48.5t-40.5 80.5t-19 100.5t-4.5 123zM179 357q0 -152 19 -208.5t80 -56.5t80 56.5
t19 208.5q0 151 -19 208t-80 57t-80 -57t-19 -208zM130 866h294v-76h-294v76z" />
    <glyph glyph-name="omacron" unicode="&#x14d;" 
d="M28 269q0 143 49 213t163 70q119 2 165.5 -66.5t46.5 -216.5q0 -143 -49 -213t-163 -70q-119 -2 -165.5 66.5t-46.5 216.5zM166 269q0 -48 2 -77t9 -57.5t22.5 -41.5t40.5 -13q41 0 57.5 43t16.5 146t-16.5 146t-57.5 43q-25 0 -40.5 -13t-22.5 -41.5t-9 -57.5t-2 -77z
M92 712h294v-76h-294v76z" />
    <glyph glyph-name="Obreve" unicode="&#x14e;" horiz-adv-x="556" 
d="M35 357q0 73 4.5 123t19 100.5t40.5 80.5t71 48.5t108 18.5t108 -18.5t71 -48.5t40.5 -80.5t19 -100.5t4.5 -123t-4.5 -123t-19 -100.5t-40.5 -80.5t-71 -48.5t-108 -18.5t-108 18.5t-71 48.5t-40.5 80.5t-19 100.5t-4.5 123zM179 357q0 -152 19 -208.5t80 -56.5t80 56.5
t19 208.5q0 151 -19 208t-80 57t-80 -57t-19 -208zM138 899h65q3 -29 24 -47t50 -18t50 18t24 47h65q0 -22 -7 -45t-22 -45.5t-43.5 -36.5t-66.5 -14q-72 0 -105.5 45t-33.5 96z" />
    <glyph glyph-name="obreve" unicode="&#x14f;" 
d="M28 269q0 143 49 213t163 70q119 2 165.5 -66.5t46.5 -216.5q0 -143 -49 -213t-163 -70q-119 -2 -165.5 66.5t-46.5 216.5zM166 269q0 -48 2 -77t9 -57.5t22.5 -41.5t40.5 -13q41 0 57.5 43t16.5 146t-16.5 146t-57.5 43q-25 0 -40.5 -13t-22.5 -41.5t-9 -57.5t-2 -77z
M101 745h65q3 -29 23.5 -47t50.5 -18t50.5 18t23.5 47h65q0 -22 -7 -45t-22 -45.5t-43.5 -36.5t-66.5 -14q-72 0 -105.5 45t-33.5 96z" />
    <glyph glyph-name="Ohungarumlaut" unicode="&#x150;" horiz-adv-x="556" 
d="M35 357q0 73 4.5 123t19 100.5t40.5 80.5t71 48.5t108 18.5t108 -18.5t71 -48.5t40.5 -80.5t19 -100.5t4.5 -123t-4.5 -123t-19 -100.5t-40.5 -80.5t-71 -48.5t-108 -18.5t-108 18.5t-71 48.5t-40.5 80.5t-19 100.5t-4.5 123zM179 357q0 -152 19 -208.5t80 -56.5t80 56.5
t19 208.5q0 151 -19 208t-80 57t-80 -57t-19 -208zM310 756l54 144h138l-98 -144h-94zM144 756l54 144h138l-98 -144h-94z" />
    <glyph glyph-name="ohungarumlaut" unicode="&#x151;" 
d="M28 269q0 143 49 213t163 70q119 2 165.5 -66.5t46.5 -216.5q0 -143 -49 -213t-163 -70q-119 -2 -165.5 66.5t-46.5 216.5zM166 269q0 -48 2 -77t9 -57.5t22.5 -41.5t40.5 -13q41 0 57.5 43t16.5 146t-16.5 146t-57.5 43q-25 0 -40.5 -13t-22.5 -41.5t-9 -57.5t-2 -77z
M272 602l54 144h138l-98 -144h-94zM106 602l54 144h138l-98 -144h-94z" />
    <glyph glyph-name="OE" unicode="&#x152;" horiz-adv-x="778" 
d="M179 357q0 -153 18 -209t81 -56q60 0 75 51.5t15 213.5q0 57 -0.5 90t-3.5 67.5t-9 51t-16 31.5t-24.5 20t-36.5 5q-63 0 -81 -56t-18 -209zM748 714v-118h-242v-168h227v-118h-227v-192h250v-118h-373v41h-2q-11 -25 -47.5 -40t-75.5 -15q-51 0 -89 14t-62 43t-39 60.5
t-22 79.5t-9 87t-2 95q0 62 4.5 109.5t18 97.5t36.5 82.5t63 53t94 20.5q99 0 130 -52h2v38h365z" />
    <glyph glyph-name="oe" unicode="&#x153;" horiz-adv-x="741" 
d="M439 330h141q-2 68 -16 98t-54 30q-38 0 -54.5 -31t-16.5 -76v-21zM243 80q41 0 56.5 43t15.5 146t-16.5 146t-57.5 43q-25 0 -40.5 -13t-22.5 -41.5t-9 -57.5t-2 -77t2 -77t9.5 -57.5t23.5 -41.5t41 -13zM712 248h-273v-43q0 -54 16 -89.5t52 -35.5q34 0 50.5 24.5
t22.5 76.5h124q-8 -195 -187 -195q-110 0 -140 79q-14 -37 -54.5 -58t-93.5 -21q-112 0 -156 68t-44 215q0 143 49 213t163 70q55 0 88.5 -18t54.5 -57q20 36 55 55.5t76 19.5q113 0 155 -68.5t42 -204.5v-31z" />
    <glyph glyph-name="Racute" unicode="&#x154;" horiz-adv-x="556" 
d="M50 0v714h266q91 0 140.5 -46.5t49.5 -137.5q0 -151 -119 -176v-2q70 -9 91.5 -53.5t23.5 -164.5q1 -62 7 -89.5t25 -38.5v-6h-156q-16 21 -18 75l-4 137q-5 90 -85 90h-77v-302h-144zM194 608v-206h60q108 0 108 107q0 99 -100 99h-68zM195 756l54 144h138l-98 -144h-94
z" />
    <glyph glyph-name="racute" unicode="&#x155;" horiz-adv-x="333" 
d="M46 0v538h132v-72h2q46 86 124 86q9 0 25 -2v-132q-30 2 -43 2q-42 0 -72 -23.5t-30 -73.5v-323h-138zM81 602l54 144h138l-98 -144h-94z" />
    <glyph glyph-name="Rcommaaccent" unicode="&#x156;" horiz-adv-x="556" 
d="M50 0v714h266q91 0 140.5 -46.5t49.5 -137.5q0 -151 -119 -176v-2q70 -9 91.5 -53.5t23.5 -164.5q1 -62 7 -89.5t25 -38.5v-6h-156q-16 21 -18 75l-4 137q-5 90 -85 90h-77v-302h-144zM194 608v-206h60q108 0 108 107q0 99 -100 99h-68zM230 -50h112v-97q0 -32 -8 -53.5
t-24 -32t-29.5 -14t-35.5 -6.5v36q18 6 26.5 16.5t9.5 32.5h-51v118z" />
    <glyph glyph-name="rcommaaccent" unicode="&#x157;" horiz-adv-x="333" 
d="M46 0v538h132v-72h2q46 86 124 86q9 0 25 -2v-132q-30 2 -43 2q-42 0 -72 -23.5t-30 -73.5v-323h-138zM62 -50h112v-97q0 -32 -8 -53.5t-24 -32t-29.5 -14t-35.5 -6.5v36q18 6 26.5 16.5t9.5 32.5h-51v118z" />
    <glyph glyph-name="Rcaron" unicode="&#x158;" horiz-adv-x="556" 
d="M50 0v714h266q91 0 140.5 -46.5t49.5 -137.5q0 -151 -119 -176v-2q70 -9 91.5 -53.5t23.5 -164.5q1 -62 7 -89.5t25 -38.5v-6h-156q-16 21 -18 75l-4 137q-5 90 -85 90h-77v-302h-144zM194 608v-206h60q108 0 108 107q0 99 -100 99h-68zM186 756l-78 144h106l46 -85
l48 85h100l-78 -144h-144z" />
    <glyph glyph-name="rcaron" unicode="&#x159;" horiz-adv-x="333" 
d="M46 0v538h132v-72h2q46 86 124 86q9 0 25 -2v-132q-30 2 -43 2q-42 0 -72 -23.5t-30 -73.5v-323h-138zM118 602l-78 144h106l46 -85l48 85h100l-78 -144h-144z" />
    <glyph glyph-name="Sacute" unicode="&#x15a;" horiz-adv-x="519" 
d="M22 223h144v-21q0 -55 20.5 -82.5t74.5 -27.5q36 0 61 23t25 65q0 47 -27 72t-101 50q-99 33 -143 81.5t-44 134.5q0 103 58 156.5t163 53.5q102 0 161.5 -47t59.5 -145v-20h-138q0 106 -78 106q-82 0 -82 -83q0 -35 15.5 -57t58.5 -40l111 -48q78 -35 107 -77.5
t29 -111.5q0 -219 -248 -219q-119 0 -173 53t-54 155v29zM207 756l54 144h138l-98 -144h-94z" />
    <glyph glyph-name="sacute" unicode="&#x15b;" horiz-adv-x="444" 
d="M23 176h124v-18q0 -36 18.5 -57t53.5 -21q70 0 70 64q0 41 -50 61l-97 35q-115 41 -115 150q0 71 49 116.5t149 45.5q184 0 184 -153v-22h-124q0 42 -14 61.5t-47 19.5q-28 0 -46.5 -15t-18.5 -43q0 -44 60 -63l83 -28q65 -22 92 -57.5t27 -96.5q0 -82 -55 -125.5
t-145 -43.5q-111 0 -154.5 43.5t-43.5 127.5v19zM171 602l54 144h138l-98 -144h-94z" />
    <glyph glyph-name="Scircumflex" unicode="&#x15c;" horiz-adv-x="519" 
d="M22 223h144v-21q0 -55 20.5 -82.5t74.5 -27.5q36 0 61 23t25 65q0 47 -27 72t-101 50q-99 33 -143 81.5t-44 134.5q0 103 58 156.5t163 53.5q102 0 161.5 -47t59.5 -145v-20h-138q0 106 -78 106q-82 0 -82 -83q0 -35 15.5 -57t58.5 -40l111 -48q78 -35 107 -77.5
t29 -111.5q0 -219 -248 -219q-119 0 -173 53t-54 155v29zM109 756l78 144h144l78 -144h-106l-46 85l-48 -85h-100z" />
    <glyph glyph-name="scircumflex" unicode="&#x15d;" horiz-adv-x="444" 
d="M23 176h124v-18q0 -36 18.5 -57t53.5 -21q70 0 70 64q0 41 -50 61l-97 35q-115 41 -115 150q0 71 49 116.5t149 45.5q184 0 184 -153v-22h-124q0 42 -14 61.5t-47 19.5q-28 0 -46.5 -15t-18.5 -43q0 -44 60 -63l83 -28q65 -22 92 -57.5t27 -96.5q0 -82 -55 -125.5
t-145 -43.5q-111 0 -154.5 43.5t-43.5 127.5v19zM77 602l78 144h144l78 -144h-106l-46 85l-48 -85h-100z" />
    <glyph glyph-name="Scedilla" unicode="&#x15e;" horiz-adv-x="519" 
d="M22 223h144v-21q0 -55 20.5 -82.5t74.5 -27.5q36 0 61 23t25 65q0 47 -27 72t-101 50q-99 33 -143 81.5t-44 134.5q0 103 58 156.5t163 53.5q102 0 161.5 -47t59.5 -145v-20h-138q0 106 -78 106q-82 0 -82 -83q0 -35 15.5 -57t58.5 -40l111 -48q78 -35 107 -77.5
t29 -111.5q0 -113 -66 -166q-60 -48 -166 -53l-29 -44q15 5 33 5q35 0 60.5 -19.5t23.5 -52.5q0 -44 -32.5 -68t-93.5 -24q-66 0 -100 19l19 46q28 -15 69 -15q21 0 35.5 9t14.5 24q0 30 -44 32q-17 0 -34 -6l-22 20l48 75q-93 7 -139 53q-52 55 -52 154v29z" />
    <glyph glyph-name="Scedilla" unicode="&#xf6c1;" horiz-adv-x="519" 
d="M22 223h144v-21q0 -55 20.5 -82.5t74.5 -27.5q36 0 61 23t25 65q0 47 -27 72t-101 50q-99 33 -143 81.5t-44 134.5q0 103 58 156.5t163 53.5q102 0 161.5 -47t59.5 -145v-20h-138q0 106 -78 106q-82 0 -82 -83q0 -35 15.5 -57t58.5 -40l111 -48q78 -35 107 -77.5
t29 -111.5q0 -113 -66 -166q-60 -48 -166 -53l-29 -44q15 5 33 5q35 0 60.5 -19.5t23.5 -52.5q0 -44 -32.5 -68t-93.5 -24q-66 0 -100 19l19 46q28 -15 69 -15q21 0 35.5 9t14.5 24q0 30 -44 32q-17 0 -34 -6l-22 20l48 75q-93 7 -139 53q-52 55 -52 154v29z" />
    <glyph glyph-name="scedilla" unicode="&#x15f;" horiz-adv-x="444" 
d="M23 176h124v-18q0 -36 18.5 -57t53.5 -21q70 0 70 64q0 41 -50 61l-97 35q-115 41 -115 150q0 71 49 116.5t149 45.5q184 0 184 -153v-22h-124q0 42 -14 61.5t-47 19.5q-28 0 -46.5 -15t-18.5 -43q0 -44 60 -63l83 -28q65 -22 92 -57.5t27 -96.5q0 -62 -32 -102.5
t-88 -55.5q-34 -10 -69 -11l-29 -44q15 5 33 5q35 0 60.5 -19.5t23.5 -52.5q0 -44 -32.5 -68t-93.5 -24q-66 0 -100 19l19 46q28 -15 69 -15q21 0 35.5 9t14.5 24q0 30 -44 32q-18 0 -34 -6l-22 20l49 76q-34 3 -57 10q-101 31 -101 159v19z" />
    <glyph glyph-name="scedilla" unicode="&#xf6c2;" horiz-adv-x="444" 
d="M23 176h124v-18q0 -36 18.5 -57t53.5 -21q70 0 70 64q0 41 -50 61l-97 35q-115 41 -115 150q0 71 49 116.5t149 45.5q184 0 184 -153v-22h-124q0 42 -14 61.5t-47 19.5q-28 0 -46.5 -15t-18.5 -43q0 -44 60 -63l83 -28q65 -22 92 -57.5t27 -96.5q0 -62 -32 -102.5
t-88 -55.5q-34 -10 -69 -11l-29 -44q15 5 33 5q35 0 60.5 -19.5t23.5 -52.5q0 -44 -32.5 -68t-93.5 -24q-66 0 -100 19l19 46q28 -15 69 -15q21 0 35.5 9t14.5 24q0 30 -44 32q-18 0 -34 -6l-22 20l49 76q-34 3 -57 10q-101 31 -101 159v19z" />
    <glyph glyph-name="Scaron" unicode="&#x160;" horiz-adv-x="519" 
d="M22 223h144v-21q0 -55 20.5 -82.5t74.5 -27.5q36 0 61 23t25 65q0 47 -27 72t-101 50q-99 33 -143 81.5t-44 134.5q0 103 58 156.5t163 53.5q102 0 161.5 -47t59.5 -145v-20h-138q0 106 -78 106q-82 0 -82 -83q0 -35 15.5 -57t58.5 -40l111 -48q78 -35 107 -77.5
t29 -111.5q0 -219 -248 -219q-119 0 -173 53t-54 155v29zM185 758l-78 144h106l46 -85l48 85h100l-78 -144h-144z" />
    <glyph glyph-name="scaron" unicode="&#x161;" horiz-adv-x="444" 
d="M23 176h124v-18q0 -36 18.5 -57t53.5 -21q70 0 70 64q0 41 -50 61l-97 35q-115 41 -115 150q0 71 49 116.5t149 45.5q184 0 184 -153v-22h-124q0 42 -14 61.5t-47 19.5q-28 0 -46.5 -15t-18.5 -43q0 -44 60 -63l83 -28q65 -22 92 -57.5t27 -96.5q0 -82 -55 -125.5
t-145 -43.5q-111 0 -154.5 43.5t-43.5 127.5v19zM151 602l-78 144h106l46 -85l48 85h100l-78 -144h-144z" />
    <glyph glyph-name="Tcommaaccent" unicode="&#x162;" 
d="M12 714h456v-118h-156v-596h-144v596h-156v118zM185 -50h112v-97q0 -32 -8 -53.5t-24 -32t-29.5 -14t-35.5 -6.5v36q18 6 26.5 16.5t9.5 32.5h-51v118z" />
    <glyph glyph-name="tcommaaccent" unicode="&#x163;" horiz-adv-x="296" 
d="M76 538v154h138v-154h80v-94h-80v-291q0 -33 10 -46t39 -13q13 0 31 2v-96q-62 -6 -90 -6q-79 0 -103.5 29t-24.5 113v308h-70v94h70zM138 -50h112v-97q0 -32 -8 -53.5t-24 -32t-29.5 -14t-35.5 -6.5v36q18 6 26.5 16.5t9.5 32.5h-51v118z" />
    <glyph glyph-name="Tcaron" unicode="&#x164;" 
d="M12 714h456v-118h-156v-596h-144v596h-156v118zM169 756l-78 144h106l46 -85l48 85h100l-78 -144h-144z" />
    <glyph glyph-name="tcaron" unicode="&#x165;" horiz-adv-x="410" 
d="M287 570l33 144h120l-63 -144h-90zM76 538v154h138v-154h80v-94h-80v-291q0 -33 10 -46t39 -13q13 0 31 2v-96q-62 -6 -90 -6q-79 0 -103.5 29t-24.5 113v308h-70v94h70z" />
    <glyph glyph-name="Tbar" unicode="&#x166;" 
d="M12 714h456v-118h-156v-130h108v-61h-108v-405h-144v405h-108v61h108v130h-156v118z" />
    <glyph glyph-name="tbar" unicode="&#x167;" horiz-adv-x="296" 
d="M76 538v154h138v-154h80v-94h-80v-98h89v-61h-89v-132q0 -33 10 -46t39 -13q13 0 31 2v-96q-62 -6 -90 -6q-79 0 -103.5 29t-24.5 113v149h-81v61h81v98h-70v94h70z" />
    <glyph glyph-name="Utilde" unicode="&#x168;" horiz-adv-x="538" 
d="M41 714h144v-498q0 -59 18 -91.5t66 -32.5t66 32.5t18 91.5v498h144v-498q0 -65 -18.5 -111.5t-52 -71.5t-72 -36t-85.5 -11q-48 0 -85.5 9.5t-71.5 33.5t-52.5 71t-18.5 116v498zM185 765h-70q17 124 93 124q28 0 43 -7l48 -21q15 -6 30 -6q13 0 20.5 12t7.5 24h72
q-5 -55 -30 -89.5t-63 -34.5q-22 0 -63 17t-56 17q-25 0 -32 -36z" />
    <glyph glyph-name="utilde" unicode="&#x169;" horiz-adv-x="500" 
d="M322 0v63h-2q-42 -77 -137 -77q-137 0 -137 153v399h138v-371q0 -41 14 -58t45 -17q73 0 73 89v357h138v-538h-132zM163 611h-70q17 124 93 124q28 0 43 -7l48 -21q15 -6 30 -6q13 0 20.5 12t7.5 24h72q-5 -55 -30 -89.5t-63 -34.5q-22 0 -63 17t-56 17q-25 0 -32 -36z
" />
    <glyph glyph-name="Umacron" unicode="&#x16a;" horiz-adv-x="538" 
d="M41 714h144v-498q0 -59 18 -91.5t66 -32.5t66 32.5t18 91.5v498h144v-498q0 -65 -18.5 -111.5t-52 -71.5t-72 -36t-85.5 -11q-48 0 -85.5 9.5t-71.5 33.5t-52.5 71t-18.5 116v498zM123 866h294v-76h-294v76z" />
    <glyph glyph-name="umacron" unicode="&#x16b;" horiz-adv-x="500" 
d="M322 0v63h-2q-42 -77 -137 -77q-137 0 -137 153v399h138v-371q0 -41 14 -58t45 -17q73 0 73 89v357h138v-538h-132zM103 712h294v-76h-294v76z" />
    <glyph glyph-name="Ubreve" unicode="&#x16c;" horiz-adv-x="538" 
d="M41 714h144v-498q0 -59 18 -91.5t66 -32.5t66 32.5t18 91.5v498h144v-498q0 -65 -18.5 -111.5t-52 -71.5t-72 -36t-85.5 -11q-48 0 -85.5 9.5t-71.5 33.5t-52.5 71t-18.5 116v498zM131 899h65q3 -29 23.5 -47t50.5 -18t50.5 18t23.5 47h65q0 -22 -7 -45t-22 -45.5
t-43.5 -36.5t-66.5 -14q-72 0 -105.5 45t-33.5 96z" />
    <glyph glyph-name="ubreve" unicode="&#x16d;" horiz-adv-x="500" 
d="M322 0v63h-2q-42 -77 -137 -77q-137 0 -137 153v399h138v-371q0 -41 14 -58t45 -17q73 0 73 89v357h138v-538h-132zM112 745h65q3 -29 24 -47t50 -18t50 18t24 47h65q0 -22 -7 -45t-22 -45.5t-43.5 -36.5t-66.5 -14q-72 0 -105.5 45t-33.5 96z" />
    <glyph glyph-name="Uring" unicode="&#x16e;" horiz-adv-x="538" 
d="M41 714h144v-498q0 -59 18 -91.5t66 -32.5t66 32.5t18 91.5v498h144v-498q0 -65 -18.5 -111.5t-52 -71.5t-72 -36t-85.5 -11q-48 0 -85.5 9.5t-71.5 33.5t-52.5 71t-18.5 116v498zM213 844q0 -24 16.5 -40.5t40.5 -16.5t40.5 16.5t16.5 40.5t-16.5 40.5t-40.5 16.5
t-40.5 -16.5t-16.5 -40.5zM157 844q0 48 33 79t80 31t80 -31t33 -79t-32.5 -78t-80.5 -30q-49 0 -81 29.5t-32 78.5z" />
    <glyph glyph-name="uring" unicode="&#x16f;" horiz-adv-x="500" 
d="M322 0v63h-2q-42 -77 -137 -77q-137 0 -137 153v399h138v-371q0 -41 14 -58t45 -17q73 0 73 89v357h138v-538h-132zM193 690q0 -24 16.5 -40.5t40.5 -16.5t40.5 16.5t16.5 40.5t-16.5 40.5t-40.5 16.5t-40.5 -16.5t-16.5 -40.5zM137 690q0 48 33 79t80 31t80 -31t33 -79
t-32.5 -78t-80.5 -30q-49 0 -81 29.5t-32 78.5z" />
    <glyph glyph-name="Uhungarumlaut" unicode="&#x170;" horiz-adv-x="538" 
d="M41 714h144v-498q0 -59 18 -91.5t66 -32.5t66 32.5t18 91.5v498h144v-498q0 -65 -18.5 -111.5t-52 -71.5t-72 -36t-85.5 -11q-48 0 -85.5 9.5t-71.5 33.5t-52.5 71t-18.5 116v498zM304 756l54 144h138l-98 -144h-94zM138 756l54 144h138l-98 -144h-94z" />
    <glyph glyph-name="uhungarumlaut" unicode="&#x171;" horiz-adv-x="500" 
d="M322 0v63h-2q-42 -77 -137 -77q-137 0 -137 153v399h138v-371q0 -41 14 -58t45 -17q73 0 73 89v357h138v-538h-132zM279 602l54 144h138l-98 -144h-94zM113 602l54 144h138l-98 -144h-94z" />
    <glyph glyph-name="Uogonek" unicode="&#x172;" horiz-adv-x="538" 
d="M338 -133l30 -49q-48 -35 -114 -35q-53 0 -74.5 23t-21.5 56q0 38 33 75q23 27 62 49q-36 2 -69 9q-143 32 -143 221v498h144v-498q0 -59 18 -91.5t66 -32.5t66 32.5t18 91.5v498h144v-498q0 -184 -143 -219l-17 -4q-22 -17 -40 -33q-50 -47 -50 -82q0 -31 28 -31
q29 0 63 20z" />
    <glyph glyph-name="uogonek" unicode="&#x173;" horiz-adv-x="500" 
d="M322 0v63h-2q-42 -77 -137 -77q-137 0 -137 153v399h138v-371q0 -41 14 -58t45 -17q73 0 73 89v357h138v-538h-64q-51 -45 -68 -76q-15 -27 -15 -52t25 -25t57 20l27 -49q-45 -35 -103 -35q-48 0 -67 23t-19 56q0 68 95 138z" />
    <glyph glyph-name="Wcircumflex" unicode="&#x174;" horiz-adv-x="760" 
d="M138 0l-130 714h138l79 -528h2l84 528h138l84 -528h2l79 528h138l-130 -714h-161l-80 518h-2l-80 -518h-161zM230 756l78 144h144l78 -144h-106l-46 85l-48 -85h-100z" />
    <glyph glyph-name="wcircumflex" unicode="&#x175;" horiz-adv-x="704" 
d="M124 0l-117 538h138l63 -382h2l67 382h150l71 -382h2l65 382h132l-116 -538h-157l-71 382h-2l-67 -382h-160zM203 602l78 144h144l78 -144h-106l-46 85l-48 -85h-100z" />
    <glyph glyph-name="Ycircumflex" unicode="&#x176;" horiz-adv-x="520" 
d="M3 714h162l94 -276h2l100 276h156l-185 -433v-281h-144v281zM113 756l78 144h144l78 -144h-106l-46 85l-48 -85h-100z" />
    <glyph glyph-name="ycircumflex" unicode="&#x177;" horiz-adv-x="444" 
d="M46 -176v103q18 -3 36 -3q68 0 74 76l-151 538h144l80 -372h2l70 372h138l-130 -502q-19 -73 -34.5 -112t-39.5 -63t-53 -30.5t-80 -6.5h-56zM80 602l78 144h144l78 -144h-106l-46 85l-48 -85h-100z" />
    <glyph glyph-name="Ydieresis" unicode="&#x178;" horiz-adv-x="520" 
d="M3 714h162l94 -276h2l100 276h156l-185 -433v-281h-144v281zM290 769v118h112v-118h-112zM118 769v118h112v-118h-112z" />
    <glyph glyph-name="Zacute" unicode="&#x179;" horiz-adv-x="481" 
d="M24 0v105l263 491h-245v118h411v-109l-267 -487h271v-118h-433zM192 756l54 144h138l-98 -144h-94z" />
    <glyph glyph-name="zacute" unicode="&#x17a;" horiz-adv-x="426" 
d="M24 0v106l215 320h-205v112h368v-106l-215 -320h215v-112h-378zM168 602l54 144h138l-98 -144h-94z" />
    <glyph glyph-name="Zdotaccent" unicode="&#x17b;" horiz-adv-x="481" 
d="M24 0v105l263 491h-245v118h411v-109l-267 -487h271v-118h-433zM191 887h112v-118h-112v118z" />
    <glyph glyph-name="zdotaccent" unicode="&#x17c;" horiz-adv-x="426" 
d="M24 0v106l215 320h-205v112h368v-106l-215 -320h215v-112h-378zM162 733h112v-118h-112v118z" />
    <glyph glyph-name="Zcaron" unicode="&#x17d;" horiz-adv-x="481" 
d="M24 0v105l263 491h-245v118h411v-109l-267 -487h271v-118h-433zM180 758l-78 144h106l46 -85l48 85h100l-78 -144h-144z" />
    <glyph glyph-name="zcaron" unicode="&#x17e;" horiz-adv-x="426" 
d="M24 0v106l215 320h-205v112h368v-106l-215 -320h215v-112h-378zM147 602l-78 144h106l46 -85l48 85h100l-78 -144h-144z" />
    <glyph glyph-name="florin" unicode="&#x192;" 
d="M64 346l16 82h105l17 89q21 108 64 152.5t134 44.5q52 0 75 -3l-19 -94q-11 3 -28 3q-46 0 -63.5 -23t-32.5 -96l-15 -73h110l-15 -82h-111l-65 -342q-17 -93 -59 -136.5t-140 -43.5q-51 0 -72 7l20 91q15 -4 35 -4q42 0 58.5 21t26.5 77l64 330h-105z" />
    <glyph glyph-name="Scommaaccent" unicode="&#x218;" horiz-adv-x="519" 
d="M22 223h144v-21q0 -55 20.5 -82.5t74.5 -27.5q36 0 61 23t25 65q0 47 -27 72t-101 50q-99 33 -143 81.5t-44 134.5q0 103 58 156.5t163 53.5q102 0 161.5 -47t59.5 -145v-20h-138q0 106 -78 106q-82 0 -82 -83q0 -35 15.5 -57t58.5 -40l111 -48q78 -35 107 -77.5
t29 -111.5q0 -219 -248 -219q-119 0 -173 53t-54 155v29zM198 -50h112v-97q0 -32 -8 -53.5t-24 -32t-29.5 -14t-35.5 -6.5v36q18 6 26.5 16.5t9.5 32.5h-51v118z" />
    <glyph glyph-name="scommaaccent" unicode="&#x219;" horiz-adv-x="444" 
d="M23 176h124v-18q0 -36 18.5 -57t53.5 -21q70 0 70 64q0 41 -50 61l-97 35q-115 41 -115 150q0 71 49 116.5t149 45.5q184 0 184 -153v-22h-124q0 42 -14 61.5t-47 19.5q-28 0 -46.5 -15t-18.5 -43q0 -44 60 -63l83 -28q65 -22 92 -57.5t27 -96.5q0 -82 -55 -125.5
t-145 -43.5q-111 0 -154.5 43.5t-43.5 127.5v19zM166 -50h112v-97q0 -32 -8 -53.5t-24 -32t-29.5 -14t-35.5 -6.5v36q18 6 26.5 16.5t9.5 32.5h-51v118z" />
    <glyph glyph-name="uni021A" unicode="&#x21a;" 
d="M12 714h456v-118h-156v-596h-144v596h-156v118zM185 -50h112v-97q0 -32 -8 -53.5t-24 -32t-29.5 -14t-35.5 -6.5v36q18 6 26.5 16.5t9.5 32.5h-51v118z" />
    <glyph glyph-name="uni021B" unicode="&#x21b;" horiz-adv-x="296" 
d="M76 538v154h138v-154h80v-94h-80v-291q0 -33 10 -46t39 -13q13 0 31 2v-96q-62 -6 -90 -6q-79 0 -103.5 29t-24.5 113v308h-70v94h70zM138 -50h112v-97q0 -32 -8 -53.5t-24 -32t-29.5 -14t-35.5 -6.5v36q18 6 26.5 16.5t9.5 32.5h-51v118z" />
    <glyph glyph-name="circumflex" unicode="&#x2c6;" horiz-adv-x="222" 
d="M-39 602l78 144h144l78 -144h-106l-46 85l-48 -85h-100z" />
    <glyph glyph-name="caron" unicode="&#x2c7;" horiz-adv-x="222" 
d="M39 602l-78 144h106l46 -85l48 85h100l-78 -144h-144z" />
    <glyph glyph-name="uni02C9" unicode="&#x2c9;" horiz-adv-x="222" 
d="M-36 712h294v-76h-294v76z" />
    <glyph glyph-name="breve" unicode="&#x2d8;" horiz-adv-x="222" 
d="M-28 745h65q3 -29 24 -47t50 -18t50 18t24 47h65q0 -22 -7 -45t-22 -45.5t-43.5 -36.5t-66.5 -14q-72 0 -105.5 45t-33.5 96z" />
    <glyph glyph-name="dotaccent" unicode="&#x2d9;" horiz-adv-x="222" 
d="M55 733h112v-118h-112v118z" />
    <glyph glyph-name="ring" unicode="&#x2da;" horiz-adv-x="222" 
d="M54 690q0 -24 16.5 -40.5t40.5 -16.5t40.5 16.5t16.5 40.5t-16.5 40.5t-40.5 16.5t-40.5 -16.5t-16.5 -40.5zM-2 690q0 48 33 79t80 31t80 -31t33 -79t-32.5 -78t-80.5 -30q-49 0 -81 29.5t-32 78.5z" />
    <glyph glyph-name="ogonek" unicode="&#x2db;" horiz-adv-x="222" 
d="M204 -133l30 -49q-48 -35 -114 -35q-53 0 -74.5 23t-21.5 56q0 37 33 74.5t90 63.5h67q-59 -42 -80 -69.5t-21 -52.5q0 -31 28 -31q29 0 63 20z" />
    <glyph glyph-name="tilde" unicode="&#x2dc;" horiz-adv-x="222" 
d="M24 611h-70q17 124 93 124q28 0 43 -7l48 -21q15 -6 30 -6q13 0 20.5 12t7.5 24h72q-5 -55 -30 -89.5t-63 -34.5q-22 0 -63 17t-56 17q-24 0 -32 -36z" />
    <glyph glyph-name="hungarumlaut" unicode="&#x2dd;" horiz-adv-x="222" 
d="M129 602l54 144h138l-98 -144h-94zM-37 602l54 144h138l-98 -144h-94z" />
    <glyph glyph-name="uni0394" unicode="&#x394;" horiz-adv-x="689" 
d="M681 0h-672l267 712h122zM516 109l-180 467l-168 -467h348z" />
    <glyph glyph-name="uni03A9" unicode="&#x3a9;" horiz-adv-x="761" 
d="M703 0h-278v192q75 18 114 72t39 133q0 90 -56.5 152t-145.5 62q-90 0 -147 -62.5t-57 -152.5q0 -78 38.5 -131.5t113.5 -72.5v-192h-277v102h180v39q-87 25 -134 97.5t-47 166.5q0 138 95 227t234 89q140 0 234 -87t94 -226q0 -95 -47 -169.5t-135 -97.5v-39h182v-102z
" />
    <glyph glyph-name="uni03BC" unicode="&#x3bc;" horiz-adv-x="500" 
d="M316 181v357h138v-538h-132v63h-2q-21 -38 -50 -57.5t-56 -19.5q-16 0 -30 8v-170h-138v714h138v-371q0 -41 14 -58t45 -17q73 0 73 89z" />
    <glyph glyph-name="pi" unicode="&#x3c0;" horiz-adv-x="597" 
d="M574 14q-47 -22 -88 -22q-62 0 -84.5 34t-22.5 99v254h-196v-379h-112v379h-70v106h570v-106h-79v-228v-18.5t2 -16t5.5 -15.5t11.5 -9.5t19 -4.5q18 0 44 11v-84z" />
    <glyph glyph-name="endash" unicode="&#x2013;" horiz-adv-x="500" 
d="M0 233v112h500v-112h-500z" />
    <glyph glyph-name="emdash" unicode="&#x2014;" horiz-adv-x="1000" 
d="M0 233v112h1000v-112h-1000z" />
    <glyph glyph-name="quoteleft" unicode="&#x2018;" horiz-adv-x="260" 
d="M64 393v130q0 88 28.5 135.5t103.5 55.5v-70q-25 -5 -38.5 -27.5t-13.5 -51.5v-16h52v-156h-132z" />
    <glyph glyph-name="quoteright" unicode="&#x2019;" horiz-adv-x="260" 
d="M196 714v-130q0 -88 -28.5 -135.5t-103.5 -55.5v70q25 5 38.5 27.5t13.5 51.5v16h-52v156h132z" />
    <glyph glyph-name="quotesinglbase" unicode="&#x201a;" horiz-adv-x="260" 
d="M64 156h132v-130q0 -88 -28.5 -135.5t-103.5 -55.5v70q25 5 38.5 27.5t13.5 51.5v16h-52v156z" />
    <glyph glyph-name="quotedblleft" unicode="&#x201c;" horiz-adv-x="463" 
d="M68 393v130q0 88 28.5 135.5t103.5 55.5v-70q-25 -5 -38.5 -27.5t-13.5 -51.5v-16h52v-156h-132zM263 393v130q0 88 28.5 135.5t103.5 55.5v-70q-25 -5 -38.5 -27.5t-13.5 -51.5v-16h52v-156h-132z" />
    <glyph glyph-name="quotedblright" unicode="&#x201d;" horiz-adv-x="463" 
d="M263 558v156h132v-130q0 -88 -28.5 -135.5t-103.5 -55.5v70q25 5 38.5 27.5t13.5 51.5v16h-52zM68 558v156h132v-130q0 -88 -28.5 -135.5t-103.5 -55.5v70q25 5 38.5 27.5t13.5 51.5v16h-52z" />
    <glyph glyph-name="quotedblbase" unicode="&#x201e;" horiz-adv-x="463" 
d="M68 0v156h132v-130q0 -88 -28.5 -135.5t-103.5 -55.5v70q25 5 38.5 27.5t13.5 51.5v16h-52zM263 0v156h132v-130q0 -88 -28.5 -135.5t-103.5 -55.5v70q25 5 38.5 27.5t13.5 51.5v16h-52z" />
    <glyph glyph-name="dagger" unicode="&#x2020;" 
d="M171 516v198h138v-198h168v-112h-168v-542h-138v542h-168v112h168z" />
    <glyph glyph-name="daggerdbl" unicode="&#x2021;" 
d="M171 -138v190h-168v112h168v248h-168v112h168v190h138v-190h168v-112h-168v-248h168v-112h-168v-190h-138z" />
    <glyph glyph-name="bullet" unicode="&#x2022;" horiz-adv-x="500" 
d="M72 357q0 74 52 126t126 52t126 -52t52 -126t-52 -126t-126 -52t-126 52t-52 126z" />
    <glyph glyph-name="ellipsis" unicode="&#x2026;" horiz-adv-x="1000" 
d="M767 156h132v-156h-132v156zM434 156h132v-156h-132v156zM101 156h132v-156h-132v156z" />
    <glyph glyph-name="perthousand" unicode="&#x2030;" horiz-adv-x="1093" 
d="M128 -31l406 756h89l-406 -756h-89zM534 181q0 -66 8 -92.5t36 -26.5t36 26.5t8 92.5q0 61 -8 86t-36 25t-36 -25t-8 -86zM428 177q0 103 30.5 147t119.5 44t119.5 -44t30.5 -147t-30.5 -147t-119.5 -44t-119.5 44t-30.5 147zM133 521q0 -66 8 -92.5t36 -26.5t36 26.5
t8 92.5q0 61 -8 86t-36 25t-36 -25t-8 -86zM27 517q0 103 30.5 147t119.5 44t119.5 -44t30.5 -147t-30.5 -147t-119.5 -44t-119.5 44t-30.5 147zM766 177q0 103 30.5 147t119.5 44t119.5 -44t30.5 -147t-30.5 -147t-119.5 -44t-119.5 44t-30.5 147zM872 181q0 -66 8 -92.5
t36 -26.5t36 26.5t8 92.5q0 61 -8 86t-36 25t-36 -25t-8 -86z" />
    <glyph glyph-name="guilsinglleft" unicode="&#x2039;" horiz-adv-x="241" 
d="M46 208v162l149 120v-132l-79 -69l79 -69v-132z" />
    <glyph glyph-name="guilsinglright" unicode="&#x203a;" horiz-adv-x="241" 
d="M46 88v132l79 69l-79 69v132l149 -120v-162z" />
    <glyph glyph-name="fraction" unicode="&#x2044;" horiz-adv-x="167" 
d="M-164 -31l406 756h89l-406 -756h-89z" />
    <glyph glyph-name="Euro" unicode="&#x20ac;" 
d="M479 661l-46 -100q-48 51 -99 51q-57 0 -78 -49q-12 -27 -17 -98h168l-29 -78h-142v-51h132l-29 -78h-101q3 -80 13 -108q19 -61 76 -61q53 0 129 67v-125q-77 -45 -151 -45q-202 0 -210 272h-69l29 78h38l1 51h-68l30 78h41q21 246 228 246q89 0 154 -50z" />
    <glyph glyph-name="afii61289" unicode="&#x2113;" horiz-adv-x="500" 
d="M449 51q-75 -65 -165 -65q-74 0 -116 39.5t-42 104.5v53l-56 -51h-2l-45 70l102 85v241q0 84 48.5 138.5t123.5 54.5q65 0 105 -40.5t40 -106.5q0 -75 -46.5 -149t-142.5 -158v-117q0 -37 18.5 -53.5t44.5 -16.5q41 0 88 37h2zM337 567q0 30 -11 49.5t-29 19.5
q-19 0 -31.5 -23t-12.5 -61v-177q84 91 84 192z" />
    <glyph glyph-name="trademark" unicode="&#x2122;" horiz-adv-x="990" 
d="M143 300v320h-112v94h336v-94h-112v-320h-112zM842 300v284h-2l-95 -284h-100l-95 284h-2v-284h-106v414h169l83 -250h2l83 250h169v-414h-106z" />
    <glyph glyph-name="Omega" unicode="&#x2126;" horiz-adv-x="761" 
d="M703 0h-278v192q75 18 114 72t39 133q0 90 -56.5 152t-145.5 62q-90 0 -147 -62.5t-57 -152.5q0 -78 38.5 -131.5t113.5 -72.5v-192h-277v102h180v39q-87 25 -134 97.5t-47 166.5q0 138 95 227t234 89q140 0 234 -87t94 -226q0 -95 -47 -169.5t-135 -97.5v-39h182v-102z
" />
    <glyph glyph-name="estimated" unicode="&#x212e;" horiz-adv-x="600" 
d="M561 259h-404v-181q59 -59 145 -59q122 0 193 120l35 -21q-46 -72 -98 -103.5t-130 -31.5q-115 0 -186.5 79t-71.5 197q0 119 71 197.5t187 78.5q115 0 186.5 -77t72.5 -199zM157 295h291v145q-63 60 -147 60t-144 -60v-145z" />
    <glyph glyph-name="partialdiff" unicode="&#x2202;" horiz-adv-x="560" 
d="M518 359q0 -56 -6 -105t-23.5 -99.5t-45.5 -86.5t-74 -58.5t-107 -22.5q-99 0 -160.5 64.5t-61.5 164.5q0 96 60.5 159t156.5 63q76 0 141 -53l1 26q1 52 -11.5 99t-48.5 84t-89 37q-59 0 -121 -50l-62 72q45 35 85.5 51.5t92.5 16.5q74 0 129.5 -31.5t85.5 -85
t44 -114.5t14 -131zM397 265l-1 24q-54 62 -122 62q-58 0 -89 -40.5t-31 -100.5q0 -57 28.5 -96t83.5 -39q64 0 98.5 60.5t32.5 129.5z" />
    <glyph glyph-name="Delta" unicode="&#x2206;" horiz-adv-x="689" 
d="M681 0h-672l267 712h122zM516 109l-180 467l-168 -467h348z" />
    <glyph glyph-name="product" unicode="&#x220f;" horiz-adv-x="743" 
d="M683 -214h-119v891h-385v-891h-119v1000h623v-1000z" />
    <glyph glyph-name="summation" unicode="&#x2211;" horiz-adv-x="654" 
d="M629 -214h-604v95l301 411l-288 400v94h579v-109h-421l272 -384l-290 -398h451v-109z" />
    <glyph glyph-name="minus" unicode="&#x2212;" horiz-adv-x="600" 
d="M47 191v124h506v-124h-506z" />
    <glyph glyph-name="uni2215" unicode="&#x2215;" horiz-adv-x="167" 
d="M-164 -31l406 756h89l-406 -756h-89z" />
    <glyph glyph-name="uni2219" unicode="&#x2219;" horiz-adv-x="240" 
d="M23 282q0 41 28 69t69 28t69 -28t28 -69t-28 -69t-69 -28t-69 28t-28 69z" />
    <glyph glyph-name="radical" unicode="&#x221a;" horiz-adv-x="545" 
d="M557 786l-213 -1000h-110l-151 313l-51 -24l-44 93l155 71l126 -269l166 816h122z" />
    <glyph glyph-name="infinity" unicode="&#x221e;" horiz-adv-x="823" 
d="M778 265q0 -80 -47 -133.5t-126 -53.5q-56 0 -101 29.5t-92 83.5q-29 -31 -43 -44t-39.5 -32.5t-51.5 -27.5t-58 -8q-79 0 -127 52t-48 132q0 79 46.5 131t124.5 52q60 0 104.5 -31t91.5 -88q47 57 91.5 88.5t102.5 31.5q79 0 125.5 -51.5t46.5 -130.5zM684 262
q0 36 -22 60.5t-58 24.5q-55 0 -132 -87q73 -81 135 -81q36 0 56.5 23.5t20.5 59.5zM352 260q-79 86 -136 86q-34 0 -55 -25t-21 -60q0 -36 21.5 -58.5t57.5 -22.5q64 0 133 80z" />
    <glyph glyph-name="integral" unicode="&#x222b;" horiz-adv-x="614" 
d="M493 708q0 -23 -15.5 -39t-38.5 -16q-28 0 -40.5 19t-18 38t-16.5 19q-18 0 -18 -28q0 -24 2 -72.5t2 -72.5l1 -470v-35.5v-40t-1 -39t-4 -41t-8 -37t-12.5 -35.5t-19 -28t-26 -24t-35 -14t-44.5 -6q-41 0 -77 20.5t-36 58.5q0 23 15.5 38t38.5 15q22 0 34.5 -12t16 -26
t9 -26t14.5 -12q18 0 18 33q0 18 -2 55.5t-2 56.5l-1 529v26.5v30t1 29t2.5 31.5t4.5 28.5t7.5 29t11.5 24.5t16 23q43 47 110 47q41 0 76 -19.5t35 -57.5z" />
    <glyph glyph-name="approxequal" unicode="&#x2248;" horiz-adv-x="593" 
d="M567 457q-8 -78 -45 -127t-111 -49q-39 0 -128.5 33t-118.5 33q-26 0 -42 -19.5t-20 -46.5h-75q6 75 43 125t108 50q41 0 128.5 -31.5t124.5 -31.5q51 0 62 64h74zM565 244q-8 -77 -43.5 -126.5t-107.5 -49.5q-41 0 -133.5 33.5t-118.5 33.5q-25 0 -41.5 -20t-20.5 -47
h-75q6 74 43.5 125.5t107.5 51.5q42 0 127 -32t127 -32q50 0 61 63h74z" />
    <glyph glyph-name="notequal" unicode="&#x2260;" horiz-adv-x="593" 
d="M559 94h-286l-78 -155l-98 50l52 105h-115v113h173l56 112h-229v113h286l78 153l99 -49l-53 -104h115v-113h-172l-56 -112h228v-113z" />
    <glyph glyph-name="lessequal" unicode="&#x2264;" horiz-adv-x="593" 
d="M559 106l-525 170v113l525 174v-118l-370 -112l370 -109v-118zM559 -38h-525v113h525v-113z" />
    <glyph glyph-name="greaterequal" unicode="&#x2265;" horiz-adv-x="593" 
d="M559 276l-525 -170v118l370 109l-370 112v118l525 -174v-113zM559 -38h-525v113h525v-113z" />
    <glyph glyph-name="lozenge" unicode="&#x25ca;" horiz-adv-x="593" 
d="M528 356l-180 -391h-105l-178 391l179 391h104zM413 356l-117 279l-116 -279l116 -280z" />
    <glyph glyph-name="commaaccent" unicode="&#xf004;" horiz-adv-x="240" 
d="M66 -50h112v-97q0 -32 -8 -53.5t-24 -32t-29.5 -14t-35.5 -6.5v36q18 6 26.5 16.5t9.5 32.5h-51v118z" />
    <glyph glyph-name="commaaccent" unicode="&#xf6c3;" horiz-adv-x="240" 
d="M66 -50h112v-97q0 -32 -8 -53.5t-24 -32t-29.5 -14t-35.5 -6.5v36q18 6 26.5 16.5t9.5 32.5h-51v118z" />
    <glyph glyph-name="dotlessj" unicode="&#xf6be;" horiz-adv-x="240" 
d="M51 10v528h138v-575q0 -72 -34.5 -105.5t-123.5 -33.5q-16 0 -56 2v100q6 -2 11 -2h11q35 0 44.5 18.5t9.5 67.5z" />
    <glyph glyph-name="dotlessj" unicode="&#xfb0f;" horiz-adv-x="240" 
d="M51 10v528h138v-575q0 -72 -34.5 -105.5t-123.5 -33.5q-16 0 -56 2v100q6 -2 11 -2h11q35 0 44.5 18.5t9.5 67.5z" />
    <glyph glyph-name="uniF8FF" unicode="&#xf8ff;" horiz-adv-x="512" 
d="M222 117h56v67h-56v-67zM225 234h46q0 52 6 72q6 19 43 52q37 34 50 60t13 60q0 59 -35 95t-89 36q-56 0 -92 -34t-43 -103l50 -8q11 95 82 95q31 0 53.5 -24.5t22.5 -60.5q0 -20 -9.5 -37t-40.5 -46q-31 -31 -46 -59q-13 -25 -13 -81zM462 50h-412v617h412v-617z
M512 718h-512v-718h512v718z" />
    <glyph glyph-name="commaaccent.alt" horiz-adv-x="240" 
d="M175 596h-112v97q0 32 8 53.5t24 32t29.5 14t35.5 6.5v-36q-18 -6 -26.5 -16.5t-9.5 -32.5h51v-118z" />
    <glyph glyph-name="caron.alt" horiz-adv-x="222" 
d="M46 570l33 144h120l-63 -144h-90z" />
    <glyph glyph-name="grave.cap" horiz-adv-x="222" 
d="M176 756h-94l-98 144h138z" />
    <glyph glyph-name="acute.cap" horiz-adv-x="222" 
d="M46 756l54 144h138l-98 -144h-94z" />
    <glyph glyph-name="circumflex.cap" horiz-adv-x="222" 
d="M-39 756l78 144h144l78 -144h-106l-46 85l-48 -85h-100z" />
    <glyph glyph-name="caron.cap" horiz-adv-x="222" 
d="M39 756l-78 144h106l46 -85l48 85h100l-78 -144h-144z" />
    <glyph glyph-name="tilde.cap" horiz-adv-x="222" 
d="M24 765h-70q17 124 93 124q28 0 43 -7l48 -21q15 -6 30 -6q13 0 20.5 12t7.5 24h72q-5 -55 -30 -89.5t-63 -34.5q-22 0 -63 17t-56 17q-24 0 -32 -36z" />
    <glyph glyph-name="dieresis.cap" horiz-adv-x="222" 
d="M141 771v118h112v-118h-112zM-31 771v118h112v-118h-112z" />
    <glyph glyph-name="macron.cap" horiz-adv-x="222" 
d="M-36 866h294v-76h-294v76z" />
    <glyph glyph-name="breve.cap" horiz-adv-x="222" 
d="M-28 899h65q3 -29 24 -47t50 -18t50 18t24 47h65q0 -22 -7 -45t-22 -45.5t-43.5 -36.5t-66.5 -14q-72 0 -105.5 45t-33.5 96z" />
    <glyph glyph-name="ring.cap" horiz-adv-x="222" 
d="M54 844q0 -24 16.5 -40.5t40.5 -16.5t40.5 16.5t16.5 40.5t-16.5 40.5t-40.5 16.5t-40.5 -16.5t-16.5 -40.5zM-2 844q0 48 33 79t80 31t80 -31t33 -79t-32.5 -78t-80.5 -30q-49 0 -81 29.5t-32 78.5z" />
    <glyph glyph-name="hungarumlaut.cap" horiz-adv-x="222" 
d="M129 756l54 144h138l-98 -144h-94zM-37 756l54 144h138l-98 -144h-94z" />
    <glyph glyph-name="dotaccent.cap" horiz-adv-x="222" 
d="M55 829h112v-118h-112v118z" />
    </font>
</defs>
</svg>
