<?xml version="1.0" standalone="no"?>
<!DOCTYPE svg PUBLIC "-//W3C//DTD SVG 1.1//EN" "http://www.w3.org/Graphics/SVG/1.1/DTD/svg11.dtd" >
<svg xmlns="http://www.w3.org/2000/svg" xmlns:xlink="http://www.w3.org/1999/xlink" version="1.1">
<metadata>
Created by FontForge 20190801 at Mon Jan 11 02:06:58 2016
 By Jimmy Wärting
Coves &#38; Coves  Light (c) Jack Harvatt 2016. All Rights Reserved
</metadata>
<defs>
<font id="Coves-Light" horiz-adv-x="1329" >
  <font-face 
    font-family="Coves"
    font-weight="300"
    font-stretch="normal"
    units-per-em="2048"
    panose-1="2 0 5 0 0 0 0 0 0 0"
    ascent="1638"
    descent="-410"
    x-height="868"
    cap-height="1433"
    bbox="-150 -562 2019 1909"
    underline-thickness="150"
    underline-position="-292"
    unicode-range="U+001D-F002"
  />
<missing-glyph horiz-adv-x="1225" 
d="M839 910v-6l-1 -8v-9q-2 -15 -7 -32q-8 -32 -26 -59q-17 -26 -41 -47q-19 -18 -46 -35q-24 -16 -57 -32l1 -148q0 -9 -9 -9h-100q-9 0 -9 9l1 183v31q0 6 5 9l27 12q55 27 79 42q37 23 53 48q9 12 13 27q2 8 3 15v3l1 3v6v4q0 20 -4 35q-4 17 -11 28q-7 13 -18 22t-27 14
q-14 6 -33 9h-5l-5 1h-9l-10 1l-5 -1h-4q-37 -1 -72 -18q-15 -7 -32 -19l-15 -12l-5 -5q-6 -6 -13 -1l-69 57q-7 7 -1 14q4 3 5 5l11 10q10 9 23 19q23 18 49 30q53 26 113 30h14h14h15l7 -1l7 -1q33 -4 59 -14q32 -11 57 -31q27 -21 45 -50q17 -28 25 -60q7 -28 7 -61v-8z
M561 324q-26 20 -26 53q0 28 20 48q20 19 48 19q32 0 53 -25q20 -25 13 -58q-9 -40 -49 -50q-33 -8 -59 13zM100 224q0 -14 14 -14h997q14 0 14 14v998q0 13 -14 13h-997q-14 0 -14 -13v-998z" />
    <glyph glyph-name=".notdef" horiz-adv-x="1225" 
d="M839 910v-6l-1 -8v-9q-2 -15 -7 -32q-8 -32 -26 -59q-17 -26 -41 -47q-19 -18 -46 -35q-24 -16 -57 -32l1 -148q0 -9 -9 -9h-100q-9 0 -9 9l1 183v31q0 6 5 9l27 12q55 27 79 42q37 23 53 48q9 12 13 27q2 8 3 15v3l1 3v6v4q0 20 -4 35q-4 17 -11 28q-7 13 -18 22t-27 14
q-14 6 -33 9h-5l-5 1h-9l-10 1l-5 -1h-4q-37 -1 -72 -18q-15 -7 -32 -19l-15 -12l-5 -5q-6 -6 -13 -1l-69 57q-7 7 -1 14q4 3 5 5l11 10q10 9 23 19q23 18 49 30q53 26 113 30h14h14h15l7 -1l7 -1q33 -4 59 -14q32 -11 57 -31q27 -21 45 -50q17 -28 25 -60q7 -28 7 -61v-8z
M561 324q-26 20 -26 53q0 28 20 48q20 19 48 19q32 0 53 -25q20 -25 13 -58q-9 -40 -49 -50q-33 -8 -59 13zM100 224q0 -14 14 -14h997q14 0 14 14v998q0 13 -14 13h-997q-14 0 -14 -13v-998z" />
    <glyph glyph-name=".null" horiz-adv-x="0" 
 />
    <glyph glyph-name=".null" horiz-adv-x="0" 
 />
    <glyph glyph-name="nonmarkingreturn" horiz-adv-x="508" 
 />
    <glyph glyph-name="space" unicode=" " horiz-adv-x="508" 
 />
    <glyph glyph-name="space" unicode="&#xa0;" horiz-adv-x="508" 
 />
    <glyph glyph-name="exclam" unicode="!" horiz-adv-x="491" 
d="M209 301q-14 0 -14 14v962q0 13 14 13h66q14 0 14 -13v-962q0 -14 -14 -14h-66zM290 20q-20 -20 -48 -20t-48 20t-20 48q0 29 20 49t48 20t48 -20t20 -49q0 -28 -20 -48z" />
    <glyph glyph-name="quotedbl" unicode="&#x22;" horiz-adv-x="376" 
d="M224 1272q-13 0 -13 14v232q0 13 13 13h22q13 0 13 -13v-232q0 -14 -13 -14h-22zM122 1272q-14 0 -14 14v232q0 13 14 13h21q14 0 14 -13v-232q0 -14 -14 -14h-21z" />
    <glyph glyph-name="numbersign" unicode="#" horiz-adv-x="1133" 
d="M731 553h-353l28 353h353zM1058 986q1 15 -14 15h-183l27 337q1 15 -14 15h-67q-13 0 -14 -13l-26 -339h-354l27 337q1 15 -14 15h-67q-13 0 -14 -13l-26 -339h-193q-13 0 -14 -13l-5 -67q-1 -15 14 -15h190l-28 -353h-192q-13 0 -14 -13l-5 -67q-1 -15 14 -15h190
l-29 -362q-1 -15 14 -15h67q12 0 13 13l29 364h354l-29 -362q-1 -15 14 -15h67q12 0 13 13l29 364h186q12 0 13 13l6 67q1 15 -14 15h-183l27 353h186q13 0 14 13z" />
    <glyph glyph-name="dollar" unicode="$" horiz-adv-x="771" 
d="M559 496v-5l-1 -6v-10l-2 -8l-1 -7q-13 -67 -74 -98q-26 -13 -61 -21l-31 -4v343q99 -45 137 -90q23 -28 30 -61l1 -8q1 -5 1 -9l1 -8v-5v0v-3zM203 886q-3 2 -6 6l-5 7l-4 7l-4 7l-3 7q-2 4 -3 7l-2 8q-1 4 -2 6l-1 7l-1 11v5v3v8q0 6 2 17l1 8l2 8q8 31 29 52
q19 19 49 31q17 7 40 12v-281q-18 9 -32 17q-38 22 -60 47zM650 500v7l-1 13q0 6 -1 14l-3 14q-11 56 -50 100q-31 37 -81 68q-35 22 -87 46l-38 17v328q20 -2 38 -5q41 -9 80 -30q13 -6 28 -17q11 -7 22 -16q9 -8 18 1l42 40q10 11 -1 21q-6 5 -9 8q-12 9 -25 18
q-16 11 -34 21q-50 26 -103 38q-30 6 -56 8v74q0 13 -13 13h-67q-14 0 -14 -13v-77q-41 -6 -72 -18q-48 -19 -80 -52q-37 -36 -51 -90l-3 -13l-2 -13q-3 -15 -3 -25v-13v-4v-1v-3v-5l1 -11l2 -15q2 -12 7 -29q2 -5 5 -13l6 -13q5 -10 14 -24l9 -11q5 -7 9 -11q31 -35 81 -65
q31 -18 77 -39v-385q-23 2 -51 10q-42 12 -80 34q-16 9 -29 19q-11 7 -19 14q-10 8 -19 0l-48 -46q-11 -10 0 -20q12 -11 26 -21q20 -15 43 -28q48 -27 100 -42q36 -9 67 -13l10 -1v-80q0 -14 14 -14h67q13 0 13 14v80q24 2 49 7q49 10 85 29q47 25 78 65q33 42 44 96l2 14
l2 14q0 5 1 12v5v6v3v5z" />
    <glyph glyph-name="percent" unicode="%" horiz-adv-x="979" 
d="M382 0q12 0 14 12l185 1404q2 16 -14 16h-66q-13 0 -14 -12l-185 -1404q-2 -16 14 -16h66zM561 548q-1 -14 14 -15q86 -6 146 -69t60 -150q0 -91 -64 -155q-65 -65 -156 -65q-23 0 -45 5q-14 3 -16 -12l-9 -66q-1 -13 11 -15q46 -9 91 -4q108 11 186 86q79 76 93 183
q19 137 -68 242q-86 104 -220 114q-13 1 -14 -12zM366 1333q15 -3 16 12l9 66q2 13 -11 15q-62 12 -123 -1q-106 -22 -177 -107t-73 -193q-3 -126 83 -219q84 -92 209 -101q12 -1 14 12l9 66q2 15 -12 16q-99 6 -161 84q-64 80 -43 181q15 68 67 116q53 48 123 56
q36 4 70 -3z" />
    <glyph glyph-name="ampersand" unicode="&#x26;" horiz-adv-x="1145" 
d="M375 1266q-70 -69 -70 -167q0 -69 37 -126l1 -1l1 -2l2 -3l3 -5q9 -14 20 -29q34 -51 74 -108l35 8l20 5l22 5q23 6 43 12q49 15 94 38q55 29 88 85q32 55 32 121q0 98 -69 167t-167 69q-97 0 -166 -69zM319 669q-63 -49 -97 -116q-35 -67 -35 -142q0 -131 93 -224
t224 -93q79 0 149 37q67 36 111 99q-182 234 -359 486q-47 -18 -86 -47zM230 105q-100 90 -128 220q-25 119 18 232q43 111 142 186q41 31 88 52q-34 49 -64 92q-9 14 -17 25q-2 4 -4 7l-1 2l-1 1q-67 106 -47 231q18 110 102 188q83 77 195 87q146 12 252 -87
q106 -98 106 -242q0 -92 -46 -170t-125 -119q-50 -26 -106 -44q-22 -7 -48 -13q-16 -5 -44 -11q151 -214 307 -417q12 42 12 86q0 54 -16 112q-6 21 -14 41q-5 15 -12 28q-5 12 6 18l58 33q13 7 19 -6q8 -16 15 -34q10 -25 18 -51q20 -72 20 -141q0 -91 -38 -173
q38 -48 78 -97q18 -24 39 -25q11 -1 23 3q10 3 19 9q10 6 17 -3l45 -50q10 -11 -2 -20q-9 -6 -19 -12q-12 -7 -25 -11q-34 -13 -66 -10q-26 2 -49 14q-31 15 -56 46q-29 36 -57 71q-64 -79 -157 -119q-97 -42 -204 -32q-132 13 -233 103z" />
    <glyph glyph-name="quotesingle" unicode="'" horiz-adv-x="209" 
d="M130 1272q-14 0 -14 14v232q0 13 14 13h21q14 0 14 -13v-232q0 -14 -14 -14h-21z" />
    <glyph glyph-name="parenleft" unicode="(" horiz-adv-x="472" 
d="M281 57q-13 -5 -18 8q-105 275 -105 651t105 651q5 13 18 8l62 -24q13 -5 8 -18q-99 -259 -99 -617t99 -617q5 -13 -8 -18z" />
    <glyph glyph-name="parenright" unicode=")" horiz-adv-x="489" 
d="M144 81q-12 5 -8 18q99 259 99 617t-99 617q-4 13 8 18l62 24q13 5 18 -8q105 -275 105 -651t-105 -651q-5 -13 -18 -8z" />
    <glyph glyph-name="asterisk" unicode="*" horiz-adv-x="235" 
d="M122 1136q-13 0 -13 14v265q0 14 13 14h21q14 0 14 -14v-265q0 -14 -14 -14h-21zM9 1342q-11 8 -3 19l12 17q8 11 19 3l220 -158q11 -8 3 -19l-12 -17q-8 -11 -20 -3zM6 1204q-8 11 3 19l219 158q12 8 20 -3l12 -17q8 -11 -3 -19l-220 -158q-11 -8 -19 3z" />
    <glyph glyph-name="plus" unicode="+" horiz-adv-x="656" 
d="M358 795v219q0 13 -14 13h-66q-14 0 -14 -13v-219h-219q-14 0 -14 -14v-67q0 -13 14 -13h219v-219q0 -14 14 -14h66q14 0 14 14v219h219q14 0 14 13v67q0 14 -14 14h-219z" />
    <glyph glyph-name="comma" unicode="," horiz-adv-x="246" 
d="M161 2q-28 0 -47 20q-20 19 -20 47v95q0 8 8 8h68q8 0 8 -8v-154q0 -8 -8 -8h-9z" />
    <glyph glyph-name="hyphen" unicode="-" horiz-adv-x="520" 
d="M85 667q-14 0 -14 14v67q0 13 14 13h368q14 0 14 -13v-67q0 -14 -14 -14h-368z" />
    <glyph glyph-name="hyphen" unicode="&#xad;" horiz-adv-x="520" 
d="M85 667q-14 0 -14 14v67q0 13 14 13h368q14 0 14 -13v-67q0 -14 -14 -14h-368z" />
    <glyph glyph-name="period" unicode="." horiz-adv-x="300" 
d="M188 22q-20 -20 -48 -20t-48 20t-20 48q0 29 20 48q20 20 48 20t48 -20q20 -19 20 -48q0 -28 -20 -48z" />
    <glyph glyph-name="slash" unicode="/" horiz-adv-x="513" 
d="M201 0q12 0 14 12l185 1404q2 16 -14 16h-66q-12 0 -14 -12l-185 -1404q-2 -16 14 -16h66z" />
    <glyph glyph-name="zero" unicode="0" horiz-adv-x="1682" 
d="M624 1290q-112 -47 -198 -133t-133 -198q-49 -116 -49 -242t49 -242q47 -112 133 -198t198 -133q116 -49 242 -49t242 49q112 47 198 133t133 198q49 116 49 242t-49 242q-47 112 -133 198t-198 133q-116 49 -242 49t-242 -49zM587 56q-128 55 -228 154q-99 100 -154 228
q-56 133 -56 279t56 279q55 128 154 228q100 99 228 153q133 57 279 57t279 -57q128 -54 228 -153q99 -100 153 -228q57 -133 57 -279t-57 -279q-54 -128 -153 -228q-100 -99 -228 -154q-133 -56 -279 -56t-279 56z" />
    <glyph glyph-name="one" unicode="1" horiz-adv-x="505" 
d="M94 1261q-10 -10 0 -20l47 -47q10 -10 19 0l106 106v-1286q0 -14 14 -14h66q14 0 14 14v1405q0 14 -14 14h-74q-6 0 -10 -4z" />
    <glyph glyph-name="two" unicode="2" horiz-adv-x="921" 
d="M86 0q-8 0 -12 7q-4 8 0 14l615 917q36 62 36 135q0 109 -77 187q-78 78 -188 78q-84 0 -153 -49t-97 -128q-4 -12 -17 -9l-63 19q-14 5 -10 18q37 108 131 175q95 68 209 68q149 0 254 -106q105 -105 105 -253q0 -100 -51 -184l-1 -3l-531 -792h620q13 0 13 -14v-66
q0 -14 -13 -14h-770z" />
    <glyph glyph-name="three" unicode="3" horiz-adv-x="890" 
d="M671 902q47 82 47 176q0 147 -104 250q-103 104 -249 104q-148 0 -251 -105q-10 -10 0 -20l49 -44q10 -9 20 0q75 75 182 75q110 0 187 -81q77 -80 71 -192q-5 -103 -83 -175q-78 -71 -183 -71h-47q-14 0 -14 -14v-66q0 -14 14 -14h47q129 0 223 -88q95 -88 100 -215
q5 -135 -89 -231q-93 -97 -226 -97q-148 0 -243 114q-8 10 -19 2l-53 -41q-11 -8 -2 -19q62 -76 149 -115q88 -39 186 -35q160 8 273 123q114 116 118 276q3 121 -60 224q-62 100 -167 153q78 47 124 126z" />
    <glyph glyph-name="four" unicode="4" horiz-adv-x="981" 
d="M251 575l439 595v-595h-439zM785 575v843q0 11 -9 14q-10 3 -16 -5l-70 -96l-558 -756l-54 -73q-5 -7 -1 -15t12 -8h601v-465q0 -14 14 -14h67q14 0 14 14v465h165q14 0 14 14v68q0 14 -14 14h-165z" />
    <glyph glyph-name="five" unicode="5" horiz-adv-x="992" 
d="M298 33q-116 48 -189 150q-8 12 4 20l55 36q11 7 19 -3q53 -75 136 -112q84 -38 176 -28q127 13 215 108t91 223q3 143 -98 246q-100 103 -243 103h-267q-13 0 -13 14v629q0 13 13 13h622q13 0 13 -13v-67q0 -13 -13 -13h-542v-470h187q189 0 318 -139q130 -140 115 -331
q-12 -146 -112 -256q-100 -111 -244 -136q-126 -22 -243 26z" />
    <glyph glyph-name="six" unicode="6" horiz-adv-x="1018" 
d="M323 186q-92 92 -92 222q0 80 38 150l1 1l2 4l18 28q44 61 111 96q68 35 144 35q130 0 222 -92t92 -222v-2q0 -129 -92 -221q-93 -91 -222 -91q-130 0 -222 92zM834 697q-120 119 -289 119q-62 0 -123 -19l393 614q5 7 1 14t-12 7h-79q-8 0 -12 -6l-496 -774
q-16 -23 -30 -47l-1 -2q-49 -91 -49 -195q0 -169 120 -288q119 -120 288 -120q168 0 288 119q119 119 120 286v3q0 169 -119 289z" />
    <glyph glyph-name="seven" unicode="7" horiz-adv-x="1001" 
d="M223 7q-4 -7 -12 -7h-75q-8 0 -12 7q-4 6 0 13l704 1318h-778q-14 0 -14 14v66q0 14 14 14h911q8 0 12 -7t0 -13z" />
    <glyph glyph-name="eight" unicode="8" horiz-adv-x="1076" 
d="M332 185q-91 91 -91 219t91 219t219 91t219 -91t91 -219t-91 -219t-219 -91t-219 91zM365 1261q77 77 186 77t186 -77t77 -186t-77 -186t-186 -77t-186 77t-77 186t77 186zM858 894q49 84 49 181q0 147 -104 252q-105 105 -252 105q-148 0 -252 -105q-105 -105 -105 -252
q0 -97 49 -181q48 -81 129 -128q-101 -50 -162 -146q-63 -99 -63 -216q0 -167 118 -286q119 -118 286 -118t285 118q119 119 119 286q0 117 -63 216q-61 96 -163 146q82 47 129 128z" />
    <glyph glyph-name="nine" unicode="9" horiz-adv-x="1000" 
d="M734 1246q93 -92 93 -222q0 -80 -38 -150l-2 -1l-2 -4l-17 -28q-45 -61 -112 -96q-68 -35 -144 -35q-130 0 -222 92t-92 222v2q1 129 93 221q92 91 221 91q130 0 222 -92zM224 735q119 -119 288 -119q63 0 123 19l-393 -614q-4 -7 0 -14t12 -7h78q8 0 12 6l496 774
q17 23 30 47l1 2q49 91 49 195q0 169 -119 288q-120 120 -289 120q-168 0 -287 -119q-120 -119 -121 -286v-3q0 -169 120 -289z" />
    <glyph glyph-name="colon" unicode=":" horiz-adv-x="395" 
d="M229 855q-20 -20 -48 -20t-48 20t-20 48t20 48t48 20t48 -20t20 -48t-20 -48zM229 465q-20 -20 -48 -20t-48 20t-20 48t20 48t48 20t48 -20t20 -48t-20 -48z" />
    <glyph glyph-name="semicolon" unicode=";" horiz-adv-x="397" 
d="M225 905q-20 -20 -48 -20t-48 20t-20 48q0 29 20 48q20 20 48 20t48 -20q20 -19 20 -48q0 -28 -20 -48zM202 410q-28 0 -47 19q-20 20 -20 47v95q0 8 8 8h68q8 0 8 -8v-153q0 -8 -8 -8h-9z" />
    <glyph glyph-name="semicolon" unicode="&#x37e;" horiz-adv-x="397" 
d="M225 905q-20 -20 -48 -20t-48 20t-20 48q0 29 20 48q20 20 48 20t48 -20q20 -19 20 -48q0 -28 -20 -48zM202 410q-28 0 -47 19q-20 20 -20 47v95q0 8 8 8h68q8 0 8 -8v-153q0 -8 -8 -8h-9z" />
    <glyph glyph-name="less" unicode="&#x3c;" horiz-adv-x="532" 
d="M61 706q-10 10 0 20l291 291q10 10 19 0l47 -47q10 -10 0 -20l-234 -234l234 -234q10 -10 0 -20l-47 -47q-9 -10 -19 0z" />
    <glyph glyph-name="equal" unicode="=" horiz-adv-x="720" 
d="M98 809q-13 0 -13 14v67q0 14 13 14h532q14 0 14 -14v-67q0 -14 -14 -14h-532zM98 529q-13 0 -13 13v67q0 14 13 14h532q14 0 14 -14v-67q0 -13 -14 -13h-532z" />
    <glyph glyph-name="greater" unicode="&#x3e;" horiz-adv-x="497" 
d="M160 415q-10 -10 -19 0l-47 47q-10 10 0 20l234 234l-234 234q-10 10 0 20l47 47q9 10 19 0l291 -291q10 -10 0 -20z" />
    <glyph glyph-name="question" unicode="?" horiz-adv-x="714" 
d="M657 888q-1 46 -11 86q-11 46 -34 83q-24 40 -61 69q-35 27 -78 43q-38 14 -85 20q-18 2 -43 3h-9h-5h-6h-10h-11q-86 -5 -164 -43q-37 -19 -72 -44q-17 -13 -32 -27q-13 -12 -22 -21q-10 -11 2 -20l44 -37q10 -8 19 1q7 7 14 13q13 11 27 22q28 20 58 35q63 30 131 34h8
h9h8h10q20 -1 33 -3q37 -5 65 -15q63 -24 94 -76q16 -26 23 -58q7 -30 8 -66v-8l-1 -10v-7l-1 -7q-1 -13 -6 -31q-9 -30 -26 -57q-31 -47 -98 -89q-40 -26 -131 -70l-18 -9q-8 -3 -8 -12v-20l-1 -294q0 -14 14 -14h67q14 0 14 14l-1 265q72 36 113 63q83 53 125 116
q25 39 37 83q6 25 8 44l2 11v12l1 10v11zM276 116q-20 -20 -20 -49q0 -28 20 -48t49 -20q28 0 48 20t20 48q0 29 -20 49t-48 20q-29 0 -49 -20z" />
    <glyph glyph-name="at" unicode="@" horiz-adv-x="1462" 
d="M484 141q-192 77 -297 253q-83 138 -90 294q-7 157 63 301q75 155 220 248q124 79 266 96q141 16 277 -31q243 -85 354 -317q112 -232 26 -475q-18 -53 -46 -101l-16 -30q-7 -12 -20 -5l-278 165l48 81l206 -122q10 21 18 44q40 114 26 234q-14 119 -80 224
q-77 122 -206 186q-106 53 -222 56q-111 3 -215 -39q-103 -42 -179 -122q-80 -82 -118 -191q-40 -113 -27 -230q12 -117 76 -221q89 -146 248 -210q177 -72 357 -16q13 5 17 -8l22 -63q5 -14 -9 -18q-92 -29 -187 -29q-120 0 -234 46zM550 883q-69 -69 -69 -167t69 -167
q70 -70 168 -70t167 70q69 69 69 167t-69 167q-69 70 -167 70t-168 -70zM484 482q-97 97 -97 234t97 234t234 97t234 -97t97 -234t-97 -234t-234 -97t-234 97z" />
    <glyph glyph-name="A" unicode="A" 
d="M405 689l260 626l260 -626h-520zM621 1434q-9 0 -13 -8l-584 -1407q-3 -7 1 -13q5 -6 12 -6h72q9 0 13 9l244 586h598l243 -586q4 -9 13 -9h72q8 0 12 6t1 13l-584 1407q-4 8 -13 8h-87z" />
    <glyph glyph-name="B" unicode="B" horiz-adv-x="1230" 
d="M250 94v616h471q127 0 217 -90q91 -90 91 -218q0 -127 -91 -217q-90 -91 -217 -91h-471zM250 1338h422q110 0 188 -78t78 -189q0 -110 -78 -188t-188 -78h-422v533zM985 895q44 75 47 162q6 154 -101 265q-106 110 -259 110h-502q-14 0 -14 -14v-1404q0 -14 14 -14h542
q169 0 291 120q123 121 120 289q-2 122 -72 223q-68 98 -178 143q71 47 112 120z" />
    <glyph glyph-name="C" unicode="C" horiz-adv-x="1245" 
d="M493 58q-130 56 -229 157q-100 102 -154 234q-55 136 -52 284q6 275 196 477q191 202 464 224q244 19 448 -113q11 -8 3 -19l-37 -56q-7 -11 -19 -4q-176 114 -386 98q-240 -19 -406 -197q-166 -177 -169 -417q-1 -128 47 -245q47 -114 134 -201q86 -88 199 -136
q116 -50 244 -50q184 0 338 100q12 8 19 -4l38 -55q8 -12 -4 -19q-178 -116 -391 -116q-148 0 -283 58z" />
    <glyph glyph-name="D" unicode="D" horiz-adv-x="1426" 
d="M251 95h354q127 0 243 49q111 47 197 133q87 86 134 198q49 116 49 242q0 127 -49 242q-47 112 -134 198q-86 86 -197 134q-116 49 -243 49h-354v-1245zM170 0q-14 0 -14 14v1406q0 14 14 14h435q145 0 277 -55q127 -53 226 -151q99 -97 155 -224q57 -131 59 -274
q3 -148 -54 -284q-55 -130 -157 -232q-102 -101 -234 -156q-136 -58 -284 -58h-423z" />
    <glyph glyph-name="E" unicode="E" horiz-adv-x="1109" 
d="M1064 1337q14 0 14 14v67q0 14 -14 14h-894q-14 0 -14 -14v-1404q0 -14 14 -14h894q14 0 14 14v66q0 14 -14 14h-814v575h542q14 0 14 14v66q0 14 -14 14h-542v574h814z" />
    <glyph glyph-name="F" unicode="F" horiz-adv-x="978" 
d="M170 1432q-14 0 -14 -14v-1404q0 -14 14 -14h67q14 0 14 14v657h532q14 0 14 14v67q0 14 -14 14h-532v572h747q14 0 14 14v66q0 14 -14 14h-828z" />
    <glyph glyph-name="G" unicode="G" horiz-adv-x="1428" 
d="M515 52q-141 57 -247 166q-106 110 -159 253q-54 149 -40 309q23 262 214 448t454 202q155 10 297 -44q142 -53 252 -161q10 -10 0 -20l-48 -47q-10 -9 -20 0q-179 178 -432 179q-243 2 -424 -164q-181 -167 -200 -409q-10 -134 35 -258q43 -120 130 -213
q87 -94 203 -145q120 -54 252 -54q250 0 430 173v330h-300q-14 0 -14 14v67q0 14 14 14h380q14 0 14 -14v-444q0 -6 -4 -10l-2 -2q-97 -98 -219 -156q-126 -58 -261 -65q-159 -8 -305 51z" />
    <glyph glyph-name="H" unicode="H" horiz-adv-x="1325" 
d="M170 2q-14 0 -14 14v1403q0 14 14 14h67q13 0 13 -14v-1403q0 -14 -13 -14h-67zM1081 0q-14 0 -14 14v1403q0 14 14 14h67q13 0 13 -14v-1403q0 -14 -13 -14h-67zM1161 670h-1005v95h1005v-95z" />
    <glyph glyph-name="I" unicode="I" horiz-adv-x="415" 
d="M170 0q-14 0 -14 14v1405q0 14 14 14h67q14 0 14 -14v-1405q0 -14 -14 -14h-67z" />
    <glyph glyph-name="J" unicode="J" horiz-adv-x="979" 
d="M185 55q-99 55 -158 150q-8 12 5 19l57 34q12 6 19 -5q59 -94 162 -135q105 -42 215 -12q111 30 181 126q69 93 69 211v976q0 14 14 14h67q14 0 14 -14v-985q0 -179 -128 -307q-127 -127 -306 -127q-113 0 -211 55z" />
    <glyph glyph-name="K" unicode="K" horiz-adv-x="1075" 
d="M310 719l693 692q7 6 3 15q-4 8 -13 8h-94q-6 0 -10 -4l-639 -637v625q0 14 -14 14h-66q-14 0 -14 -14v-1404q0 -14 14 -14h66q14 0 14 14v632l683 -640q4 -4 10 -4h97q10 0 13 9q3 8 -3 15z" />
    <glyph glyph-name="L" unicode="L" horiz-adv-x="960" 
d="M170 0q-14 0 -14 14v1408q0 13 14 13h67q14 0 14 -13v-1327h671q14 0 14 -14v-67q0 -14 -14 -14h-752z" />
    <glyph glyph-name="M" unicode="M" horiz-adv-x="1475" 
d="M733 817l-547 610q-4 5 -10 5h-6q-14 0 -14 -14v-1404q0 -14 14 -14h67q13 0 13 14v1200l473 -528q10 -11 21 0l473 529v-1201q0 -14 13 -14h67q14 0 14 14v1404q0 14 -14 14h-7q-6 0 -10 -5z" />
    <glyph glyph-name="N" unicode="N" horiz-adv-x="1325" 
d="M1161 14q0 -14 -14 -14h-7q-7 0 -11 6l-879 1173v-1165q0 -14 -14 -14h-66q-14 0 -14 14v1403q0 15 14 15h2q7 0 11 -6l883 -1180v1172q0 14 14 14h67q14 0 14 -14v-1404z" />
    <glyph glyph-name="O" unicode="O" horiz-adv-x="1590" 
d="M530 1290q-112 -47 -198 -133t-133 -198q-49 -116 -49 -242t49 -242q47 -112 133 -198t198 -133q116 -49 242 -49t242 49q112 47 198 133t133 198q49 116 49 242t-49 242q-47 112 -133 198t-198 133q-116 49 -242 49t-242 -49zM493 56q-128 55 -228 154q-99 100 -154 228
q-56 133 -56 279t56 279q55 128 154 228q100 99 228 153q133 57 279 57t279 -57q128 -54 228 -153q99 -100 153 -228q57 -133 57 -279t-57 -279q-54 -128 -153 -228q-100 -99 -228 -154q-133 -56 -279 -56t-279 56z" />
    <glyph glyph-name="P" unicode="P" horiz-adv-x="1149" 
d="M251 758v583h434q120 0 206 -86q85 -85 85 -206q0 -120 -85 -205q-86 -86 -206 -86h-434zM170 1435q-14 0 -14 -14v-1407q0 -14 14 -14h67q14 0 14 14v650h425q163 0 280 115q117 116 115 277q-3 157 -116 268q-112 111 -270 111h-515z" />
    <glyph glyph-name="Q" unicode="Q" horiz-adv-x="1589" 
d="M530 1291q-112 -47 -198 -133t-133 -198q-49 -115 -49 -242q0 -126 49 -242q47 -111 133 -197q86 -87 198 -134q115 -49 242 -49q126 0 242 49q111 47 197 134q86 86 134 197q49 116 49 242q0 127 -49 242q-48 112 -134 198t-197 133q-116 49 -242 49q-127 0 -242 -49z
M493 58q-129 54 -228 154q-99 99 -154 228q-56 133 -56 278q0 146 56 279q55 128 154 228q99 99 228 154q133 56 279 56q145 0 278 -56q129 -55 228 -154q100 -100 154 -228q56 -133 56 -279q0 -145 -56 -278q-54 -129 -154 -228q-99 -100 -228 -154q-133 -56 -278 -56
q-146 0 -279 56zM1006 -171q-11 0 -14 11l-88 410q-2 6 3 11q4 5 10 5h67q11 0 13 -11l89 -409q1 -6 -3 -11q-4 -6 -11 -6h-66z" />
    <glyph glyph-name="R" unicode="R" horiz-adv-x="1161" 
d="M250 757h434q120 0 205 85t85 205t-85 206q-85 85 -205 85h-434v-581zM156 662v756q0 14 14 14h514q157 0 270 -110q112 -111 115 -268q2 -161 -115 -277q-117 -115 -279 -115h-519zM170 0q-14 0 -14 14v855h94v-855q0 -14 -13 -14h-67zM948 0q-8 0 -12 7l-365 667l83 45
l382 -699q4 -6 0 -13t-12 -7h-76z" />
    <glyph glyph-name="S" unicode="S" horiz-adv-x="1083" 
d="M881 1227q-9 -9 -18 -1q-8 6 -15 12q-11 7 -21 15q-27 19 -52 34q-63 33 -131 48q-51 10 -86 11h-23h-24q-12 0 -26 -2l-12 -1l-12 -1q-58 -8 -98 -24q-52 -20 -85 -55q-36 -36 -51 -90l-3 -14q-2 -8 -2 -14q-3 -18 -3 -28l-1 -15v-1v-1v3v-2v-5l1 -8l1 -17l2 -12l1 -6
l2 -7l4 -13q1 -5 5 -13l3 -6l3 -7l7 -12l7 -12l5 -6l4 -6q5 -7 9 -11q37 -41 100 -78q47 -27 124 -61l17 -7l17 -8l33 -15l65 -30q80 -36 134 -70q74 -47 120 -100q55 -65 71 -145l4 -20q2 -12 2 -20l1 -20l1 -10v-3v-1v-2v-5l-1 -17l-1 -8v-10l-3 -20l-3 -20
q-16 -79 -63 -139q-45 -58 -113 -93q-54 -28 -126 -44l-15 -3l-16 -2q-18 -4 -30 -4l-30 -3l-29 -1l-14 -1h-7h-5h-4l-26 1q-11 0 -26 2l-14 1l-14 2q-46 5 -99 19q-79 22 -151 63q-27 16 -51 33q-19 13 -36 27q-11 9 -20 17q-10 10 0 20l49 46q9 9 19 0l12 -10
q14 -12 30 -23q21 -15 44 -28q62 -36 129 -54q46 -13 85 -18l11 -1l11 -1q13 -2 25 -2l26 -1h3v0h2l6 1h13l25 1l26 2q11 1 26 3l13 3l14 2q59 13 101 35q50 25 83 67q34 44 46 102l2 13l2 14q1 3 1 8v8l1 17v5v2v1v-2v1v7l-1 15q0 6 -1 15l-2 7l-1 7q-12 58 -52 105
q-63 74 -221 147l-67 30l-32 16l-15 7l-17 7q-82 36 -133 66q-75 45 -121 96q-6 6 -13 15l-6 8l-6 8q-14 22 -21 35l-4 10l-4 9q-5 11 -7 19l-6 19l-2 11l-2 10l-4 21v17l-1 8v5v2v3v0v1v19q1 15 4 38q1 8 3 18l5 18q20 78 73 130q47 47 116 75q51 20 120 29l15 1l15 1
q16 2 27 2h27l27 -1q43 -1 100 -12q80 -18 153 -57q28 -15 52 -32q19 -12 37 -26q6 -6 19 -17q10 -10 0 -20z" />
    <glyph glyph-name="T" unicode="T" horiz-adv-x="818" 
d="M17 1433q-14 0 -14 -14v-67q0 -14 14 -14h403v-1324q0 -14 13 -14h67q14 0 14 14v1324h403q14 0 14 14v67q0 14 -14 14h-900z" />
    <glyph glyph-name="U" unicode="U" horiz-adv-x="1223" 
d="M267 147q-132 140 -132 333v938q0 14 14 14h66q14 0 14 -14v-939q0 -154 104 -266q106 -113 257 -119q160 -6 275 106q115 111 115 270v948q0 14 14 14h67q13 0 13 -14v-948q0 -198 -142 -337q-143 -139 -342 -133q-190 6 -323 147z" />
    <glyph glyph-name="V" unicode="V" horiz-adv-x="1102" 
d="M640 9q-3 -9 -13 -9h-80q-10 0 -13 9l-483 1407q-2 7 2 12q4 6 11 6h71q10 0 13 -9l439 -1280l440 1280q3 9 13 9h70q7 0 12 -6q4 -5 1 -12z" />
    <glyph glyph-name="W" unicode="W" horiz-adv-x="1477" 
d="M1262 13q-1 -13 -14 -13h-73q-7 0 -11 6l-422 654l-421 -654q-4 -6 -12 -6h-74q-13 0 -14 13l-96 1405q-1 14 14 14h67q13 0 13 -13l87 -1262l418 648q4 6 11 6l14 1q8 0 12 -7l416 -646l86 1260q1 13 14 13h67q15 0 14 -14z" />
    <glyph glyph-name="X" unicode="X" horiz-adv-x="1105" 
d="M1021 0q-8 0 -12 6l-420 669l-420 -669q-4 -6 -11 -6h-79q-8 0 -12 7t0 14l467 743l-407 647q-4 7 0 14t12 7h79q7 0 11 -6l360 -573l360 573q4 6 12 6h79q8 0 12 -7t-1 -14l-406 -647l467 -743q4 -7 0 -14t-12 -7h-79z" />
    <glyph glyph-name="Y" unicode="Y" horiz-adv-x="800" 
d="M887 1435q8 0 12 -7t0 -14l-408 -648l-9 -15v-737q0 -14 -14 -14h-67q-13 0 -13 14v739l-416 661q-4 7 0 14t12 7h79q8 0 12 -6l360 -574l361 574q4 6 12 6h79z" />
    <glyph glyph-name="Z" unicode="Z" horiz-adv-x="1028" 
d="M52 0q-14 0 -14 14v91q0 4 2 7l827 1226h-744q-14 0 -14 14v67q0 14 14 14h835q13 0 13 -14v-90q0 -5 -2 -8l-826 -1226h840q14 0 14 -14v-67q0 -14 -14 -14h-931z" />
    <glyph glyph-name="bracketleft" unicode="[" horiz-adv-x="393" 
d="M114 82q-14 0 -14 14v1240q0 14 14 14h165q14 0 14 -14v-67q0 -13 -14 -13h-85v-1080h85q14 0 14 -14v-66q0 -14 -14 -14h-165z" />
    <glyph glyph-name="backslash" unicode="\" horiz-adv-x="483" 
d="M367 0q16 0 14 16l-185 1404q-2 12 -14 12h-66q-16 0 -14 -16l185 -1404q2 -12 14 -12h66z" />
    <glyph glyph-name="bracketright" unicode="]" horiz-adv-x="393" 
d="M114 82q-14 0 -14 14v66q0 14 14 14h85v1080h-85q-14 0 -14 13v67q0 14 14 14h165q14 0 14 -14v-1240q0 -14 -14 -14h-165z" />
    <glyph glyph-name="asciicircum" unicode="^" horiz-adv-x="821" 
d="M109 1040q-9 10 0 20l292 291q9 10 19 0l291 -291q10 -10 0 -20l-47 -47q-9 -9 -19 0l-235 235l-234 -235q-10 -9 -19 0z" />
    <glyph glyph-name="underscore" unicode="_" horiz-adv-x="655" 
d="M114 -174q-14 0 -14 14v67q0 13 14 13h427q14 0 14 -13v-67q0 -14 -14 -14h-427z" />
    <glyph glyph-name="grave" unicode="`" horiz-adv-x="364" 
d="M233 1182q-12 -6 -18 6l-109 205q-6 12 6 18l19 10q12 7 18 -5l109 -205q6 -12 -6 -19z" />
    <glyph glyph-name="a" unicode="a" horiz-adv-x="777" 
d="M518 149q-46 -35 -106 -49q-59 -13 -127 -1q-69 13 -99 55q-31 42 -29 114q3 60 48 97q38 31 106 48q50 12 114 16q49 3 101 2q36 -1 78 -5q10 -1 21 -2v-29l-1 -29l1 -30l-5 -19q-13 -49 -34 -87q-28 -50 -68 -81zM731 0q16 0 14 16q-11 86 -17 164q-9 107 -9 186
q0 26 1 60v48v50q-1 55 -8 97q-17 108 -76 169q-78 80 -229 80q-106 0 -196 -41q-32 -15 -60 -34q-11 -8 -21 -16q-8 -6 -15 -12q-11 -10 0 -21l50 -45q9 -8 18 0q5 4 11 9q8 6 16 11q22 14 47 25q68 29 150 29q111 0 161 -51q56 -57 58 -210v0l-15 1q-23 2 -38 2
q-23 2 -45 2q-55 2 -108 -1q-73 -5 -130 -19q-87 -22 -141 -66q-38 -30 -58 -70q-21 -40 -25 -89q-6 -106 43 -175q29 -39 73 -63q37 -20 86 -29q87 -14 165 4q81 20 140 69q35 28 63 67q5 -63 14 -135q2 -12 14 -12h67z" />
    <glyph glyph-name="b" unicode="b" horiz-adv-x="967" 
d="M254 194q-100 100 -100 240q0 141 100 241t240 100q141 0 241 -100t100 -241q0 -140 -100 -240t-241 -100q-140 0 -240 100zM322 833q-100 -43 -168 -129v715q0 14 -14 14h-66q-14 0 -14 -14v-1405q0 -14 14 -14h66q14 0 14 14v151q61 -77 149 -120q90 -45 191 -45
q95 0 180 39q82 37 143 105q62 68 90 154q30 91 19 187q-17 150 -126 258t-259 123q-115 12 -219 -33z" />
    <glyph glyph-name="c" unicode="c" horiz-adv-x="792" 
d="M167 142q-131 142 -113 335q14 151 121 262q107 110 257 129q156 20 288 -63q12 -8 4 -20l-38 -55q-7 -11 -19 -4q-85 53 -187 51q-134 -3 -231 -99t-102 -230q-5 -145 96 -249t245 -104q98 0 180 51q11 7 19 -4l37 -55q9 -12 -4 -20q-106 -67 -232 -67q-192 0 -321 142z
" />
    <glyph glyph-name="d" unicode="d" horiz-adv-x="1069" 
d="M230 194q-100 100 -100 240q0 141 100 241t240 100q141 0 241 -100t100 -241q0 -140 -100 -240t-241 -100q-140 0 -240 100zM905 1419q0 14 -14 14h-67q-13 0 -13 -14v-715q-61 77 -149 120q-90 45 -192 45q-179 0 -307 -128q-127 -127 -127 -307q0 -179 127 -307
q128 -127 307 -127q102 0 192 45q88 43 149 120v-151q0 -14 13 -14h67q14 0 14 14v1405z" />
    <glyph glyph-name="e" unicode="e" horiz-adv-x="977" 
d="M225 679q-93 -97 -94 -241l645 56q-14 124 -103 202q-89 79 -218 79q-138 0 -230 -96zM164 127q-128 128 -128 308q0 183 123 309q122 126 299 125q172 -1 294 -127q121 -125 121 -300v-22q0 -12 -12 -13l-718 -63q30 -109 120 -179q92 -71 208 -71q88 0 165 43
q76 42 123 116q7 12 19 5l58 -33q12 -8 5 -20q-60 -95 -159 -150q-98 -55 -211 -55q-180 0 -307 127z" />
    <glyph glyph-name="f" unicode="f" horiz-adv-x="490" 
d="M200 0q-13 0 -13 14v1160q0 76 32 134q32 59 90 88q54 27 116 20q62 -6 119 -45q12 -8 3 -20l-40 -53q-8 -11 -19 -3q-73 48 -137 17q-70 -36 -70 -138v-1160q0 -14 -14 -14h-67zM97 777q-14 0 -14 14v66q0 14 14 14h337q14 0 14 -14v-66q0 -14 -14 -14h-337z" />
    <glyph glyph-name="g" unicode="g" horiz-adv-x="1044" 
d="M230 676q-100 -100 -100 -242q0 -141 100 -241q101 -100 242 -100t241 100t100 241q0 142 -100 242t-241 100t-242 -100zM819 170q-18 -23 -39 -44q-128 -128 -308 -128q-181 0 -309 128q-127 128 -127 308q0 181 127 309q128 128 309 128q180 0 308 -128q21 -21 39 -44
v156q0 14 13 14h67q14 0 14 -14v-885q0 -180 -128 -308t-308 -128q-113 0 -212 55t-159 151q-7 12 5 19l58 34q12 7 19 -5q59 -94 163 -135q106 -42 216 -12q112 30 182 126q70 94 70 212v191z" />
    <glyph glyph-name="h" unicode="h" horiz-adv-x="964" 
d="M860 47q-1 89 -1 223v108q0 64 -1 121v16v18q-1 19 -4 37q-6 37 -20 72q-28 73 -85 126q-56 54 -129 78q-36 12 -73 16l-10 1l-9 1h-9h-8q-18 1 -37 -1q-69 -7 -131 -40q-54 -29 -96 -76l-7 -9v683q0 14 -14 14h-66q-14 0 -14 -14v-1403q0 -14 14 -14h66q14 0 14 14v455
v0l2 41v16l1 7q0 4 1 8q1 12 3 22q6 30 20 58q17 36 43 65q32 35 74 57q46 24 98 29q13 1 27 1l8 -1h7h6l7 -1q28 -4 54 -13q55 -18 96 -59q42 -40 63 -94q10 -26 14 -53q2 -13 3 -28v-13v-16q0 -139 -1 -229v-223v-33q-1 -14 13 -14h67q14 0 14 14v33z" />
    <glyph glyph-name="i" unicode="i" horiz-adv-x="406" 
d="M140 0q-13 0 -13 14v839q0 14 13 14h67q14 0 14 -14v-839q0 -14 -14 -14h-67zM222 1097q-20 -20 -48 -20q-29 0 -48 20q-20 20 -20 48t20 48q19 20 48 20q28 0 48 -20t20 -48t-20 -48z" />
    <glyph glyph-name="j" unicode="j" horiz-adv-x="437" 
d="M-73 -263q-12 8 -3 20l40 54q7 10 19 3q73 -49 137 -17q70 35 70 137v917q0 14 14 14h67q13 0 13 -14v-437v-480q0 -75 -32 -134q-33 -59 -90 -87q-43 -22 -93 -22q-73 0 -142 46zM286 1095q-20 -20 -49 -20q-28 0 -48 20t-20 48t20 48t48 20q29 0 49 -20t20 -48t-20 -48
z" />
    <glyph glyph-name="k" unicode="k" horiz-adv-x="793" 
d="M400 532l321 309q7 6 3 15q-3 9 -12 9h-94q-5 0 -9 -4l-369 -352v907q0 14 -14 14h-66q-14 0 -14 -14v-1402q0 -14 14 -14h66q14 0 14 14v364l92 89l383 -462q4 -5 11 -5h86q9 0 13 8q3 8 -2 15z" />
    <glyph glyph-name="l" unicode="l" horiz-adv-x="358" 
d="M227 0q13 0 13 14v1407q0 13 -13 13h-67q-14 0 -14 -13v-1407q0 -14 14 -14h67z" />
    <glyph glyph-name="m" unicode="m" horiz-adv-x="1532" 
d="M1428 49q-1 88 -1 219v52v27v28q-1 75 -1 118v31q0 20 -2 37q-4 37 -16 72q-25 72 -78 127t-126 82q-34 13 -71 18l-9 1l-9 1l-10 1h-8h-8h-5h-5h-9l-9 -1q-69 -5 -130 -36q-54 -29 -95 -74q-28 -31 -48 -68q-23 42 -56 76q-52 55 -125 82q-34 13 -71 18l-9 1l-10 1l-9 1
h-9h-8h-5h-4h-9l-9 -1q-69 -5 -130 -36q-55 -29 -96 -74l-7 -9v115q0 14 -14 14h-66q-14 0 -14 -14v-842q0 -14 14 -14h66q14 0 14 14v466l2 41v15l1 7l1 8q1 12 3 22q6 29 20 56q16 35 43 64q31 33 72 54q46 23 97 26h13h4v0h2h8h7l6 -1l7 -1h6q28 -4 53 -14q54 -21 92 -61
q39 -41 57 -94q8 -26 11 -53q1 -12 2 -27l-1 -31v-60v-58v-107q-1 -131 -1 -219v-33q0 -14 14 -14h67q14 0 13 14v33v219v52l-1 27v28v58v60v1l1 29q0 5 1 15v7q1 4 1 8q1 12 4 22q6 29 19 56q17 35 43 64q31 33 72 54q46 23 97 26h7h7h3h1h1h8h7l7 -1l6 -1h7q27 -4 52 -14
q54 -21 92 -61q39 -41 57 -94q9 -26 11 -53q2 -12 2 -27v-31q0 -54 -1 -118v-55v-26v-26q0 -131 -1 -219v-33q0 -14 14 -14h67q14 0 14 14v33z" />
    <glyph glyph-name="n" unicode="n" horiz-adv-x="935" 
d="M831 47q0 88 -1 220v52v27v28v58v60v32q-1 19 -3 36q-4 37 -16 72q-24 73 -78 128q-53 55 -126 82q-34 13 -71 18l-9 1l-10 1l-9 1h-9h-8h-9h-9l-9 -1q-69 -5 -131 -36q-54 -29 -96 -74l-6 -8v114q0 14 -14 14h-67q-13 0 -13 -14v-844q0 -14 13 -14h67q14 0 14 14v486
l1 22v15l1 7l1 9q1 11 3 22q7 28 20 56q17 35 43 63q31 34 73 55q45 23 97 26h6h7h3h3h8h7l6 -1l6 -1l7 -1q28 -4 53 -13q54 -21 92 -61q39 -41 57 -95q9 -26 12 -53q1 -12 1 -27v-31q0 -54 -1 -118v-55v-27v-25q0 -132 -1 -220v-33q0 -14 14 -14h67q14 0 14 14v33z" />
    <glyph glyph-name="o" unicode="o" horiz-adv-x="968" 
d="M253 674q-99 -99 -99 -240q0 -140 99 -240q100 -100 241 -100q140 0 240 100t100 240q0 141 -100 240q-100 100 -240 100q-141 0 -241 -100zM187 127q-127 128 -127 307q0 180 127 307t307 127q179 0 306 -127q128 -127 128 -307q0 -179 -128 -307q-127 -127 -306 -127
q-180 0 -307 127z" />
    <glyph glyph-name="p" unicode="p" horiz-adv-x="1067" 
d="M334 195q-101 100 -101 241q0 140 101 240t244 100t244 -100t101 -240q0 -141 -101 -241q-101 -99 -244 -99t-244 99zM383 825q-88 -43 -150 -120v151q0 14 -14 14h-68q-14 0 -14 -14v-1404q0 -14 14 -14h68q14 0 14 14v714q62 -77 150 -120q92 -45 195 -45
q182 0 312 128q129 127 129 307q0 179 -129 306q-130 128 -312 128q-103 0 -195 -45z" />
    <glyph glyph-name="q" unicode="q" horiz-adv-x="1049" 
d="M477 96q-143 0 -244 99q-101 100 -101 241q0 140 101 240t244 100t244 -100t101 -240q0 -141 -101 -241q-101 -99 -244 -99zM477 870q-182 0 -312 -128q-129 -127 -129 -306q0 -180 129 -307q130 -128 312 -128q103 0 195 45q88 43 150 120v-714q0 -14 14 -14h68
q14 0 14 14v1404q0 14 -14 14h-68q-14 0 -14 -14v-151q-62 77 -150 120q-92 45 -195 45z" />
    <glyph glyph-name="r" unicode="r" horiz-adv-x="536" 
d="M480 865q-147 0 -249 -108v100q0 14 -13 14h-67q-14 0 -14 -14v-843q0 -14 14 -14h67q13 0 13 14v508q0 103 73 176t176 73q19 0 37 -3q13 -2 16 11l13 65q3 14 -11 17q-27 4 -55 4z" />
    <glyph glyph-name="s" unicode="s" horiz-adv-x="683" 
d="M536 724q-9 -8 -19 -1q-9 8 -19 14q-12 9 -24 15q-34 18 -71 26q-28 5 -47 6h-13h-13q-7 0 -15 -1h-6l-6 -1q-32 -4 -53 -13q-27 -10 -43 -28q-18 -17 -25 -44l-2 -7l-1 -7q-1 -10 -1 -15l-1 -8v2v0v-1l1 -3v-5v-9l2 -6q0 -2 1 -5l2 -7l2 -6l3 -6l3 -6l4 -6l5 -6l5 -6
q19 -21 53 -41q26 -15 70 -35l10 -4l11 -5l19 -9l38 -16q47 -22 79 -42q46 -29 74 -63q36 -41 46 -92l3 -13q1 -8 1 -13l1 -12v-7v-4v-3v-5v-5q-1 -6 -1 -11l-2 -13l-2 -13q-10 -50 -40 -89q-29 -37 -72 -59q-34 -18 -78 -27q-42 -8 -73 -9h-9h-4h-4h-2l-15 1q-6 0 -16 1h-9
l-8 1q-28 4 -61 12q-48 14 -92 39q-21 11 -38 24q-13 10 -24 19q-11 10 0 21l48 46q9 9 19 1q7 -7 16 -13q12 -9 26 -17q34 -19 70 -29q26 -7 46 -10l6 -1h6q7 -1 14 -1l15 -1h2h4l7 1q23 0 57 5q32 7 54 19q54 27 65 85l1 7l1 6q1 3 1 9v5v5l1 3v1v1q0 -3 0 -2v0l-1 4v7
q0 3 -1 8l-1 7q-6 29 -26 53q-34 40 -122 81l-39 17l-19 9l-8 4l-10 4q-49 22 -79 40q-46 27 -75 59q-4 4 -8 10l-8 10q-9 14 -13 23l-6 12q-3 7 -4 12q-5 16 -7 27l-2 14v9l-1 5v3v1v3v1l1 12q0 9 2 23l2 12l3 12q13 49 47 83q30 30 74 48q32 12 74 18h10l9 1q10 1 16 1h16
h17q26 -1 61 -8q49 -11 94 -35q17 -9 32 -19q11 -8 22 -17q3 -2 8 -7q11 -10 0 -20z" />
    <glyph glyph-name="t" unicode="t" horiz-adv-x="491" 
d="M477 117q-7 10 -19 3q-67 -44 -124 -15q-63 32 -63 125v544h137q14 0 14 14v67q0 14 -14 14h-137v247q0 14 -14 14h-67q-14 0 -14 -14l1 -247h-121q-14 0 -14 -14v-67q0 -14 14 -14h121v-544q0 -71 30 -127q31 -55 85 -82q41 -21 88 -21q69 0 134 44q12 7 3 19z" />
    <glyph glyph-name="u" unicode="u" horiz-adv-x="938" 
d="M727 872q-14 0 -14 -14v-476v0l-2 -41v-16l-1 -6q0 -5 -1 -9q-1 -11 -3 -22q-6 -28 -20 -56q-17 -35 -44 -64q-31 -33 -73 -54q-46 -23 -98 -26h-13h-14l-13 1l-13 2q-28 5 -53 15q-53 20 -92 62q-38 41 -56 96q-8 25 -10 54q-1 11 -1 27v32v119v28v28q1 29 1 51v221v34
q0 14 -13 14h-67q-14 0 -14 -14v-34q0 -88 1 -221v-51v-56v-119v-32q0 -9 1 -17q0 -10 1 -18q3 -39 15 -73q24 -75 77 -130q53 -57 124 -84q35 -14 72 -19l18 -2l19 -2h8h4h6l17 1q70 4 132 36q56 28 97 73l4 5l4 5v-106q0 -14 14 -14h66q14 0 14 14v844q0 14 -14 14h-66z
" />
    <glyph glyph-name="v" unicode="v" horiz-adv-x="771" 
d="M418 9q-4 -9 -13 -9h-61q-9 0 -13 9l-311 841q-3 7 1 13q5 6 12 6h71q9 0 12 -9l259 -697l258 697q3 9 13 9h70q8 0 12 -6t1 -13z" />
    <glyph glyph-name="w" unicode="w" horiz-adv-x="1290" 
d="M909 164l-227 697q-3 9 -13 9h-71q-10 0 -13 -9l-226 -697l-243 697q-3 9 -13 9h-71q-7 0 -11 -6q-4 -5 -2 -12l297 -843q3 -9 13 -9h50q10 0 13 9l242 725l241 -725q3 -9 13 -9h51q10 0 13 9l296 843q3 7 -1 12q-5 6 -12 6h-71q-10 0 -13 -9z" />
    <glyph glyph-name="x" unicode="x" horiz-adv-x="864" 
d="M488 436l313 -421q4 -5 1 -10q-2 -5 -8 -5h-93q-7 0 -11 6l-261 351l-262 -351q-4 -6 -11 -6h-92q-6 0 -9 5q-2 5 1 10l314 421l-314 422q-3 5 -1 10q3 5 9 5h92q7 0 11 -6l262 -351l261 351q4 6 11 6h93q6 0 8 -5q3 -5 -1 -10z" />
    <glyph glyph-name="y" unicode="y" horiz-adv-x="823" 
d="M289 -370q-3 -9 -12 -9h-72q-8 0 -12 6t-1 13l144 358l-355 856q-3 7 1 13t11 6h73q9 0 12 -8l308 -742l298 742q4 8 13 8h72q7 0 11 -6t2 -12z" />
    <glyph glyph-name="z" unicode="z" horiz-adv-x="821" 
d="M67 0q-14 0 -14 14v88q0 5 4 9l578 664h-552q-13 0 -13 14v66q0 14 13 14h657q14 0 14 -14v-83q0 -5 -4 -9l-583 -669h581q14 0 14 -14v-66q0 -14 -14 -14h-681z" />
    <glyph glyph-name="braceleft" unicode="{" horiz-adv-x="465" 
d="M290 57q-13 -5 -18 8q-86 225 -102 529l-67 135q-3 6 0 12l69 138q20 282 100 492q5 13 18 8l62 -25q13 -5 8 -17q-76 -201 -94 -474l-1 -10l-59 -118l57 -117l1 -9q14 -294 96 -510q5 -13 -8 -18z" />
    <glyph glyph-name="bar" unicode="|" horiz-adv-x="305" 
d="M115 -90q-15 0 -15 15v1566q0 16 15 16h75q15 0 15 -16v-1566q0 -15 -15 -15h-75z" />
    <glyph glyph-name="braceright" unicode="}" horiz-adv-x="465" 
d="M113 81q-13 5 -8 18q82 216 96 510l1 9l57 117l-59 118l-1 10q-18 273 -94 474q-5 12 8 17l62 25q13 5 18 -8q80 -210 100 -492l69 -138q3 -6 0 -12l-67 -135q-16 -304 -102 -529q-5 -13 -18 -8z" />
    <glyph glyph-name="asciitilde" unicode="~" horiz-adv-x="761" 
d="M510 687q-30 -2 -67 -7l-66 -10q-177 -28 -267 -2q-10 2 -10 13v66q0 7 5 11q6 4 12 2q60 -15 134 -11q29 2 66 7l67 10q177 27 267 2q10 -3 10 -13v-66q0 -7 -6 -11q-5 -4 -12 -2q-59 15 -133 11z" />
    <glyph glyph-name="exclamdown" unicode="&#xa1;" horiz-adv-x="336" 
d="M201 990q14 0 14 -14v-962q0 -14 -14 -14h-66q-14 0 -14 14v962q0 14 14 14h66zM236 1222q0 -28 -20 -48t-48 -20t-48 20t-20 48t20 48t48 20t48 -20t20 -48z" />
    <glyph glyph-name="cent" unicode="&#xa2;" horiz-adv-x="889" 
d="M296 943q85 92 206 108l-86 -650q-96 40 -154 127q-60 91 -56 199q5 123 90 216zM743 422q-7 11 -19 4q-81 -51 -179 -51q-18 0 -38 2l89 673q69 -11 128 -47q11 -7 19 4l37 55q8 12 -4 19q-77 49 -168 62l36 270q2 16 -14 16h-66q-12 0 -14 -12l-35 -271l-13 -1l-13 -1
q-149 -19 -255 -129q-106 -109 -120 -259q-14 -153 70 -280q81 -123 220 -171l-38 -289q-2 -16 13 -16h67q12 0 13 12l36 272q26 -3 50 -3q126 0 232 67q12 7 4 19z" />
    <glyph glyph-name="sterling" unicode="&#xa3;" horiz-adv-x="874" 
d="M270 584h209q14 0 14 14v67q0 14 -14 14h-186l33 136h153q14 0 14 14v66q0 14 -14 14h-130l9 36v2q15 75 76 125q60 49 138 49q73 0 131 -43q10 -8 19 1l43 51q9 11 -2 20q-84 65 -191 65q-111 0 -197 -70q-87 -70 -109 -179l-164 -677q-2 -7 3 -12q4 -5 10 -5h615
q14 0 14 14v66q0 14 -14 14h-512z" />
    <glyph glyph-name="currency" unicode="&#xa4;" horiz-adv-x="969" 
d="M642 564q-41 -40 -99 -57q-28 -8 -58 -8q-29 0 -58 8q-58 17 -99 57q-41 41 -57 100q-9 28 -9 56q0 30 10 60q17 58 56 98q40 39 98 56q29 9 58 9q30 0 58 -8q59 -17 100 -57q40 -41 57 -99q9 -29 9 -58t-9 -58q-17 -58 -57 -99zM812 721q0 43 -12 85q-17 56 -48 102
l103 103q14 14 0 28l-52 53q-14 14 -28 0l-104 -104q-45 31 -102 48q-42 12 -83 12q-45 0 -89 -14q-55 -16 -99 -46l-104 104q-14 14 -28 0l-52 -53q-14 -14 0 -28l104 -104q-31 -44 -47 -99q-13 -44 -13 -87q0 -42 12 -84q16 -57 48 -103l-104 -103q-14 -14 0 -28l52 -53
q14 -14 28 0l104 104q45 -32 102 -48q43 -12 85 -12q43 0 85 12q56 16 101 48l104 -104q14 -14 28 0l52 53q14 14 0 28l-103 103q31 46 48 102q12 42 12 85z" />
    <glyph glyph-name="yen" unicode="&#xa5;" horiz-adv-x="1008" 
d="M611 847h-208l-36 88h280zM509 592l-67 161h132zM820 1343q-9 0 -13 -9l-122 -305h-357l-127 305q-4 9 -13 9h-72q-7 0 -12 -6q-4 -7 -1 -13l122 -295h-56q-14 0 -14 -14v-66q0 -14 14 -14h96l36 -88h-132q-14 0 -14 -14v-66q0 -14 14 -14h171l119 -286l-145 -358
q-2 -7 2 -13t11 -6h72q10 0 13 8l263 655h174q14 0 14 14v66q0 14 -14 14h-136l35 88h101q14 0 14 14v66q0 14 -14 14h-63l119 295q3 7 -2 13q-4 6 -11 6h-72z" />
    <glyph glyph-name="brokenbar" unicode="&#xa6;" horiz-adv-x="360" 
d="M100 371h160v-789h-160v789zM100 1578h160v-789h-160v789z" />
    <glyph glyph-name="section" unicode="&#xa7;" horiz-adv-x="524" 
d="M273 576q-66 29 -66 53v5v6q2 7 7 13q13 14 51 14v1q73 2 116 40q43 39 43 103q0 61 -49 103q-19 16 -45 30q-10 5 -21 10l-10 5l-10 4l-16 8q-66 28 -66 53v5v6q2 7 7 12q13 15 51 15q21 0 41 -7q7 -3 15 -7q5 -3 10 -7q10 -6 18 2l48 47q11 10 -1 20q-9 8 -19 14
q-14 9 -29 15q-39 17 -83 17q-69 0 -111 -36t-42 -96q0 -56 45 -95q17 -14 41 -27q8 -5 19 -9l9 -5l9 -3l16 -8q45 -19 62 -34q17 -14 17 -32v-3v-3q0 -4 -1 -8q-2 -9 -8 -16q-17 -20 -64 -20v0q-66 -2 -105 -38q-40 -35 -40 -94q0 -56 45 -94q17 -15 41 -27q8 -5 19 -10
l9 -4l9 -4l16 -8q45 -19 62 -33q17 -15 17 -33v-3v-3q0 -4 -1 -7q-2 -10 -8 -17q-17 -19 -64 -19q-26 0 -49 9q-10 3 -18 8q-7 4 -13 8q-9 7 -17 -1l-49 -46q-11 -11 0 -21q10 -8 22 -15q15 -10 32 -17q43 -19 92 -19q76 0 122 39q45 39 45 104q0 61 -49 104q-19 15 -45 29
q-10 5 -21 11l-10 4l-10 4z" />
    <glyph glyph-name="dieresis" unicode="&#xa8;" horiz-adv-x="510" 
d="M216 1296q-20 -20 -48 -20t-48 20t-20 48q0 29 20 49t48 20t48 -20t20 -49q0 -28 -20 -48zM390 1296q-20 -20 -49 -20q-28 0 -48 20t-20 48q0 29 20 49t48 20q29 0 49 -20t20 -49q0 -28 -20 -48z" />
    <glyph glyph-name="copyright" unicode="&#xa9;" horiz-adv-x="1161" 
d="M393 551q-70 73 -67 174q2 94 71 162t164 69q67 1 125 -33q12 -7 4 -19l-38 -56q-7 -10 -18 -4q-43 24 -94 16q-47 -8 -81 -44t-38 -84q-6 -64 37 -111t106 -47q38 0 70 18q11 6 18 -5l38 -55q8 -12 -4 -19q-56 -34 -122 -34q-100 0 -171 72zM284 988
q-112 -112 -112 -270t112 -270t270 -112t270 112t112 270t-112 270t-270 112t-270 -112zM217 381q-139 140 -139 337t139 337q140 140 337 140t337 -140t140 -337t-140 -337t-337 -140t-337 140z" />
    <glyph glyph-name="ordfeminine" unicode="&#xaa;" horiz-adv-x="648" 
 />
    <glyph glyph-name="guillemotleft" unicode="&#xab;" horiz-adv-x="807" 
d="M110 706q-10 10 0 20l291 291q10 10 19 0l47 -47q10 -10 0 -20l-234 -234l234 -234q10 -10 0 -20l-47 -47q-9 -10 -19 0zM340 706q-10 10 0 20l291 291q10 10 19 0l47 -47q10 -10 0 -20l-234 -234l234 -234q10 -10 0 -20l-47 -47q-9 -10 -19 0z" />
    <glyph glyph-name="logicalnot" unicode="&#xac;" horiz-adv-x="1040" 
d="M100 767h840v-491l-1 -1h-98v392h-741v100z" />
    <glyph glyph-name="registered" unicode="&#xae;" horiz-adv-x="1152" 
d="M530 836h72q15 0 26 -11t11 -26t-11 -26t-26 -11h-72v74zM722 503q8 0 12 7q4 6 1 13l-75 158q35 18 55 52q21 35 18 76q-4 51 -44 87q-39 34 -92 34h-148q-14 0 -14 -13v-400q0 -14 14 -14h67q14 0 14 14v151h32l74 -157q3 -8 12 -8h74zM306 986q-112 -111 -112 -269
t112 -270t270 -112t269 112q112 112 112 270t-112 269q-111 112 -269 112t-270 -112zM239 380q-139 140 -139 337t139 336q140 140 337 140t336 -140q140 -139 140 -336t-140 -337q-139 -139 -336 -139t-337 139z" />
    <glyph glyph-name="macron" unicode="&#xaf;" horiz-adv-x="670" 
 />
    <glyph glyph-name="degree" unicode="&#xb0;" horiz-adv-x="756" 
d="M379 1372q-86 0 -147.5 -61t-61.5 -148t61 -147t148 -60t147 60t60 147t-60.5 148t-146.5 61zM379 1442q115 0 196 -81.5t81 -196.5q0 -114 -82 -196t-197 -82q-117 0 -197 81t-80 197t81.5 197t197.5 81z" />
    <glyph glyph-name="plusminus" unicode="&#xb1;" horiz-adv-x="760" 
d="M427 866v219q0 14 -14 14h-66q-14 0 -14 -14v-219h-219q-14 0 -14 -13v-67q0 -14 14 -14h219v-219q0 -14 14 -14h66q14 0 14 14v219h219q14 0 14 14v67q0 13 -14 13h-219zM114 429q-14 0 -14 -14v-67q0 -14 14 -14h532q14 0 14 14v67q0 14 -14 14h-532z" />
    <glyph glyph-name="uni00B2" unicode="&#xb2;" horiz-adv-x="1014" 
 />
    <glyph glyph-name="uni00B3" unicode="&#xb3;" horiz-adv-x="1014" 
 />
    <glyph glyph-name="acute" unicode="&#xb4;" horiz-adv-x="661" 
d="M391 1375q35 35 55.5 47t40.5 12q33 0 53.5 -20t20.5 -51q0 -22 -15.5 -42t-46.5 -40l-330 -203h-69z" />
    <glyph glyph-name="mu" unicode="&#xb5;" horiz-adv-x="895" 
d="M180 875q14 0 14 -14v-476v0l2 -41v-16l1 -7q0 -4 1 -8q1 -12 3 -22q6 -29 20 -57q16 -35 43 -64q32 -33 74 -54q46 -23 98 -25h13h14l13 1l13 2q28 4 53 14q53 21 92 63q38 41 56 96q8 25 10 53q1 11 1 28v31v120v28v27v52q-1 133 -1 221v34q0 13 14 13h67q14 0 13 -13
v-34v-221v-25v-27q-1 -30 -1 -55v-120v-31v-17q-1 -11 -2 -19q-3 -38 -14 -73q-25 -74 -77 -130q-53 -56 -125 -84q-35 -13 -72 -19l-18 -2l-19 -1h-8l-4 -1h-3h-2l-18 1q-70 5 -132 36q-56 28 -97 74l-4 5l-4 4v-268q0 -14 -14 -14h-67q-13 0 -13 14v1007q0 14 13 14h67z
" />
    <glyph glyph-name="paragraph" unicode="&#xb6;" horiz-adv-x="786" 
d="M375 1221q-125 0 -200 -67t-75 -177q0 -107 71 -173t193 -72v-504q0 -14 14 -14h31q14 0 14 14v944h117v-944q0 -14 13 -14h30q14 0 14 14v944h75q14 0 14 14v22q0 13 -14 13h-297z" />
    <glyph glyph-name="periodcentered" unicode="&#xb7;" horiz-adv-x="336" 
d="M216 601q-20 -20 -48 -20t-48 20t-20 48q0 29 20 48q20 20 48 20t48 -20q20 -19 20 -48q0 -28 -20 -48z" />
    <glyph glyph-name="periodcentered" unicode="&#x2219;" horiz-adv-x="336" 
d="M216 601q-20 -20 -48 -20t-48 20t-20 48q0 29 20 48q20 20 48 20t48 -20q20 -19 20 -48q0 -28 -20 -48z" />
    <glyph glyph-name="uni00B9" unicode="&#xb9;" horiz-adv-x="1014" 
 />
    <glyph glyph-name="ordmasculine" unicode="&#xba;" horiz-adv-x="718" 
 />
    <glyph glyph-name="guillemotright" unicode="&#xbb;" horiz-adv-x="807" 
d="M406 415q-10 -10 -19 0l-47 47q-10 10 0 20l234 234l-234 234q-10 10 0 20l47 47q9 10 19 0l291 -291q10 -10 0 -20zM176 415q-10 -10 -19 0l-47 47q-10 10 0 20l234 234l-234 234q-10 10 0 20l47 47q9 10 19 0l291 -291q10 -10 0 -20z" />
    <glyph glyph-name="onequarter" unicode="&#xbc;" horiz-adv-x="1708" 
 />
    <glyph glyph-name="onehalf" unicode="&#xbd;" horiz-adv-x="1964" 
 />
    <glyph glyph-name="threequarters" unicode="&#xbe;" horiz-adv-x="1708" 
 />
    <glyph glyph-name="questiondown" unicode="&#xbf;" horiz-adv-x="853" 
d="M100 423q1 -46 11 -86q11 -46 34 -83q24 -40 61 -69q35 -27 78 -43q38 -14 85 -20q18 -2 43 -3h41q86 5 164 43q37 19 72 44q17 13 32 27q13 12 22 21q10 11 -2 20l-44 37q-10 8 -19 -1q-7 -7 -14 -13q-13 -11 -27 -22q-28 -20 -58 -35q-63 -30 -131 -34h-35q-20 1 -33 3
q-37 5 -65 15q-63 24 -94 76q-16 26 -23 58q-7 30 -8 66v8l1 10v7l1 7q1 13 6 31q9 30 26 57q31 47 98 89q40 26 131 70l18 9q8 3 8 12v20l1 294q0 14 -14 14h-67q-14 0 -14 -14l1 -265q-72 -36 -113 -63q-83 -53 -125 -116q-25 -39 -37 -83q-6 -25 -8 -44l-2 -11v-12
l-1 -10v-11zM481 1195q20 20 20 49q0 28 -20 48t-49 20q-28 0 -48 -20t-20 -48q0 -29 20 -49t48 -20q29 0 49 20z" />
    <glyph glyph-name="Agrave" unicode="&#xc0;" 
d="M457 1638q-14 2 -12 15l10 66q2 14 16 12l410 -61q13 -2 11 -16l-10 -66q-2 -14 -15 -11zM925 689l-260 626l-260 -626h520zM708 1434q9 0 13 -8l584 -1407q3 -7 -1 -13t-12 -6h-72q-9 0 -13 9l-243 586h-598l-244 -586q-4 -9 -13 -9h-72q-7 0 -12 6q-4 6 -1 13l584 1407
q4 8 13 8h87z" />
    <glyph glyph-name="Aacute" unicode="&#xc1;" 
d="M460 1577l410 61q14 2 12 15l-10 66q-2 14 -16 12l-410 -61q-13 -2 -11 -16l10 -66q2 -14 15 -11zM925 689l-260 626l-260 -626h520zM708 1434q9 0 13 -8l584 -1407q3 -7 -1 -13t-12 -6h-72q-9 0 -13 9l-243 586h-598l-244 -586q-4 -9 -13 -9h-72q-7 0 -12 6q-4 6 -1 13
l584 1407q4 8 13 8h87z" />
    <glyph glyph-name="Acircumflex" unicode="&#xc2;" 
d="M667 1688l-214 -85q-12 -5 -18 8l-24 62q-5 13 8 18l243 97q6 2 11 0l242 -100q13 -5 8 -18l-26 -62q-5 -13 -18 -7zM925 689l-260 626l-260 -626h520zM708 1434q9 0 13 -8l584 -1407q3 -7 -1 -13t-12 -6h-72q-9 0 -13 9l-243 586h-598l-244 -586q-4 -9 -13 -9h-72
q-7 0 -12 6q-4 6 -1 13l584 1407q4 8 13 8h87z" />
    <glyph glyph-name="Atilde" unicode="&#xc3;" 
d="M789 1652q-29 -2 -66 -7l-67 -10q-177 -27 -267 -2q-10 3 -10 13v66q0 7 6 11q5 4 12 3q59 -16 133 -11q30 1 67 6l66 10q177 28 267 3q10 -3 10 -14v-66q0 -7 -5 -11q-6 -4 -12 -2q-59 15 -134 11zM925 689l-260 626l-260 -626h520zM708 1434q9 0 13 -8l584 -1407
q3 -7 -1 -13t-12 -6h-72q-9 0 -13 9l-243 586h-598l-244 -586q-4 -9 -13 -9h-72q-7 0 -12 6q-4 6 -1 13l584 1407q4 8 13 8h87z" />
    <glyph glyph-name="Adieresis" unicode="&#xc4;" 
d="M598 1595q-20 -20 -48 -20t-48 20t-20 49q0 28 20 48t48 20t48 -20t20 -48q0 -29 -20 -49zM826 1595q-20 -20 -48 -20t-48 20t-20 49q0 28 20 48t48 20t48 -20t20 -48q0 -29 -20 -49zM925 689l-260 626l-260 -626h520zM708 1434q9 0 13 -8l584 -1407q3 -7 -1 -13t-12 -6
h-72q-9 0 -13 9l-243 586h-598l-244 -586q-4 -9 -13 -9h-72q-7 0 -12 6q-4 6 -1 13l584 1407q4 8 13 8h87z" />
    <glyph glyph-name="Aring" unicode="&#xc5;" horiz-adv-x="1328" 
d="M613 1794q-21 -21 -21 -51t21 -51t51 -21t51 21t21 51t-21 51t-51 21t-51 -21zM546 1625q-48 49 -48 118t48 117q49 49 118 49t118 -49q48 -48 48 -117t-48 -118q-49 -49 -118 -49t-118 49zM404 688l260 625l260 -625h-520zM621 1433q-10 0 -13 -9l-584 -1405
q-3 -7 1 -13q5 -6 12 -6h72q9 0 13 9l243 585h598l243 -585q4 -9 13 -9h72q7 0 11 6q5 6 2 13l-584 1405q-3 9 -13 9h-86z" />
    <glyph glyph-name="AE" unicode="&#xc6;" horiz-adv-x="1709" 
d="M754 690h-349l251 604l20 46h78v-650zM1678 1421q0 14 -14 14h-1043q-9 0 -12 -9l-585 -1407q-3 -7 1 -13q5 -6 12 -6h72q9 0 13 9l244 586h388v-581q0 -14 14 -14h896q14 0 14 14v67q0 13 -14 13h-816v501h543q14 0 14 14v67q0 14 -14 14h-543v650h816q14 0 14 14v67z
" />
    <glyph glyph-name="Ccedilla" unicode="&#xc7;" horiz-adv-x="1243" 
d="M493 59q-130 56 -230 157q-100 102 -153 233q-55 136 -52 285q6 274 196 475q190 202 464 224q243 19 446 -113q12 -8 4 -19l-37 -56q-8 -11 -19 -3q-176 113 -387 97q-238 -19 -404 -196q-166 -178 -169 -417q-1 -128 47 -245q47 -113 133 -201q87 -87 199 -135
q117 -50 244 -50q184 0 338 100q11 7 19 -4l37 -55q8 -12 -4 -19q-177 -116 -390 -116q-148 0 -282 58zM677 -290q-43 38 -49 96q-2 15 14 15h67q11 0 13 -11q5 -23 25 -35q21 -13 46 -5q26 8 34 34q9 28 -8 50q-16 22 -44 22h-33q-14 0 -14 13v114h95v-41q45 -15 73 -55
q29 -40 28 -90q-2 -58 -44 -100q-42 -43 -100 -44q-59 -2 -103 37z" />
    <glyph glyph-name="Egrave" unicode="&#xc8;" horiz-adv-x="1109" 
d="M1064 1337q14 0 14 14v67q0 14 -14 14h-894q-14 0 -14 -14v-1404q0 -14 14 -14h894q14 0 14 14v66q0 14 -14 14h-814v575h542q14 0 14 14v66q0 14 -14 14h-542v574h814zM842 1588l10 66q2 14 -11 16l-410 61q-14 2 -16 -12l-10 -66q-2 -13 12 -15l410 -61q13 -3 15 11z
" />
    <glyph glyph-name="Eacute" unicode="&#xc9;" horiz-adv-x="1109" 
d="M1064 1337q14 0 14 14v67q0 14 -14 14h-894q-14 0 -14 -14v-1404q0 -14 14 -14h894q14 0 14 14v66q0 14 -14 14h-814v575h542q14 0 14 14v66q0 14 -14 14h-542v574h814zM430 1577l410 61q14 2 12 15l-10 66q-2 14 -16 12l-410 -61q-13 -2 -11 -16l10 -66q2 -14 15 -11z
" />
    <glyph glyph-name="Ecircumflex" unicode="&#xca;" horiz-adv-x="632" 
d="M537 1608l26 62q5 13 -8 18l-242 100q-5 2 -11 0l-243 -97q-13 -5 -8 -18l24 -62q6 -13 18 -8l214 85l212 -87q13 -6 18 7zM772 1418q0 13 -14 13h-894q-14 0 -14 -13v-1404q0 -14 14 -14h894q14 0 14 14v66q0 14 -14 14h-814v575h542q14 0 14 13v67q0 14 -14 14h-542
v574h814q14 0 14 14v67z" />
    <glyph glyph-name="Edieresis" unicode="&#xcb;" horiz-adv-x="1110" 
d="M1079 1419q0 14 -14 14h-895q-14 0 -14 -14v-1405q0 -14 14 -14h895q14 0 14 14v67q0 13 -14 13h-815v575h543q14 0 14 14v67q0 14 -14 14h-543v575h815q14 0 14 14v66zM581 1639q-20 -20 -48 -20t-48 20t-20 48t20 48t48 20t48 -20t20 -48t-20 -48zM809 1639
q-20 -20 -48 -20t-48 20t-20 48t20 48t48 20t48 -20t20 -48t-20 -48z" />
    <glyph glyph-name="Igrave" unicode="&#xcc;" horiz-adv-x="481" 
d="M273 0q14 0 14 14v1404q0 14 -14 14h-67q-14 0 -14 -14v-1404q0 -14 14 -14h67zM28 1612q-14 2 -12 16l10 66q2 14 16 12l409 -61q14 -2 12 -16l-10 -66q-2 -14 -16 -12z" />
    <glyph glyph-name="Iacute" unicode="&#xcd;" horiz-adv-x="489" 
d="M219 0q-14 0 -14 14v1404q0 14 14 14h67q14 0 14 -14v-1404q0 -14 -14 -14h-67zM55 1551l409 61q14 2 12 16l-10 66q-2 14 -16 12l-409 -61q-14 -2 -12 -16l10 -66q2 -14 16 -12z" />
    <glyph glyph-name="Icircumflex" unicode="&#xce;" horiz-adv-x="470" 
d="M241 0q-14 0 -14 14v1404q0 14 14 14h67q14 0 14 -14v-1404q0 -14 -14 -14h-67zM275 1688l-214 -85q-12 -5 -18 8l-24 62q-5 13 8 18l243 97q6 2 11 0l242 -100q13 -5 8 -18l-26 -62q-5 -13 -18 -7z" />
    <glyph glyph-name="Idieresis" unicode="&#xcf;" horiz-adv-x="417" 
d="M190 0q-14 0 -14 14v1404q0 14 14 14h67q14 0 14 -14v-1404q0 -14 -14 -14h-67zM158 1594q-20 -20 -48 -20t-48 20t-20 49q0 28 20 48t48 20t48 -20t20 -48q0 -29 -20 -49zM386 1594q-20 -20 -48 -20t-48 20t-20 49q0 28 20 48t48 20t48 -20t20 -48q0 -29 -20 -49z" />
    <glyph glyph-name="Eth" unicode="&#xd0;" horiz-adv-x="1518" 
 />
    <glyph glyph-name="Ntilde" unicode="&#xd1;" horiz-adv-x="1325" 
d="M785 1671q-29 -2 -66 -6l-67 -10q-176 -28 -266 -3q-10 3 -10 14v65q0 7 5 11q6 4 12 3q59 -16 133 -11q30 1 67 6l66 10q177 28 266 2q11 -2 11 -13v-66q0 -6 -6 -11q-5 -4 -12 -2q-59 15 -133 11zM1161 14q0 -14 -14 -14h-7q-7 0 -11 6l-879 1173v-1165q0 -14 -14 -14
h-66q-14 0 -14 14v1404q0 15 14 15h2q7 0 11 -6l884 -1181v1173q0 14 14 14h66q14 0 14 -14v-1405z" />
    <glyph glyph-name="Ograve" unicode="&#xd2;" horiz-adv-x="1589" 
d="M530 1289q-112 -47 -198 -133t-133 -198q-49 -115 -49 -242q0 -126 49 -241q47 -112 133 -198t198 -133q115 -49 241 -49q127 0 242 49q112 47 198 133t133 198q49 115 49 241q0 127 -49 242q-47 112 -133 198t-198 133q-115 49 -242 49q-126 0 -241 -49zM493 56
q-129 55 -228 154t-154 228q-56 133 -56 278q0 146 56 279q55 129 154 228t228 153q133 57 278 57q146 0 279 -57q129 -54 228 -153t153 -228q57 -133 57 -279q0 -145 -57 -278q-54 -129 -153 -228t-228 -154q-133 -56 -279 -56q-145 0 -278 56zM559 1634q-14 2 -12 16
l10 66q2 14 16 12l411 -62q14 -2 11 -15l-9 -67q-2 -13 -16 -11z" />
    <glyph glyph-name="Oacute" unicode="&#xd3;" horiz-adv-x="1589" 
d="M771 1338q-126 0 -241 -49q-112 -47 -198 -133t-133 -198q-49 -115 -49 -242q0 -126 49 -241q47 -112 133 -198t198 -133q115 -49 241 -49q127 0 242 49q112 47 198 133t133 198q49 115 49 241q0 127 -49 242q-47 112 -133 198t-198 133q-115 49 -242 49zM771 0
q-145 0 -278 56q-129 55 -228 154t-154 228q-56 133 -56 278q0 146 56 279q55 129 154 228t228 153q133 57 278 57q146 0 279 -57q129 -54 228 -153t153 -228q57 -133 57 -279q0 -145 -57 -278q-54 -129 -153 -228t-228 -154q-133 -56 -279 -56zM573 1573q-14 -2 -16 11
l-10 67q-2 13 12 15l411 62q14 2 16 -12l9 -66q3 -14 -11 -16z" />
    <glyph glyph-name="Ocircumflex" unicode="&#xd4;" horiz-adv-x="1593" 
d="M531 1293q-112 -47 -198 -134q-87 -86 -134 -198q-49 -116 -49 -243q0 -126 49 -242q47 -112 134 -198q86 -87 198 -134q116 -49 242 -49q127 0 243 49q112 47 198 134q87 86 134 198q49 116 49 242q0 127 -49 243q-47 112 -134 198q-86 87 -198 134q-116 49 -243 49
q-126 0 -242 -49zM494 57q-129 54 -228 154q-100 99 -154 228q-57 134 -57 279q0 146 57 280q54 129 154 228q99 100 228 154q134 57 279 57q146 0 280 -57q129 -54 228 -154q100 -99 154 -228q57 -134 57 -280q0 -145 -57 -279q-54 -129 -154 -228q-99 -100 -228 -154
q-134 -57 -280 -57q-145 0 -279 57zM774 1659l-214 -85q-13 -6 -18 7l-25 63q-5 13 8 18l244 97q5 2 10 0l244 -100q13 -5 7 -18l-25 -62q-5 -13 -18 -8z" />
    <glyph glyph-name="Otilde" unicode="&#xd5;" horiz-adv-x="1593" 
d="M531 1293q-112 -47 -198 -134q-87 -86 -134 -198q-49 -116 -49 -243q0 -126 49 -242q47 -112 134 -198q86 -87 198 -134q116 -49 242 -49q127 0 243 49q112 47 198 134q87 86 134 198q49 116 49 242q0 127 -49 243q-47 112 -134 198q-86 87 -198 134q-116 49 -243 49
q-126 0 -242 -49zM494 57q-129 54 -228 154q-100 99 -154 228q-57 134 -57 279q0 146 57 280q54 129 154 228q99 100 228 154q134 57 279 57q146 0 280 -57q129 -54 228 -154q100 -99 154 -228q57 -134 57 -280q0 -145 -57 -279q-54 -129 -154 -228q-99 -100 -228 -154
q-134 -57 -280 -57q-145 0 -279 57zM903 1634q-29 -2 -66 -7l-67 -10q-177 -28 -268 -2q-10 2 -10 13v66q0 7 6 11q5 4 12 2q59 -15 133 -11q30 2 67 7l67 10q177 28 268 2q10 -2 10 -13v-66q0 -7 -6 -11q-5 -4 -12 -2q-59 15 -134 11z" />
    <glyph glyph-name="Odieresis" unicode="&#xd6;" horiz-adv-x="1593" 
d="M531 1293q-112 -47 -198 -134q-87 -86 -134 -198q-49 -116 -49 -243q0 -126 49 -242q47 -112 134 -198q86 -87 198 -134q116 -49 242 -49q127 0 243 49q112 47 198 134q87 86 134 198q49 116 49 242q0 127 -49 243q-47 112 -134 198q-86 87 -198 134q-116 49 -243 49
q-126 0 -242 -49zM494 57q-129 54 -228 154q-100 99 -154 228q-57 134 -57 279q0 146 57 280q54 129 154 228q99 100 228 154q134 57 279 57q146 0 280 -57q129 -54 228 -154q100 -99 154 -228q57 -134 57 -280q0 -145 -57 -279q-54 -129 -154 -228q-99 -100 -228 -154
q-134 -57 -280 -57q-145 0 -279 57zM707 1579q-20 -20 -48 -20t-49 20q-20 20 -20 49q0 28 20 48q21 20 49 20t48 -20q21 -20 21 -48q0 -29 -21 -49zM936 1579q-20 -20 -48 -20t-49 20q-20 20 -20 49q0 28 20 48q21 20 49 20t48 -20q21 -20 21 -48q0 -29 -21 -49z" />
    <glyph glyph-name="multiply" unicode="&#xd7;" horiz-adv-x="663" 
d="M399 717l155 155q9 10 0 20l-48 47q-9 10 -19 0l-155 -155l-155 155q-10 10 -20 0l-47 -47q-10 -10 0 -20l155 -155l-155 -155q-10 -9 0 -19l47 -47q10 -10 20 0l155 155l155 -155q10 -10 19 0l48 47q9 10 0 19z" />
    <glyph glyph-name="Oslash" unicode="&#xd8;" horiz-adv-x="1575" 
d="M1282 1182q76 -86 121 -192q56 -132 56 -277t-56 -277q-54 -128 -153 -227t-227 -153q-132 -56 -277 -56t-277 56q-106 45 -192 121l-68 -68q-10 -9 -20 0l-47 47q-9 10 0 20l68 68q-76 86 -121 192q-56 132 -56 277t56 277q54 128 153 227t227 153q132 56 277 56
t277 -56q106 -45 192 -121l68 68q10 9 19 0l48 -48q9 -9 0 -19zM277 311l871 871q-72 63 -161 101q-115 49 -241 49t-241 -49q-111 -47 -196 -133q-86 -85 -133 -196q-49 -115 -49 -241t49 -241q38 -89 101 -161zM1215 1115l-871 -871q72 -63 161 -101q115 -49 241 -49
t241 49q111 47 196 133q86 85 133 196q49 115 49 241t-49 241q-38 89 -101 161z" />
    <glyph glyph-name="Ugrave" unicode="&#xd9;" horiz-adv-x="1226" 
d="M267 147q-132 141 -132 334v942q0 14 14 14h67q13 0 13 -14v-943q0 -153 105 -266q106 -113 258 -119q160 -6 276 105q115 111 115 271v952q0 14 14 14h66q14 0 14 -14v-952q0 -199 -143 -337q-143 -140 -342 -134q-191 6 -325 147zM394 1696q-14 2 -12 15l10 67
q2 13 16 11l410 -61q14 -2 12 -16l-10 -66q-2 -13 -16 -11z" />
    <glyph glyph-name="Uacute" unicode="&#xda;" horiz-adv-x="1226" 
d="M945 147q132 141 132 334v942q0 14 -14 14h-67q-13 0 -13 -14v-943q0 -153 -105 -266q-106 -113 -258 -119q-160 -6 -276 105q-115 111 -115 271v952q0 14 -14 14h-66q-14 0 -14 -14v-952q0 -199 143 -337q143 -140 342 -134q191 6 325 147zM408 1635l410 61q14 2 12 15
l-10 67q-2 13 -16 11l-410 -61q-14 -2 -12 -16l10 -66q2 -13 16 -11z" />
    <glyph glyph-name="Ucircumflex" unicode="&#xdb;" horiz-adv-x="1225" 
d="M267 147q-132 141 -132 334v940q0 14 14 14h67q13 0 13 -14v-941q0 -154 105 -266q105 -114 257 -119q160 -6 276 105q115 111 115 271v950q0 14 14 14h67q13 0 13 -14v-950q0 -199 -142 -338q-143 -139 -343 -133q-191 6 -324 147zM606 1774l-213 -85q-13 -5 -18 8
l-25 62q-5 13 8 18l243 97q6 2 11 0l242 -100q13 -5 7 -18l-25 -61q-5 -13 -18 -8z" />
    <glyph glyph-name="Udieresis" unicode="&#xdc;" horiz-adv-x="1225" 
d="M267 147q-132 141 -132 334v941q0 13 14 13h67q13 0 13 -13v-942q0 -154 105 -266q105 -114 257 -119q160 -6 276 105q115 111 115 271v951q0 13 14 13h67q13 0 13 -13v-951q0 -199 -142 -338q-143 -139 -343 -133q-191 6 -324 147zM534 1695q-20 -20 -48 -20t-48 20
t-20 48q0 29 20 49t48 20t48 -20t20 -49q0 -28 -20 -48zM762 1695q-20 -20 -48 -20q-29 0 -48 20q-20 20 -20 48q0 29 20 49q19 20 48 20q28 0 48 -20t20 -49q0 -28 -20 -48z" />
    <glyph glyph-name="Yacute" unicode="&#xdd;" horiz-adv-x="800" 
d="M212 1625q-2 13 11 15l411 62q14 2 16 -12l9 -66q2 -14 -11 -16l-411 -61q-14 -2 -16 12zM887 1436q8 0 12 -8q4 -7 0 -14l-408 -648l-9 -15v-737q0 -14 -14 -14h-67q-13 0 -13 14v739l-416 661q-4 7 0 14q4 8 12 8h79q8 0 12 -7l360 -574l361 574q4 7 12 7h79z" />
    <glyph glyph-name="Thorn" unicode="&#xde;" horiz-adv-x="1120" 
 />
    <glyph glyph-name="germandbls" unicode="&#xdf;" horiz-adv-x="1251" 
 />
    <glyph glyph-name="agrave" unicode="&#xe0;" horiz-adv-x="849" 
d="M547 150q-46 -36 -106 -50q-59 -13 -127 -1q-69 13 -100 55t-28 115q3 59 47 96q39 31 107 48q50 12 114 17q49 3 101 1q36 -1 78 -4q10 -1 21 -2v-30v-29v-30l-5 -19q-13 -49 -34 -87q-28 -50 -68 -80zM760 0q16 0 14 16q-10 86 -17 164q-9 107 -9 186q0 26 1 60l1 49
l-1 49q-1 56 -7 98q-18 108 -77 168q-78 80 -229 80q-106 0 -196 -41q-32 -14 -60 -34q-11 -7 -21 -15q-8 -6 -15 -13q-11 -10 0 -20l49 -45q10 -9 19 -1q5 5 11 10q8 5 16 11q22 14 47 24q68 30 150 30q111 0 161 -52q56 -56 58 -210v0l-15 1q-23 2 -38 3q-23 1 -45 2
q-55 1 -108 -2q-73 -5 -130 -19q-87 -22 -142 -66q-37 -30 -57 -69q-22 -41 -25 -89q-6 -107 43 -176q28 -39 73 -63q37 -20 86 -29q87 -14 165 4q81 20 140 69q35 29 63 68q6 -64 15 -136q1 -12 13 -12h67zM222 1069q-14 2 -12 16l10 66q2 14 16 12l410 -61q14 -2 11 -16
l-9 -66q-2 -14 -16 -12z" />
    <glyph glyph-name="aacute" unicode="&#xe1;" horiz-adv-x="849" 
d="M547 150q-46 -36 -106 -50q-59 -13 -127 -1q-69 13 -100 55t-28 115q3 59 47 96q39 31 107 48q50 12 114 17q49 3 101 1q36 -1 78 -4q10 -1 21 -2v-30v-29v-30l-5 -19q-13 -49 -34 -87q-28 -50 -68 -80zM760 0q16 0 14 16q-10 86 -17 164q-9 107 -9 186q0 26 1 60l1 49
l-1 49q-1 56 -7 98q-18 108 -77 168q-78 80 -229 80q-106 0 -196 -41q-32 -14 -60 -34q-11 -7 -21 -15q-8 -6 -15 -13q-11 -10 0 -20l49 -45q10 -9 19 -1q5 5 11 10q8 5 16 11q22 14 47 24q68 30 150 30q111 0 161 -52q56 -56 58 -210v0l-15 1q-23 2 -38 3q-23 1 -45 2
q-55 1 -108 -2q-73 -5 -130 -19q-87 -22 -142 -66q-37 -30 -57 -69q-22 -41 -25 -89q-6 -107 43 -176q28 -39 73 -63q37 -20 86 -29q87 -14 165 4q81 20 140 69q35 29 63 68q6 -64 15 -136q1 -12 13 -12h67zM236 1008q-14 -2 -16 12l-10 66q-2 14 12 16l410 61q14 2 16 -12
l9 -66q3 -14 -11 -16z" />
    <glyph glyph-name="acircumflex" unicode="&#xe2;" horiz-adv-x="849" 
d="M546 150q-45 -36 -105 -50q-60 -13 -128 -1q-69 13 -99 55q-31 42 -28 115q2 59 47 96q39 31 107 48q49 12 114 17q49 3 100 1q36 -1 78 -4q10 -1 22 -2l-1 -30v-29v-30l-4 -19q-14 -49 -35 -87q-28 -50 -68 -80zM760 0q16 0 14 16q-11 86 -18 164q-9 107 -9 186
q0 26 1 60l1 49v49q-1 56 -8 98q-17 108 -77 168q-78 80 -228 80q-107 0 -196 -41q-33 -14 -61 -34q-11 -7 -21 -15q-8 -6 -15 -13q-11 -10 0 -20l50 -45q9 -9 18 -1l12 10q7 5 16 11q21 14 46 24q69 30 151 30q111 0 161 -52q55 -56 57 -210v0l-15 1q-22 2 -38 3
q-23 1 -44 2q-56 1 -109 -2q-72 -5 -130 -19q-87 -22 -141 -66q-38 -30 -58 -69q-21 -41 -25 -89q-5 -107 43 -176q29 -39 74 -63q37 -20 85 -29q87 -14 165 4q82 20 141 69q35 29 62 68q6 -64 15 -136q2 -12 14 -12h67zM435 1116l-213 -85q-13 -5 -18 8l-25 62q-5 13 8 18
l248 99l248 -102q13 -5 7 -18l-25 -61q-5 -13 -18 -8z" />
    <glyph glyph-name="atilde" unicode="&#xe3;" horiz-adv-x="849" 
d="M547 150q-46 -36 -106 -50q-60 -13 -128 -1q-69 13 -99 55q-31 42 -28 115q2 59 47 96q39 31 107 48q49 13 114 17q49 3 100 1q37 -1 78 -4l22 -2v-30l-1 -29l1 -30l-5 -19q-13 -49 -34 -87q-28 -50 -68 -80zM760 0q16 0 14 16q-11 86 -17 164q-9 107 -9 186q0 26 1 60
v49v49q-1 56 -8 98q-17 108 -76 168q-79 80 -229 80q-106 0 -196 -41q-33 -14 -61 -34q-11 -7 -21 -15q-8 -6 -15 -13q-11 -10 0 -20l50 -45q9 -9 18 -1l12 10q7 5 16 11q22 14 46 25q69 29 151 29q111 0 161 -52q55 -56 58 -210v0l-15 1q-23 2 -38 3q-24 1 -45 2
q-56 1 -109 -2q-72 -5 -129 -19q-88 -22 -142 -66q-37 -30 -58 -69q-21 -41 -24 -89q-6 -107 43 -176q28 -39 73 -63q37 -20 85 -29q88 -14 165 4q82 20 141 69q35 29 63 68q5 -64 14 -136q2 -12 14 -12h67zM563 1054q-29 -1 -66 -6l-67 -10q-176 -28 -266 -3q-10 3 -10 14
v66q0 6 5 10q6 5 12 3q59 -15 134 -11q29 2 66 6l67 10q176 28 266 3q10 -3 10 -14v-65q0 -7 -5 -11q-6 -4 -12 -3q-59 15 -134 11z" />
    <glyph glyph-name="adieresis" unicode="&#xe4;" horiz-adv-x="848" 
d="M546 149q-46 -35 -106 -49q-59 -13 -127 -1q-69 13 -99 55q-31 42 -28 114q2 60 47 96q39 32 107 48q49 13 114 17q48 3 100 1q36 -1 77 -4l22 -2v-30l-1 -29l1 -29l-5 -20q-13 -49 -34 -86q-28 -50 -68 -81zM759 0q16 0 14 15q-11 87 -17 164q-9 107 -9 186v60l1 49v49
q-1 56 -8 98q-17 107 -76 168q-78 80 -229 80q-106 0 -195 -41q-33 -15 -61 -34q-11 -8 -21 -16q-8 -6 -15 -12q-11 -10 1 -20l49 -46q9 -8 18 0q6 5 12 9q7 6 16 12q21 14 46 24q68 29 150 29q111 0 161 -51q56 -57 58 -210v0l-15 1q-23 2 -38 3q-23 1 -45 2q-55 1 -108 -2
q-73 -5 -130 -19q-87 -22 -141 -65q-37 -31 -58 -70q-21 -40 -24 -89q-6 -107 43 -175q28 -40 73 -63q37 -20 85 -29q87 -14 165 4q81 20 140 69q35 28 63 67q5 -63 14 -135q2 -12 14 -12h67zM368 1063q-20 -20 -48 -20q-29 0 -49 20q-19 20 -19 48t19 48q20 20 49 20
q28 0 48 -20t20 -48t-20 -48zM596 1063q-20 -20 -49 -20q-28 0 -48 20t-20 48t20 48t48 20q29 0 49 -20t20 -48t-20 -48z" />
    <glyph glyph-name="aring" unicode="&#xe5;" horiz-adv-x="850" 
d="M547 150q-45 -36 -106 -50q-59 -13 -127 -1q-69 13 -100 56q-31 42 -28 114q3 60 48 96q38 32 106 49q50 12 115 16q49 3 100 2q37 -1 78 -5q10 -1 22 -2l-1 -30v-28v-30l-4 -20q-13 -49 -34 -87q-29 -49 -69 -80zM761 0q16 0 14 16q-11 86 -17 164q-9 107 -9 187
q0 25 1 60v48v50q-1 55 -8 98q-17 108 -76 168q-79 80 -230 80q-106 0 -196 -41q-32 -14 -60 -34q-11 -7 -21 -15q-8 -6 -15 -13q-11 -10 0 -20l49 -45q10 -9 19 -1q5 5 11 9l16 12q22 14 47 24q68 30 150 30q112 0 162 -52q55 -57 57 -210v0l-15 1q-22 2 -37 2q-24 2 -45 2
q-56 2 -109 -1q-73 -5 -130 -19q-87 -22 -142 -66q-37 -30 -57 -70q-22 -40 -25 -89q-6 -107 43 -176q28 -39 73 -63q37 -20 86 -29q87 -14 165 4q82 20 141 69q35 29 63 68q5 -64 14 -136q2 -12 14 -12h67zM385 1225q-22 -21 -22 -51t22 -51q21 -21 51 -21q29 0 51 21
q21 21 21 51t-21 51q-22 21 -51 21q-30 0 -51 -21zM318 1056q-49 49 -49 118t49 118t118 49t117 -49q49 -49 49 -118t-49 -118q-48 -49 -117 -49t-118 49z" />
    <glyph glyph-name="ae" unicode="&#xe6;" horiz-adv-x="1496" 
d="M707 437l1 24q9 136 100 224q91 89 222 89q129 0 218 -78t103 -203zM608 316q-14 -49 -34 -87q-29 -49 -68 -80q-46 -35 -106 -49q-59 -13 -127 -1q-69 13 -99 55q-31 42 -28 114q2 59 47 96q38 32 106 48q50 13 114 17q49 3 100 1q37 -1 78 -4q9 -1 21 -2l1 -8l-1 -25
v-26v-29zM1448 441q0 175 -121 301q-123 126 -296 126q-107 1 -199 -50q-90 -49 -147 -136q-20 65 -62 107q-78 79 -228 79q-106 0 -196 -40q-32 -15 -60 -34q-11 -8 -21 -16q-8 -6 -15 -12q-11 -10 0 -21l50 -45q9 -8 18 0q5 4 12 9q7 6 16 11q21 14 46 25q68 29 150 29
q111 0 161 -51q55 -57 57 -210v0l-15 1q-22 2 -37 3q-24 1 -45 2q-56 1 -108 -2q-73 -5 -130 -19q-87 -22 -141 -66q-38 -30 -58 -69q-21 -40 -24 -89q-6 -107 42 -175q29 -40 74 -63q37 -20 85 -29q87 -14 165 4q81 20 140 69q35 28 62 67q6 -63 15 -135q1 -12 14 -12h67
q15 0 13 15q-8 70 -14 136q61 -71 145 -110q87 -41 183 -41q116 0 218 58q101 59 159 159l-82 47q-45 -78 -125 -124q-79 -46 -170 -46q-115 0 -207 71q-90 70 -120 179l729 63v34z" />
    <glyph glyph-name="ccedilla" unicode="&#xe7;" horiz-adv-x="789" 
d="M684 139q-7 11 -18 4q-83 -51 -180 -51q-145 0 -246 104q-101 105 -95 250q5 134 102 229q97 96 231 99q101 2 187 -51q11 -7 19 4l37 55q8 12 -4 20q-131 83 -288 63q-150 -19 -257 -129q-106 -111 -120 -262q-16 -176 93 -313q108 -135 278 -159v-96q0 -14 14 -14h34
q18 0 29 -14t6 -32q-5 -21 -25 -26q-16 -4 -29 3q-13 8 -17 22q-3 10 -13 10h-68q-16 0 -14 -15q7 -56 52 -90q47 -35 105 -24q38 8 66 36q29 28 36 66q11 49 -14 92q-23 41 -67 58v21q108 7 200 65q12 8 4 20z" />
    <glyph glyph-name="egrave" unicode="&#xe8;" horiz-adv-x="1017" 
d="M709 1024q-1 -14 -15 -12l-411 53q-14 2 -12 15l8 67q2 13 16 12l411 -54q14 -1 12 -15zM264 679q-93 -96 -94 -241l646 56q-14 125 -103 203q-89 79 -218 79q-138 0 -231 -97zM203 128q-127 127 -127 307q0 184 122 310t299 125q173 -1 295 -127q121 -126 121 -300v-22
q0 -13 -12 -14l-719 -63q31 -109 121 -179q92 -71 208 -71q87 0 164 43t124 116q7 12 19 5l57 -33q13 -7 5 -19q-59 -96 -158 -151t-211 -55q-180 0 -308 128z" />
    <glyph glyph-name="eacute" unicode="&#xe9;" horiz-adv-x="1017" 
d="M271 1090q-2 14 12 15l411 54q14 1 15 -12l9 -67q2 -13 -12 -15l-411 -53q-14 -2 -16 12zM264 679q-93 -96 -94 -241l646 56q-14 125 -103 203q-89 79 -218 79q-138 0 -231 -97zM203 128q-127 127 -127 307q0 184 122 310t299 125q173 -1 295 -127q121 -126 121 -300v-22
q0 -13 -12 -14l-719 -63q31 -109 121 -179q92 -71 208 -71q87 0 164 43t124 116q7 12 19 5l57 -33q13 -7 5 -19q-59 -96 -158 -151t-211 -55q-180 0 -308 128z" />
    <glyph glyph-name="ecircumflex" unicode="&#xea;" horiz-adv-x="1017" 
d="M743 1082q12 -5 7 -18l-24 -62q-5 -13 -18 -8l-213 85l-213 -87q-12 -5 -18 8l-25 61q-5 13 7 18l243 100q5 2 10 0zM264 679q-93 -96 -94 -241l647 57q-15 124 -104 202q-89 79 -218 79q-138 0 -231 -97zM203 128q-127 127 -127 307q0 184 122 310t299 125
q173 -1 295 -127q121 -126 121 -300v-22q0 -13 -12 -14l-719 -62q31 -110 121 -180q92 -71 208 -71q87 0 165 43q76 43 123 116q7 12 19 5l58 -33q12 -7 5 -19q-60 -96 -159 -151t-211 -55q-180 0 -308 128z" />
    <glyph glyph-name="edieresis" unicode="&#xeb;" horiz-adv-x="1017" 
d="M429 1051q-20 -20 -48 -20q-29 0 -49 20t-20 48q0 29 20 49t49 20q28 0 48 -20t20 -49q0 -28 -20 -48zM657 1051q-20 -20 -48 -20q-29 0 -49 20t-20 48q0 29 20 49t49 20q28 0 48 -20t20 -49q0 -28 -20 -48zM264 679q-93 -96 -94 -241l647 57q-15 124 -104 202
q-89 79 -218 79q-138 0 -231 -97zM203 128q-127 127 -127 307q0 184 122 310t299 125q173 -1 295 -127q121 -126 121 -300v-22q0 -13 -12 -14l-719 -62q31 -110 121 -180q92 -71 208 -71q87 0 165 43q76 43 123 116q7 12 19 5l58 -33q12 -7 5 -19q-60 -96 -159 -151
t-211 -55q-180 0 -308 128z" />
    <glyph glyph-name="igrave" unicode="&#xec;" horiz-adv-x="477" 
d="M450 1025q-1 -14 -15 -12l-412 53q-13 2 -12 16l9 66q2 14 15 12l412 -53q14 -2 12 -16zM202 0q-14 0 -14 14v843q0 14 14 14h67q13 0 13 -14v-843q0 -14 -13 -14h-67z" />
    <glyph glyph-name="iacute" unicode="&#xed;" horiz-adv-x="477" 
d="M11 1091q-1 14 12 16l412 53q14 2 15 -12l9 -66q2 -14 -12 -16l-412 -53q-13 -2 -15 12zM202 0q-14 0 -14 14v843q0 14 14 14h67q13 0 13 -14v-843q0 -14 -13 -14h-67z" />
    <glyph glyph-name="icircumflex" unicode="&#xee;" horiz-adv-x="479" 
d="M496 1084q13 -6 7 -18l-24 -63q-5 -12 -18 -7l-214 84l-212 -87q-13 -5 -18 8l-26 62q-5 13 8 18l243 99q5 2 10 0zM214 0q-14 0 -14 14v844q0 13 14 13h67q14 0 14 -13v-844q0 -14 -14 -14h-67z" />
    <glyph glyph-name="idieresis" unicode="&#xef;" horiz-adv-x="391" 
d="M127 1020q-20 -20 -48 -20q-29 0 -49 20t-20 48t20 49q20 20 49 20q28 0 48 -20q20 -21 20 -49t-20 -48zM355 1020q-20 -20 -48 -20q-29 0 -49 20t-20 48t20 49q20 20 49 20q28 0 48 -20q20 -21 20 -49t-20 -48zM159 0q-14 0 -14 14v842q0 14 14 14h67q14 0 14 -14v-842
q0 -14 -14 -14h-67z" />
    <glyph glyph-name="eth" unicode="&#xf0;" horiz-adv-x="1006" 
d="M271 186q-92 92 -93 221v2q0 130 93 222q92 93 222 93q76 0 144 -35t112 -97l18 -28l2 -3l1 -2q38 -70 38 -150q0 -130 -92 -223q-93 -92 -223 -92t-222 92zM852 606q-14 24 -31 47l-204 319h175q14 0 14 14v66q0 14 -14 14h-235l-233 363q-4 6 -11 6h-79q-8 0 -12 -7
t0 -14l223 -348h-171q-14 0 -14 -14v-66q0 -14 14 -14h232l110 -173q-60 19 -123 19q-169 0 -289 -120t-120 -289v-3q1 -168 121 -287t288 -119q169 0 289 120t120 289q0 104 -50 195v2z" />
    <glyph glyph-name="ntilde" unicode="&#xf1;" horiz-adv-x="904" 
d="M800 47q-1 88 -1 220v106q-1 37 -1 58v61v31q0 20 -2 37q-4 37 -16 72q-25 72 -79 127q-52 55 -125 82q-34 13 -72 18l-9 1l-9 1l-10 1h-8h-8h-10h-8h-9q-69 -5 -131 -37q-54 -28 -96 -74l-6 -7v114q0 13 -14 13h-66q-14 0 -14 -13v-844q0 -14 14 -14h66q14 0 14 14v486
l1 21v16l1 7l1 8q1 12 4 22q6 29 19 56q17 35 43 64q31 33 73 54q45 23 97 26h6h7h3h3h8h7l6 -1h6l7 -1q28 -4 53 -14q53 -21 92 -61q39 -41 57 -94q8 -26 11 -53q1 -13 2 -27v-31q-1 -55 -1 -119v-55v-26v-25q-1 -132 -1 -220v-33q0 -14 14 -14h67q14 0 14 14v33zM582 1054
q-29 -2 -66 -7l-67 -10q-176 -28 -266 -2q-10 3 -10 13v66q0 7 5 11q6 4 12 2q59 -15 133 -11q30 2 67 7l66 10q177 27 267 2q10 -3 10 -13v-66q0 -7 -6 -11q-5 -4 -12 -2q-59 15 -133 11z" />
    <glyph glyph-name="ograve" unicode="&#xf2;" horiz-adv-x="1050" 
d="M726 1023q-2 -14 -15 -12l-411 53q-14 2 -12 16l8 66q2 14 16 12l411 -53q13 -2 12 -16zM271 675q-100 -99 -100 -240t100 -241q99 -100 240 -100t241 100t100 241t-100 240q-100 100 -241 100t-240 -100zM204 127q-128 128 -128 308t128 307q127 128 307 128t308 -128
q127 -127 127 -307t-127 -308q-128 -127 -308 -127t-307 127z" />
    <glyph glyph-name="oacute" unicode="&#xf3;" horiz-adv-x="1050" 
d="M312 1011l411 53q13 2 12 16l-9 66q-2 14 -15 12l-411 -53q-14 -2 -12 -16l8 -66q2 -14 16 -12zM511 775q141 0 241 -100q100 -99 100 -240t-100 -241t-241 -100t-240 100q-100 100 -100 241t100 240q99 100 240 100zM511 0q180 0 308 127q127 128 127 308t-127 307
q-128 128 -308 128t-307 -128q-128 -127 -128 -307t128 -308q127 -127 307 -127z" />
    <glyph glyph-name="ocircumflex" unicode="&#xf4;" horiz-adv-x="1047" 
d="M509 1099l-212 -84q-13 -6 -18 7l-24 62q-6 13 7 18l243 96q5 2 10 0l242 -99q12 -5 7 -18l-25 -61q-5 -13 -18 -8zM269 674q-99 -100 -99 -240q0 -141 99 -240q100 -100 240 -100q141 0 240 100q100 99 100 240q0 140 -100 240q-99 99 -240 99q-140 0 -240 -99zM203 127
q-127 127 -127 307q0 179 127 306t306 127t307 -127q127 -127 127 -306q0 -180 -127 -307q-128 -127 -307 -127t-306 127z" />
    <glyph glyph-name="otilde" unicode="&#xf5;" horiz-adv-x="1050" 
d="M271 675q-100 -99 -100 -240t100 -241q99 -100 240 -100t241 100t100 241t-100 240q-100 100 -241 100t-240 -100zM204 127q-128 128 -128 308t128 307q127 128 307 128t308 -128q127 -127 127 -307t-127 -308q-128 -127 -308 -127t-307 127zM641 1053q-30 -1 -67 -6
l-67 -10q-176 -28 -266 -3q-10 3 -10 14v66q0 6 6 10q5 5 12 3q59 -15 133 -11q29 2 66 6l67 10q176 28 266 3q10 -3 10 -14v-65q0 -7 -5 -11q-6 -4 -12 -3q-59 16 -133 11z" />
    <glyph glyph-name="odieresis" unicode="&#xf6;" horiz-adv-x="1010" 
d="M405 1038q-20 -20 -48 -20t-48 20t-20 48t20 48t48 20t48 -20t20 -48t-20 -48zM633 1038q-20 -20 -48 -20t-48 20t-20 48t20 48t48 20t48 -20t20 -48t-20 -48zM230 676q-99 -100 -99 -241t99 -241q100 -100 241 -100t241 100t100 241t-100 241q-100 99 -241 99t-241 -99z
M164 128q-128 127 -128 307t128 307q127 128 307 128t307 -128q128 -127 128 -307t-128 -307q-127 -128 -307 -128t-307 128z" />
    <glyph glyph-name="divide" unicode="&#xf7;" horiz-adv-x="760" 
d="M113 734q-13 0 -13 -14v-66q0 -14 13 -14h533q14 0 14 14v66q0 14 -14 14h-533zM428 857q-20 -20 -48 -20q-29 0 -49 20t-20 48t20 48t49 20q28 0 48 -20t20 -48t-20 -48zM428 421q-20 -20 -48 -20q-29 0 -49 20t-20 48t20 48t49 20q28 0 48 -20t20 -48t-20 -48z" />
    <glyph glyph-name="oslash" unicode="&#xf8;" horiz-adv-x="1040" 
d="M316 149q81 -55 186 -55q141 0 240 100q100 100 100 240q0 128 -83 223zM245 212l443 507q-81 55 -186 55q-141 0 -240 -99q-100 -100 -100 -241q0 -128 83 -222zM253 78l-42 -49q-9 -10 -19 -1l-51 44q-10 9 -1 19l43 49q-115 124 -115 294q0 180 127 307
q128 127 307 127q141 0 249 -77l42 48q9 11 20 2l50 -44q10 -9 1 -20l-43 -49q115 -123 115 -294q0 -179 -127 -307q-127 -127 -307 -127q-140 0 -249 78z" />
    <glyph glyph-name="ugrave" unicode="&#xf9;" horiz-adv-x="939" 
d="M249 1061q-14 2 -12 15l8 67q2 13 16 11l411 -53q14 -2 12 -15l-9 -67q-1 -13 -15 -11zM727 872q-14 0 -14 -14v-476v0l-1 -41q0 -5 -1 -15v-7q-1 -5 -1 -9l-4 -22q-6 -28 -19 -56q-17 -35 -44 -64q-31 -33 -73 -54q-47 -23 -98 -26h-14h-14l-13 1l-13 2q-27 5 -53 15
q-53 20 -92 62q-38 41 -55 96q-8 25 -11 54q-1 11 -1 27v32q1 55 1 119v56v26v25q0 133 1 221v34q0 14 -14 14h-67q-14 0 -14 -14v-34q1 -88 1 -221v-51v-56q0 -64 1 -119v-32v-17q0 -10 1 -18q4 -39 15 -73q24 -75 77 -130q53 -57 125 -84q35 -14 72 -19l18 -2l19 -2h8h4h5
l18 1q69 4 131 36q56 28 97 73l4 5l4 5v-106q0 -14 14 -14h67q14 0 14 14v844q0 14 -14 14h-67z" />
    <glyph glyph-name="uacute" unicode="&#xfa;" horiz-adv-x="939" 
d="M261 1008q-14 -2 -16 11l-8 67q-2 13 12 15l411 53q14 2 15 -11l9 -67q2 -13 -12 -15zM727 872q-14 0 -14 -14v-476v0l-1 -41q0 -5 -1 -15v-7q-1 -5 -1 -9l-4 -22q-6 -28 -19 -56q-17 -35 -44 -64q-31 -33 -73 -54q-47 -23 -98 -26h-14h-14l-13 1l-13 2q-27 5 -53 15
q-53 20 -92 62q-38 41 -55 96q-8 25 -11 54q-1 11 -1 27v32q1 55 1 119v56v26v25q0 133 1 221v34q0 14 -14 14h-67q-14 0 -14 -14v-34q1 -88 1 -221v-51v-56q0 -64 1 -119v-32v-17q0 -10 1 -18q4 -39 15 -73q24 -75 77 -130q53 -57 125 -84q35 -14 72 -19l18 -2l19 -2h8h4h5
l18 1q69 4 131 36q56 28 97 73l4 5l4 5v-106q0 -14 14 -14h67q14 0 14 14v844q0 14 -14 14h-67z" />
    <glyph glyph-name="ucircumflex" unicode="&#xfb;" horiz-adv-x="935" 
d="M458 1111l-213 -85q-13 -5 -18 8l-25 62q-5 13 8 18l243 96q5 2 10 0l242 -99q13 -5 8 -18l-26 -62q-5 -12 -18 -7zM724 871q-14 0 -14 -14v-475v0l-2 -41v-16l-1 -7q0 -4 -1 -8q-1 -12 -3 -22q-6 -29 -20 -57q-17 -35 -43 -63q-32 -34 -74 -54q-46 -23 -97 -26h-14h-14
l-13 1l-13 2q-27 4 -53 15q-52 20 -91 62q-39 41 -56 96q-8 25 -10 53q-1 11 -1 28v31v120v55v26v25q1 133 1 221v33q0 14 -14 14h-67q-13 0 -13 -14v-33v-221v-25l1 -26v-55v-120v-31v-17q1 -11 2 -19q3 -38 15 -73q24 -74 76 -129q53 -57 125 -84q35 -14 72 -19l18 -2
l19 -2h8h4h5l18 1q69 4 131 36q56 28 97 73l4 5l4 5v-106q0 -14 14 -14h66q14 0 14 14v843q0 14 -14 14h-66z" />
    <glyph glyph-name="udieresis" unicode="&#xfc;" horiz-adv-x="939" 
d="M395 1047q-20 -20 -49 -20q-28 0 -48 20t-20 49q0 28 20 48t48 20q29 0 49 -20t20 -48q0 -29 -20 -49zM623 1047q-20 -20 -49 -20q-28 0 -48 20t-20 49q0 28 20 48t48 20q29 0 49 -20t20 -48q0 -29 -20 -49zM727 872q-14 0 -14 -13v-477l-1 -41q0 -5 -1 -15v-7
q-1 -5 -1 -9l-4 -22q-6 -28 -19 -56q-17 -35 -44 -64q-31 -33 -73 -54q-47 -23 -98 -26h-14h-14l-13 1l-13 2q-27 5 -53 15q-53 20 -92 62q-38 41 -56 96q-8 26 -10 54q-1 11 -1 28v31v120q1 25 1 55v26v26v221l1 33q0 14 -14 14h-67q-14 0 -14 -14v-33q0 -89 1 -221v-26
v-26v-55v-120v-31q0 -10 1 -18q0 -10 1 -18q4 -38 15 -73q24 -75 77 -130q53 -57 125 -84q35 -14 72 -19l18 -2l19 -2h8h4h5l18 1q69 4 131 36q56 28 97 73l4 5l4 5v-106q0 -14 14 -14h67q14 0 14 14v845q0 13 -14 13h-67z" />
    <glyph glyph-name="yacute" unicode="&#xfd;" horiz-adv-x="866" 
d="M634 1061q14 2 12 15l-8 67q-2 13 -16 12l-412 -54q-13 -2 -12 -15l9 -67q2 -13 15 -12zM330 -377q-3 -8 -13 -8h-72q-7 0 -11 6q-5 6 -2 13l145 359l-357 859q-3 7 2 13q4 7 11 7h73q9 0 12 -9l309 -744l299 744q4 9 13 9h72q8 0 12 -7q4 -6 1 -12z" />
    <glyph glyph-name="thorn" unicode="&#xfe;" horiz-adv-x="1010" 
 />
    <glyph glyph-name="ydieresis" unicode="&#xff;" horiz-adv-x="873" 
d="M359 1077q-20 -21 -49 -21t-49 21q-20 20 -20 48q0 29 20 49t49 20t49 -20t20 -49q0 -28 -20 -48zM589 1077q-20 -21 -48 -21q-29 0 -49 21q-20 20 -20 48q0 29 20 49t49 20q28 0 48 -20q21 -20 21 -49q0 -28 -21 -48zM332 -384q-3 -9 -13 -9h-73q-7 0 -11 6t-2 13
l146 363l-359 867q-3 7 1 14q4 6 11 6h74q9 0 12 -9l312 -751l302 751q4 9 13 9h73q8 0 12 -6q4 -7 1 -13z" />
    <glyph glyph-name="dotlessi" unicode="&#x131;" horiz-adv-x="443" 
d="M28 761q-10 -10 0 -20l47 -47q10 -10 19 0l106 106v-786q0 -14 14 -14h66q14 0 14 14v905q0 14 -14 14h-74q-6 0 -10 -4z" />
    <glyph glyph-name="circumflex" unicode="&#x2c6;" horiz-adv-x="821" 
d="M109 1040q-9 10 0 20l292 291q9 10 19 0l291 -291q10 -10 0 -20l-47 -47q-9 -9 -19 0l-235 235l-234 -235q-10 -9 -19 0z" />
    <glyph glyph-name="caron" unicode="&#x2c7;" horiz-adv-x="821" 
d="M712 1305q9 -10 0 -20l-292 -291q-9 -10 -19 0l-291 291q-10 10 0 20l47 47q9 9 19 0l235 -235l234 235q10 9 19 0z" />
    <glyph glyph-name="uni02C9" unicode="&#x2c9;" horiz-adv-x="716" 
d="M100 1195v125h516v-125h-516z" />
    <glyph glyph-name="dotaccent" unicode="&#x2d9;" horiz-adv-x="336" 
d="M236 1269q0 29 -20 48q-20 20 -48 20t-48 -20q-20 -19 -20 -48q0 -28 20 -48t48 -20t48 20t20 48z" />
    <glyph glyph-name="ring" unicode="&#x2da;" horiz-adv-x="555" 
d="M176 1257q0 -42 29 -71t71 -29t71 29t29 71q0 40 -29.5 69.5t-70.5 29.5t-70.5 -29.5t-29.5 -69.5zM100 1257q0 75 51 126t125 51q76 0 127.5 -51.5t51.5 -125.5q0 -75 -51.5 -126.5t-127.5 -51.5q-74 0 -125 51.5t-51 126.5z" />
    <glyph glyph-name="tilde" unicode="&#x2dc;" horiz-adv-x="761" 
d="M510 1207q-30 -2 -67 -7l-66 -10q-177 -28 -267 -2q-10 2 -10 13v66q0 7 5 11q6 4 12 2q60 -15 134 -11q29 2 66 7l67 10q177 27 267 2q10 -3 10 -13v-66q0 -7 -6 -11q-5 -4 -12 -2q-59 15 -133 11z" />
    <glyph glyph-name="hungarumlaut" unicode="&#x2dd;" horiz-adv-x="351" 
d="M216 1272q-13 0 -13 14v232q0 13 13 13h22q13 0 13 -13v-232q0 -14 -13 -14h-22zM114 1272q-14 0 -14 14v232q0 13 14 13h21q14 0 14 -13v-232q0 -14 -14 -14h-21z" />
    <glyph glyph-name="endash" unicode="&#x2013;" horiz-adv-x="596" 
d="M114 667q-14 0 -14 14v67q0 13 14 13h368q14 0 14 -13v-67q0 -14 -14 -14h-368z" />
    <glyph glyph-name="emdash" unicode="&#x2014;" horiz-adv-x="596" 
d="M114 667q-14 0 -14 14v67q0 13 14 13h368q14 0 14 -13v-67q0 -14 -14 -14h-368z" />
    <glyph glyph-name="quoteleft" unicode="&#x2018;" horiz-adv-x="249" 
d="M114 1272q-14 0 -14 14v232q0 13 14 13h21q14 0 14 -13v-232q0 -14 -14 -14h-21z" />
    <glyph glyph-name="quoteright" unicode="&#x2019;" horiz-adv-x="249" 
d="M114 1272q-14 0 -14 14v232q0 13 14 13h21q14 0 14 -13v-232q0 -14 -14 -14h-21z" />
    <glyph glyph-name="quotesinglbase" unicode="&#x201a;" horiz-adv-x="284" 
d="M167 2q-28 0 -47 20q-20 19 -20 47v95q0 8 8 8h68q8 0 8 -8v-154q0 -8 -8 -8h-9z" />
    <glyph glyph-name="quotedblleft" unicode="&#x201c;" horiz-adv-x="351" 
d="M216 1272q-13 0 -13 14v232q0 13 13 13h22q13 0 13 -13v-232q0 -14 -13 -14h-22zM114 1272q-14 0 -14 14v232q0 13 14 13h21q14 0 14 -13v-232q0 -14 -14 -14h-21z" />
    <glyph glyph-name="quotedblright" unicode="&#x201d;" horiz-adv-x="351" 
d="M216 1272q-13 0 -13 14v232q0 13 13 13h22q13 0 13 -13v-232q0 -14 -13 -14h-22zM114 1272q-14 0 -14 14v232q0 13 14 13h21q14 0 14 -13v-232q0 -14 -14 -14h-21z" />
    <glyph glyph-name="quotedblbase" unicode="&#x201e;" horiz-adv-x="805" 
d="M219 281q44 0 88.5 -65.5t44.5 -151.5q0 -109 -71 -226.5t-139 -117.5v43q73 43 87 190q0 119 -129 161v42zM572 281q44 0 88.5 -65.5t44.5 -151.5q0 -109 -71 -226.5t-139 -117.5v43q73 43 87 190q0 119 -129 161v42z" />
    <glyph glyph-name="dagger" unicode="&#x2020;" horiz-adv-x="1073" 
d="M515 1022q-8 97 -54 178q-57 101 -57 129q0 49 36 78.5t96 29.5q57 0 94.5 -27.5t37.5 -71.5q0 -32 -55 -137q-46 -85 -55 -179q96 8 177 54q101 57 129 57q49 0 79 -36t30 -96q0 -57 -27.5 -94.5t-72.5 -37.5q-32 0 -136 55q-85 46 -179 57q8 -176 110 -277
q-106 -460 -112 -974h-38q-6 514 -114 974q102 101 111 277q-96 -10 -178 -55q-101 -57 -129 -57q-49 0 -78.5 36t-29.5 96q0 57 27.5 94.5t71.5 37.5q32 0 137 -56q85 -46 179 -55z" />
    <glyph glyph-name="daggerdbl" unicode="&#x2021;" horiz-adv-x="1073" 
d="M558 186q94 11 179 57q104 55 136 55q45 0 72.5 -37.5t27.5 -94.5q0 -60 -30 -96t-79 -36q-28 0 -129 57q-81 46 -177 54q9 -94 55 -179q55 -105 55 -137q0 -44 -37.5 -71.5t-94.5 -27.5q-60 0 -96 29.5t-36 78.5q0 28 57 129q46 81 54 178q-94 -9 -179 -55
q-105 -56 -137 -56q-44 0 -71.5 37.5t-27.5 94.5q0 60 29.5 96t78.5 36q28 0 129 -57q82 -45 178 -55q-9 226 -111 398q102 171 111 397q-96 -10 -178 -55q-101 -57 -129 -57q-49 0 -78.5 36t-29.5 96q0 57 27.5 94.5t71.5 37.5q32 0 137 -56q85 -46 179 -55q-8 97 -54 178
q-57 101 -57 129q0 49 36 78.5t96 29.5q57 0 94.5 -27.5t37.5 -71.5q0 -32 -55 -137q-46 -85 -55 -179q96 8 177 54q101 57 129 57q49 0 79 -36t30 -96q0 -57 -27.5 -94.5t-72.5 -37.5q-32 0 -136 55q-85 46 -179 57q8 -226 110 -397q-102 -172 -110 -398z" />
    <glyph glyph-name="bullet" unicode="&#x2022;" horiz-adv-x="534" 
d="M216 770q-21 -21 -21 -51t21 -51t51 -21t51 21t21 51t-21 51t-51 21t-51 -21zM149 601q-49 49 -49 118t49 118t118 49t118 -49t49 -118t-49 -118t-118 -49t-118 49z" />
    <glyph glyph-name="ellipsis" unicode="&#x2026;" horiz-adv-x="1057" 
d="M217 20q-20 -20 -48 -20q-29 0 -49 20t-20 48q0 29 20 49t49 20q28 0 48 -20t20 -49q0 -28 -20 -48zM577 20q-20 -20 -49 -20q-28 0 -48 20t-20 48q0 29 20 49t48 20q29 0 49 -20t20 -49q0 -28 -20 -48zM937 20q-20 -20 -49 -20q-28 0 -48 20t-20 48q0 29 20 49t48 20
q29 0 49 -20t20 -49q0 -28 -20 -48z" />
    <glyph glyph-name="guilsinglleft" unicode="&#x2039;" horiz-adv-x="577" 
d="M110 706q-10 10 0 20l291 291q10 10 19 0l47 -47q10 -10 0 -20l-234 -234l234 -234q10 -10 0 -20l-47 -47q-9 -10 -19 0z" />
    <glyph glyph-name="guilsinglright" unicode="&#x203a;" horiz-adv-x="577" 
d="M176 415q-10 -10 -19 0l-47 47q-10 10 0 20l234 234l-234 234q-10 10 0 20l47 47q9 10 19 0l291 -291q10 -10 0 -20z" />
    <glyph glyph-name="fraction" unicode="&#x2044;" horiz-adv-x="483" 
d="M182 0q12 0 14 12l185 1404q2 16 -14 16h-66q-12 0 -14 -12l-185 -1404q-2 -16 14 -16h66z" />
    <glyph glyph-name="fraction" unicode="&#x2215;" horiz-adv-x="483" 
d="M182 0q12 0 14 12l185 1404q2 16 -14 16h-66q-12 0 -14 -12l-185 -1404q-2 -16 14 -16h66z" />
    <glyph glyph-name="franc" unicode="&#x20a3;" horiz-adv-x="1218" 
d="M299 357h-194v60h194v732q0 235 -103 235h-96v50h915l103 -231h-49q-59 182 -190 182l-316 -1q-102 0 -102 -235v-352h361q100 0 100 63v58h50v-342h-50v60q0 62 -100 62h-361v-281h194v-60h-194v-72q0 -235 102 -235h97v-50h-560v50h96q103 0 103 235v72z" />
    <glyph glyph-name="lira" unicode="&#x20a4;" horiz-adv-x="874" 
d="M270 584h209q14 0 14 14v67q0 14 -14 14h-186l33 136h153q14 0 14 14v66q0 14 -14 14h-130l9 36v2q15 75 76 125q60 49 138 49q73 0 131 -43q10 -8 19 1l43 51q9 11 -2 20q-84 65 -191 65q-111 0 -197 -70q-87 -70 -109 -179l-164 -677q-2 -7 3 -12q4 -5 10 -5h615
q14 0 14 14v66q0 14 -14 14h-512z" />
    <glyph glyph-name="peseta" unicode="&#x20a7;" horiz-adv-x="2119" 
d="M461 1384v-662q3 -9 7 -17q41 -102 108 -153q57 -44 116 -44q10 0 19 1q68 8 127 75t87 177q22 87 22 179q0 24 -1 47q-7 116 -49.5 218.5t-108.5 144.5q-56 35 -112 35q-10 0 -21 -1h-194zM1548 908h-179v-685q0 -81 34 -119q28 -31 81 -37l-71 192l49 1
q55 -130 114 -174q57 -44 127 -44h7q92 0 151 52q59 53 59 136q0 102 -259 226q-101 52 -144 112t-43 145q0 121 73 194zM1091 910q-7 -101 -48 -194q-50 -114 -141 -177.5t-190 -63.5q-100 0 -191 64q-33 22 -60 51v-305q0 -235 102 -235h97v-50h-560v50h96q103 0 103 235
v864q0 235 -103 235h-96v50h618q92 -2 181 -62q91 -62 143 -177q50 -113 51 -237h10q216 0 216 355h50v-355h259q42 19 110 20h2q54 0 133.5 -13.5t79.5 -33.5v-159h-42q-4 66 -65.5 108t-133.5 42q-64 0 -102.5 -36.5t-38.5 -96.5q0 -108 235 -220q122 -55 167.5 -117.5
t45.5 -153.5q0 -140 -83 -231q-102 -84 -228 -86q-58 0 -105 11q-28 6 -56 6q-18 0 -36 -3q-28 -5 -59 -5q-124 0 -173.5 57t-57.5 176h-1v687h-129z" />
    <glyph glyph-name="Euro" unicode="&#x20ac;" horiz-adv-x="925" 
d="M225 875h315q14 0 14 -14v-66q0 -14 -14 -14h-343q-5 -32 -5 -66q0 -33 5 -64h343q14 0 14 -14v-67q0 -13 -14 -13h-314q27 -60 78 -111q112 -111 269 -111q110 0 203 58q11 7 19 -4l37 -55q8 -12 -4 -19q-116 -74 -255 -74q-202 0 -343 146q-141 147 -131 351
q8 178 133 308q126 130 303 144q159 12 292 -72q12 -8 4 -20l-37 -55q-7 -11 -19 -4q-105 66 -230 57q-151 -11 -252 -120q-43 -47 -68 -101z" />
    <glyph glyph-name="uni2116" unicode="&#x2116;" horiz-adv-x="1418" 
d="M930 970q-44 -49 -44 -112q0 -64 44 -104q45 -40 109 -34q63 7 108 57q44 49 44 112q0 64 -44 104q-45 40 -108 33q-64 -6 -109 -56zM841 655q-82 74 -82 189q0 116 82 206q82 91 198 103q115 12 197 -61q82 -74 82 -189q0 -116 -82 -207q-82 -90 -197 -102
q-116 -12 -198 61zM543 605l-370 456q-2 2 -5 2l-61 -7q-7 0 -7 -7v-764q0 -7 7 -6l112 12q7 1 7 7v488l368 -453q2 -3 5 -2l64 6q6 1 6 8v763q0 7 -6 6l-113 -11q-7 -1 -7 -8v-490zM770 340q-11 -1 -11 10v107q0 9 9 10l539 56q11 1 11 -10v-107q0 -9 -9 -10z" />
    <glyph glyph-name="trademark" unicode="&#x2122;" horiz-adv-x="546" 
d="M428 1435q-2 0 -3 -2l-68 -76l-69 76q-1 2 -3 2h-14q-4 0 -4 -4v-209q0 -3 4 -3h28q3 0 3 3v143l52 -58q3 -3 5 0l52 58v-143q0 -3 4 -3h27q4 0 4 3v209q0 4 -4 4h-14zM103 1435q-3 0 -3 -4v-28q0 -3 3 -3h53v-178q0 -4 4 -4h28q3 0 3 4v178h53q4 0 4 3v28q0 4 -4 4h-141
z" />
    <glyph glyph-name="partialdiff" unicode="&#x2202;" horiz-adv-x="1019" 
d="M510 94q-130 0 -223 92q-92 92 -93 222l1 2q0 130 92 222q92 93 223 93q76 0 144 -35t112 -97l18 -28l2 -4l1 -1q38 -71 38 -150q0 -131 -92 -223q-93 -93 -223 -93zM100 410v-3q1 -169 121 -288t289 -119t289 120t120 290q0 104 -49 195l-1 2q-14 24 -30 47l-498 777
q-4 6 -12 6h-79q-8 0 -12 -7t1 -14l394 -616q-61 19 -123 19q-170 0 -290 -120t-120 -289z" />
    <glyph glyph-name="Delta" unicode="&#x2206;" horiz-adv-x="878" 
d="M195 368l244 603l244 -603h-488zM102 322q-2 -6 2 -12q4 -7 11 -7h647q8 0 12 7q4 6 1 12l-323 800q-4 8 -13 8q-10 0 -13 -8z" />
    <glyph glyph-name="product" unicode="&#x220f;" horiz-adv-x="1619" 
d="M563 1384q-102 0 -102 -235v-1281q0 -235 102 -235h97v-51h-560v51h96q103 0 103 235v1281q0 235 -103 235h-96v50h1419v-50h-97q-102 0 -102 -235v-1281q0 -235 102 -235h97v-50h-560v50h96q103 0 103 235v1281q0 235 -103 235h-492z" />
    <glyph glyph-name="summation" unicode="&#x2211;" horiz-adv-x="802" 
d="M263 1055l226 -352q4 -8 0 -15l-226 -352h425q14 0 14 -14v-67q0 -14 -14 -14h-572q-8 0 -12 7q-4 8 0 14l277 433l-277 433q-4 7 0 15q4 7 12 7h572q14 0 14 -14v-67q0 -14 -14 -14h-425z" />
    <glyph glyph-name="minus" unicode="&#x2212;" horiz-adv-x="1040" 
d="M100 647v140h839l1 -1v-139h-840z" />
    <glyph glyph-name="radical" unicode="&#x221a;" horiz-adv-x="1080" 
d="M110 680q-10 10 0 20l48 46q10 10 20 0l202 -210l525 508q10 10 19 0l47 -48q9 -10 -1 -19l-582 -565q-10 -10 -20 0z" />
    <glyph glyph-name="infinity" unicode="&#x221e;" horiz-adv-x="1035" 
d="M217 772q-23 -23 -23 -56t23 -56t56 -23t56 23t23 56t-23 56t-56 23t-56 -23zM151 594q-51 50 -51 122t51 123q50 50 122 50t123 -50q50 -51 50 -123t-50 -122q-51 -51 -123 -51t-122 51zM615 810q-39 -39 -39 -94t39 -94q38 -39 93 -39t94 39t39 94t-39 94t-94 39
t-93 -39zM548 556q-67 66 -67 160t67 160q66 67 160 67t161 -67q66 -66 66 -160t-66 -160q-67 -67 -161 -67t-160 67z" />
    <glyph glyph-name="integral" unicode="&#x222b;" horiz-adv-x="569" 
d="M113 0q-13 0 -13 14v1160q0 76 32 134q32 59 90 88q54 27 116 20q62 -6 119 -45q12 -8 3 -20l-40 -53q-8 -11 -19 -3q-73 48 -137 17q-70 -36 -70 -138v-1160q0 -14 -14 -14h-67z" />
    <glyph glyph-name="approxequal" unicode="&#x2248;" horiz-adv-x="759" 
d="M114 816q-14 0 -14 14v66q0 14 14 14h531q14 0 14 -14v-66q0 -14 -14 -14h-531zM509 559q-30 -2 -67 -7l-66 -10q-176 -27 -266 -2q-10 3 -10 13v66q0 6 6 11q5 4 12 2q58 -15 132 -11q30 2 67 7l66 9q176 28 266 3q10 -3 10 -14v-65q0 -7 -6 -11q-5 -4 -12 -2
q-59 15 -132 11z" />
    <glyph glyph-name="lessequal" unicode="&#x2264;" horiz-adv-x="659" 
d="M447 415l47 47q10 10 0 20l-234 234l234 234q10 10 0 20l-47 47q-9 10 -19 0l-291 -291q-10 -10 0 -20l291 -291q10 -10 19 0zM114 198q-14 0 -14 14v66q0 14 14 14h431q14 0 14 -14v-66q0 -14 -14 -14h-431z" />
    <glyph glyph-name="greaterequal" unicode="&#x2265;" horiz-adv-x="659" 
d="M231 415l291 291q10 10 0 20l-291 291q-10 10 -19 0l-47 -47q-10 -10 0 -20l234 -234l-234 -234q-10 -10 0 -20l47 -47q9 -10 19 0zM114 198q-14 0 -14 14v66q0 14 14 14h431q14 0 14 -14v-66q0 -14 -14 -14h-431z" />
    <glyph glyph-name="uniF001" unicode="&#xf001;" horiz-adv-x="853" 
d="M753 1008q-1 46 -11 86q-11 46 -34 83q-24 40 -61 69q-35 27 -78 43q-38 14 -85 20q-18 2 -43 3h-9h-5h-6h-10h-11q-86 -5 -164 -43q-37 -19 -72 -44q-17 -13 -32 -27q-13 -12 -22 -21q-10 -11 2 -20l44 -37q10 -8 19 1q7 7 14 13q13 11 27 22q28 20 58 35q63 30 131 34
h8h9h8h10q20 -1 33 -3q37 -5 65 -15q63 -24 94 -76q16 -26 23 -58q7 -30 8 -66v-8l-1 -10v-7l-1 -7q-1 -13 -6 -31q-9 -30 -26 -57q-31 -47 -98 -89q-40 -26 -131 -70l-18 -9q-8 -3 -8 -12v-20l-1 -294q0 -14 14 -14h67q14 0 14 14l-1 265q72 36 113 63q83 53 125 116
q25 39 37 83q6 25 8 44l2 11v12l1 10v11zM372 236q-20 -20 -20 -49q0 -28 20 -48t49 -20q28 0 48 20t20 48q0 29 -20 49t-48 20q-29 0 -49 -20z" />
    <glyph glyph-name="uniF001" unicode="&#xfb01;" horiz-adv-x="853" 
d="M753 1008q-1 46 -11 86q-11 46 -34 83q-24 40 -61 69q-35 27 -78 43q-38 14 -85 20q-18 2 -43 3h-9h-5h-6h-10h-11q-86 -5 -164 -43q-37 -19 -72 -44q-17 -13 -32 -27q-13 -12 -22 -21q-10 -11 2 -20l44 -37q10 -8 19 1q7 7 14 13q13 11 27 22q28 20 58 35q63 30 131 34
h8h9h8h10q20 -1 33 -3q37 -5 65 -15q63 -24 94 -76q16 -26 23 -58q7 -30 8 -66v-8l-1 -10v-7l-1 -7q-1 -13 -6 -31q-9 -30 -26 -57q-31 -47 -98 -89q-40 -26 -131 -70l-18 -9q-8 -3 -8 -12v-20l-1 -294q0 -14 14 -14h67q14 0 14 14l-1 265q72 36 113 63q83 53 125 116
q25 39 37 83q6 25 8 44l2 11v12l1 10v11zM372 236q-20 -20 -20 -49q0 -28 20 -48t49 -20q28 0 48 20t20 48q0 29 -20 49t-48 20q-29 0 -49 -20z" />
    <glyph glyph-name="uniF002" unicode="&#xf002;" horiz-adv-x="853" 
d="M753 1008q-1 46 -11 86q-11 46 -34 83q-24 40 -61 69q-35 27 -78 43q-38 14 -85 20q-18 2 -43 3h-9h-5h-6h-10h-11q-86 -5 -164 -43q-37 -19 -72 -44q-17 -13 -32 -27q-13 -12 -22 -21q-10 -11 2 -20l44 -37q10 -8 19 1q7 7 14 13q13 11 27 22q28 20 58 35q63 30 131 34
h8h9h8h10q20 -1 33 -3q37 -5 65 -15q63 -24 94 -76q16 -26 23 -58q7 -30 8 -66v-8l-1 -10v-7l-1 -7q-1 -13 -6 -31q-9 -30 -26 -57q-31 -47 -98 -89q-40 -26 -131 -70l-18 -9q-8 -3 -8 -12v-20l-1 -294q0 -14 14 -14h67q14 0 14 14l-1 265q72 36 113 63q83 53 125 116
q25 39 37 83q6 25 8 44l2 11v12l1 10v11zM372 236q-20 -20 -20 -49q0 -28 20 -48t49 -20q28 0 48 20t20 48q0 29 -20 49t-48 20q-29 0 -49 -20z" />
    <glyph glyph-name="uniF002" unicode="&#xfb02;" horiz-adv-x="853" 
d="M753 1008q-1 46 -11 86q-11 46 -34 83q-24 40 -61 69q-35 27 -78 43q-38 14 -85 20q-18 2 -43 3h-9h-5h-6h-10h-11q-86 -5 -164 -43q-37 -19 -72 -44q-17 -13 -32 -27q-13 -12 -22 -21q-10 -11 2 -20l44 -37q10 -8 19 1q7 7 14 13q13 11 27 22q28 20 58 35q63 30 131 34
h8h9h8h10q20 -1 33 -3q37 -5 65 -15q63 -24 94 -76q16 -26 23 -58q7 -30 8 -66v-8l-1 -10v-7l-1 -7q-1 -13 -6 -31q-9 -30 -26 -57q-31 -47 -98 -89q-40 -26 -131 -70l-18 -9q-8 -3 -8 -12v-20l-1 -294q0 -14 14 -14h67q14 0 14 14l-1 265q72 36 113 63q83 53 125 116
q25 39 37 83q6 25 8 44l2 11v12l1 10v11zM372 236q-20 -20 -20 -49q0 -28 20 -48t49 -20q28 0 48 20t20 48q0 29 -20 49t-48 20q-29 0 -49 -20z" />
    </font>
</defs>
</svg>
