<?xml version="1.0" standalone="no"?>
<!DOCTYPE svg PUBLIC "-//W3C//DTD SVG 1.1//EN" "http://www.w3.org/Graphics/SVG/1.1/DTD/svg11.dtd" >
<svg xmlns="http://www.w3.org/2000/svg" xmlns:xlink="http://www.w3.org/1999/xlink" version="1.1">
<metadata>
Created by FontForge 20170731 at Sun Jan 23 21:46:19 1994
 By Aleksey,,,
Copyright 1990-1993 Bitstream Inc.  All rights reserved. Russian Edition by Sabina. (c) 1994. All rights reserved.
</metadata>
<defs>
<font id="AvantGardeITCbyBT-Book" horiz-adv-x="1024" >
  <font-face 
    font-family="AvantGarde Normal"
    font-weight="400"
    font-stretch="normal"
    units-per-em="2048"
    panose-1="2 11 4 2 2 2 2 2 2 4"
    ascent="1638"
    descent="-410"
    x-height="1100"
    cap-height="1456"
    bbox="-342 -483 2605 1972"
    underline-thickness="113"
    underline-position="-346"
    unicode-range="U+0020-F000"
  />
<missing-glyph horiz-adv-x="1972" 
d="M123 0v1972h1726v-1972h-1726zM1726 123v1726h-1480v-1726h1480z" />
    <glyph glyph-name=".notdef" horiz-adv-x="1972" 
d="M123 0v1972h1726v-1972h-1726zM1726 123v1726h-1480v-1726h1480z" />
    <glyph glyph-name=".null" horiz-adv-x="0" 
 />
    <glyph glyph-name="nonmarkingreturn" horiz-adv-x="578" 
 />
    <glyph glyph-name="space" unicode=" " horiz-adv-x="578" 
 />
    <glyph glyph-name="exclam" unicode="!" horiz-adv-x="588" 
d="M365 379h-142v1077h142v-1077zM365 0h-142v266h142v-266z" />
    <glyph glyph-name="quotedbl" unicode="&#x22;" horiz-adv-x="569" 
d="M473 1434v-553h-102v553h102zM199 1434v-553h-101v553h101z" />
    <glyph glyph-name="numbersign" unicode="#" horiz-adv-x="1575" 
d="M975 864h-266l-97 -276h267zM918 1454l-168 -483h264l172 483h127l-170 -483h315l-37 -107h-317l-98 -276h340l-37 -109h-340l-170 -479h-129l172 479h-269l-172 -479h-127l170 479h-327l39 109h325l101 276h-353l35 107h354l173 483h127z" />
    <glyph glyph-name="dollar" unicode="$" horiz-adv-x="1157" 
d="M152 432h139v-16q0 -140 72.5 -213.5t211.5 -73.5q132 0 209.5 72t77.5 196q0 195 -309 297l-30 10q-189 63 -262 144t-73 219q0 145 89.5 251.5t230.5 125.5v213h143v-213q147 -16 232 -112q44 -49 68 -112.5t24 -140.5h-144v4q0 109 -66.5 175.5t-176.5 66.5
q-120 0 -189 -68t-69 -182q0 -158 284 -257l91 -32q163 -60 233 -145t70 -221q0 -170 -98 -285.5t-259 -130.5v-246h-143v246q-159 17 -257.5 135t-98.5 293z" />
    <glyph glyph-name="percent" unicode="%" horiz-adv-x="1796" 
d="M219 1124q0 -92 66 -159.5t161 -67.5q92 0 159 66t67 161q0 94 -65.5 160t-160.5 66q-93 0 -160 -66t-67 -160zM90 1126q0 150 104.5 254.5t254.5 104.5q147 0 253.5 -105.5t106.5 -253.5q0 -149 -105.5 -253.5t-254.5 -104.5q-151 0 -255 104t-104 254zM1229 1485h117
l-779 -1514h-116zM1114 330q0 -94 66 -161t161 -67q93 0 160.5 66.5t67.5 161.5q0 93 -66.5 159t-161.5 66q-93 0 -160 -65.5t-67 -159.5zM987 330q0 149 104.5 253.5t254.5 104.5q148 0 253 -104.5t105 -253.5q0 -151 -104 -255t-254 -104q-151 0 -255 104t-104 255z" />
    <glyph glyph-name="ampersand" unicode="&#x26;" horiz-adv-x="1421" 
d="M555 883q113 44 169 110.5t56 153.5q0 84 -56.5 143.5t-135.5 59.5q-88 0 -144.5 -58t-56.5 -153q0 -65 36 -122t132 -134zM889 371l-387 360q-109 -53 -165 -135.5t-56 -185.5q0 -130 78.5 -212.5t201.5 -82.5q96 0 175 62t153 194zM993 276q-66 -147 -181 -226
t-259 -79q-175 0 -299.5 128.5t-124.5 310.5q0 130 75 243.5t202 171.5q-96 86 -132 155.5t-36 160.5q0 140 102 242q52 50 114.5 75t139.5 25q134 0 235 -103t101 -239q0 -110 -72 -201.5t-207 -151.5l295 -272l172 453h156l-219 -555l325 -299l-90 -107z" />
    <glyph glyph-name="quotesingle" unicode="'" horiz-adv-x="295" 
d="M199 1434v-553h-101v553h101z" />
    <glyph glyph-name="parenleft" unicode="(" horiz-adv-x="541" 
d="M432 1485v-162q-89 -71 -127.5 -171t-38.5 -302v-657q0 -207 38 -305t128 -169v-161q-154 81 -231 234q-38 76 -57 168.5t-19 207.5v706q0 225 75.5 376t231.5 235z" />
    <glyph glyph-name="parenright" unicode=")" horiz-adv-x="541" 
d="M109 1485q155 -83 231 -235q38 -76 57 -168.5t19 -207.5v-706q0 -225 -75.5 -376.5t-231.5 -233.5v161q89 71 127 171t38 303v657q0 204 -37 303t-128 170v162z" />
    <glyph glyph-name="asterisk" unicode="*" 
d="M510 981l-182 -264l-107 74l201 251l-297 86l37 119l291 -96v305h114v-305l289 96l41 -119l-301 -86l205 -251l-105 -74z" />
    <glyph glyph-name="plus" unicode="+" horiz-adv-x="1706" 
d="M903 1221v-562h549v-98h-549v-561h-98v561h-551v98h551v562h98z" />
    <glyph glyph-name="comma" unicode="," horiz-adv-x="578" 
d="M248 -162h-144l156 428h143z" />
    <glyph glyph-name="hyphen" unicode="-" horiz-adv-x="659" 
d="M563 616v-133h-469v133h469z" />
    <glyph glyph-name="period" unicode="." horiz-adv-x="578" 
d="M360 0h-143v266h143v-266z" />
    <glyph glyph-name="slash" unicode="/" horiz-adv-x="569" 
d="M72 -190h-121l498 1646h120z" />
    <glyph glyph-name="zero" unicode="0" horiz-adv-x="1157" 
d="M227 481q0 -180 93 -281.5t258 -101.5q163 0 256.5 99.5t93.5 279.5v502q0 177 -93.5 278t-256.5 101q-165 0 -258 -101.5t-93 -283.5v-492zM86 512v432q0 143 19.5 212.5t66.5 133.5q71 94 176 145.5t230 51.5q228 0 360.5 -141.5t132.5 -393.5v-446q0 -63 -4 -107.5
t-15 -88.5q-18 -77 -61 -136q-69 -96 -177 -150q-56 -27 -112.5 -40t-123.5 -13q-126 0 -228.5 50t-179.5 147q-43 55 -63.5 137t-20.5 207z" />
    <glyph glyph-name="one" unicode="1" horiz-adv-x="1157" 
d="M676 0h-152v1331h-254v125h406v-1456z" />
    <glyph glyph-name="two" unicode="2" horiz-adv-x="1157" 
d="M1036 0h-903v141l516 490q153 144 202.5 229t49.5 174q0 136 -89.5 229t-227.5 93q-141 0 -226.5 -94.5t-85.5 -251.5l1 -21l1 -20h-141v22q0 218 129 357t334 139q184 0 314 -133.5t130 -329.5q0 -113 -54.5 -216.5t-172.5 -213.5l-491 -453h714v-141z" />
    <glyph glyph-name="three" unicode="3" horiz-adv-x="1157" 
d="M254 442v-12q0 -144 89.5 -239t221.5 -95q142 0 235 94.5t93 241.5q0 167 -98 253.5t-287 86.5l-42 -1l-25 -1v121q15 0 24 -2h39q145 0 217 60t72 177q0 103 -62 168.5t-156 65.5q-107 0 -168 -65q-30 -31 -46.5 -77t-16.5 -103h-133q0 83 28 150t81 120
q100 100 262 100q149 0 253.5 -106t104.5 -253q0 -87 -33.5 -151t-107.5 -119q117 -62 178 -165t61 -245q0 -201 -132.5 -338t-332.5 -137q-212 0 -337 126q-62 64 -94.5 150.5t-32.5 194.5h145z" />
    <glyph glyph-name="four" unicode="4" horiz-adv-x="1157" 
d="M774 408l6 880l-542 -880h536zM911 0h-141v281h-682v127l660 1048h163v-1048h158v-127h-158v-281z" />
    <glyph glyph-name="five" unicode="5" horiz-adv-x="1157" 
d="M84 442h145q0 -69 28.5 -128.5t82.5 -112.5q102 -99 240 -99q147 0 248.5 110.5t101.5 272.5q0 163 -101.5 265t-265.5 102q-93 0 -167.5 -41t-133.5 -127l-110 51l129 721h657v-143h-535l-73 -406q29 21 61.5 38t62.5 27q62 21 134 21q212 0 348.5 -144.5t136.5 -367.5
q0 -212 -145 -361t-353 -149q-196 0 -334.5 131.5t-156.5 339.5z" />
    <glyph glyph-name="six" unicode="6" horiz-adv-x="1157" 
d="M586 825q-151 0 -252 -104t-101 -256q0 -154 104 -260.5t251 -106.5q142 0 239 103t97 262q0 156 -95.5 259t-242.5 103zM621 1456h178l-340 -526l86 16q39 6 71 6q198 0 327.5 -138.5t129.5 -346.5q0 -212 -141 -354t-357 -142q-211 0 -351 138.5t-140 341.5
q0 173 180 452l27 41z" />
    <glyph glyph-name="seven" unicode="7" horiz-adv-x="1157" 
d="M426 0h-160l576 1313h-637v143h803v-131z" />
    <glyph glyph-name="eight" unicode="8" horiz-adv-x="1157" 
d="M322 1122q0 -108 69 -175.5t178 -67.5q131 0 201 61.5t70 177.5q0 105 -73 171.5t-185 66.5t-186 -66.5t-74 -167.5zM258 418q0 -138 90.5 -230t220.5 -92q142 0 235 93t93 235q0 145 -87 234.5t-230 89.5q-148 0 -235 -88.5t-87 -241.5zM334 813q-76 51 -116 123
t-40 164q0 157 116 270q59 57 128.5 86t152.5 29q170 0 287 -111t117 -264q0 -99 -39.5 -172t-122.5 -125q114 -64 170.5 -155.5t56.5 -213.5q0 -206 -133 -339.5t-342 -133.5q-191 0 -323.5 134.5t-132.5 328.5q0 124 51.5 214t169.5 165z" />
    <glyph glyph-name="nine" unicode="9" horiz-adv-x="1157" 
d="M571 633q150 0 251.5 104t101.5 256q0 78 -25 141t-79 118q-103 106 -251 106q-142 0 -239 -102t-97 -261q0 -158 95.5 -260t242.5 -102zM537 0h-179l340 528l-86 -17l-71 -5q-197 0 -327 138t-130 347q0 215 140 355.5t356 140.5q212 0 352.5 -138.5t140.5 -340.5
q0 -173 -180 -452l-26 -41z" />
    <glyph glyph-name="colon" unicode=":" horiz-adv-x="588" 
d="M365 834h-142v266h142v-266zM365 0h-142v266h142v-266z" />
    <glyph glyph-name="semicolon" unicode=";" horiz-adv-x="588" 
d="M248 -162h-144l156 428h143zM365 1100v-266h-142v266h142z" />
    <glyph glyph-name="less" unicode="&#x3c;" horiz-adv-x="1706" 
d="M1442 1026l-1022 -416l1022 -413v-109l-1178 481v82l1178 484v-109z" />
    <glyph glyph-name="equal" unicode="=" horiz-adv-x="1706" 
d="M1452 473v-98h-1198v98h1198zM1452 846v-98h-1198v98h1198z" />
    <glyph glyph-name="greater" unicode="&#x3e;" horiz-adv-x="1706" 
d="M1442 651v-82l-1178 -481v109l1022 413l-1022 416v109z" />
    <glyph glyph-name="question" unicode="?" horiz-adv-x="948" 
d="M547 398l-144 -1q0 93 39 182.5t115 172.5l54 53q126 119 126 252q0 130 -70 204t-194 74q-129 0 -202 -83q-37 -43 -57.5 -103t-20.5 -137h-148q0 210 121.5 341.5t314.5 131.5q180 0 294 -120t114 -310q0 -185 -166 -335l-25 -22q-80 -74 -115.5 -145.5t-35.5 -154.5z
M403 0v266h144v-266h-144z" />
    <glyph glyph-name="at" unicode="@" horiz-adv-x="2048" 
d="M1298 836l60 125h94l-139 -562l-14 -63l-3 -29q0 -41 28 -68q29 -24 79 -24t105.5 21t105.5 61q95 76 150 204t55 283q0 253 -198.5 416.5t-508.5 163.5q-176 0 -320.5 -49t-261.5 -150q-147 -126 -222 -290.5t-75 -362.5q0 -173 60 -304t184 -233q100 -80 244 -127
t301 -47q87 0 169 12t165 38q165 48 301 143l39 -55q-147 -111 -311.5 -166.5t-342.5 -55.5q-193 0 -347 46t-275 139q-154 116 -228.5 273t-74.5 362q0 206 86 382t252 314q132 108 299 164.5t360 56.5q164 0 309.5 -44t247.5 -124q127 -98 193.5 -227.5t66.5 -280.5
q0 -173 -61.5 -310.5t-181.5 -231.5q-67 -53 -148.5 -82t-161.5 -29q-96 0 -144 37.5t-48 113.5l1 14l1 15q-50 -86 -127 -133t-168 -47q-153 0 -233 84t-80 244q0 229 135 387.5t329 158.5q94 0 158 -41t96 -122zM1210 469l62 248q-18 93 -76 145.5t-139 52.5
q-154 0 -254.5 -133.5t-100.5 -337.5q0 -111 54.5 -173t152.5 -62q54 0 100.5 17t88.5 54q82 71 112 189z" />
    <glyph glyph-name="A" unicode="A" horiz-adv-x="1223" 
d="M100 0h-151l565 1456h172l563 -1456h-153l-174 457h-648zM872 588l-276 731l-272 -731h548z" />
    <glyph glyph-name="B" unicode="B" horiz-adv-x="1042" 
d="M272 688v-549h201q178 0 262 67t84 206t-86 207.5t-260 68.5h-201zM272 1317v-490h86q211 0 296 58.5t85 191.5q0 124 -82 182t-262 58h-123zM135 1456h271q247 0 363 -93.5t116 -291.5q0 -99 -38.5 -169.5t-117.5 -117.5q117 -48 176.5 -137t59.5 -217
q0 -221 -122.5 -325.5t-385.5 -104.5h-322v1456z" />
    <glyph glyph-name="C" unicode="C" horiz-adv-x="1540" 
d="M1296 1079q-96 133 -218.5 198.5t-276.5 65.5q-242 0 -415 -180.5t-173 -427.5q0 -263 171.5 -444.5t416.5 -181.5q150 0 272 63t213 188h170q-99 -186 -268 -287.5t-377 -101.5q-320 0 -535 219.5t-215 546.5q0 153 57.5 290t170.5 247q103 103 232.5 157t281.5 54
q217 0 390 -105t275 -301h-172z" />
    <glyph glyph-name="D" unicode="D" horiz-adv-x="1366" 
d="M276 1317v-1180h297q276 0 427 156t151 442q0 142 -51 263t-146 204q-70 61 -158 88t-257 27h-263zM135 1456h414q87 0 156.5 -8t130.5 -26q116 -33 206 -109q124 -104 193.5 -256.5t69.5 -325.5q0 -193 -76 -352t-215 -258q-92 -65 -200.5 -93t-328.5 -28h-350v1456z
" />
    <glyph glyph-name="E" unicode="E" horiz-adv-x="1028" 
d="M279 803h612v-144h-612v-518h612v-141h-756v1456h756v-143h-612v-510z" />
    <glyph glyph-name="F" unicode="F" horiz-adv-x="991" 
d="M135 0v1456h719v-143h-578v-510h578v-144h-578v-659h-141z" />
    <glyph glyph-name="G" unicode="G" horiz-adv-x="1612" 
d="M643 698h905q0 -155 -59.5 -285.5t-169.5 -237.5q-210 -204 -518 -204q-315 0 -527.5 220t-212.5 546q0 153 57.5 290t168.5 245.5t242.5 160.5t289.5 52q211 0 379.5 -102.5t271.5 -292.5h-176q-102 131 -220 193.5t-263 62.5q-249 0 -423.5 -179.5t-174.5 -431.5
q0 -268 173 -447t427 -179q200 0 358.5 128t206.5 332h-735v129z" />
    <glyph glyph-name="H" unicode="H" horiz-adv-x="1251" 
d="M279 0h-144v1456h144v-653h692v653h143v-1456h-143v664h-692v-664z" />
    <glyph glyph-name="I" unicode="I" horiz-adv-x="412" 
d="M276 0h-143v1456h143v-1456z" />
    <glyph glyph-name="J" unicode="J" horiz-adv-x="915" 
d="M641 1456h143v-981q0 -67 -3 -114.5t-11 -85.5q-12 -71 -45 -125q-49 -84 -138 -132.5t-198 -48.5q-161 0 -261.5 105t-100.5 280h143q0 -53 17.5 -96t51.5 -79q63 -66 158 -66q131 0 188 84q28 42 42 125.5t14 212.5v921z" />
    <glyph glyph-name="K" unicode="K" horiz-adv-x="1100" 
d="M274 449v-449h-141v1456h141v-809l674 809h170l-588 -704l578 -752h-176l-494 645z" />
    <glyph glyph-name="L" unicode="L" horiz-adv-x="844" 
d="M791 0h-656v1456h144v-1315h512v-141z" />
    <glyph glyph-name="M" unicode="M" horiz-adv-x="1692" 
d="M143 0v1456h211l504 -1266l502 1266h211v-1456h-137v1286l-512 -1286h-129l-512 1286v-1286h-138z" />
    <glyph glyph-name="N" unicode="N" horiz-adv-x="1366" 
d="M1102 174l-17 1282h142v-1456h-172l-799 1284l16 -1284h-141v1456h172z" />
    <glyph glyph-name="O" unicode="O" horiz-adv-x="1612" 
d="M211 735q0 -266 173 -446t427 -180q247 0 418.5 182t171.5 448q0 248 -176 427.5t-424 179.5q-103 0 -196 -34t-171 -102q-103 -86 -163 -214t-60 -261zM61 737q0 152 58.5 290.5t169.5 246.5q105 104 235 157.5t279 53.5q152 0 282 -53t240 -160t166.5 -243.5
t56.5 -291.5q0 -154 -48 -283.5t-144 -236.5q-111 -121 -251.5 -183.5t-303.5 -62.5q-313 0 -526.5 220.5t-213.5 545.5z" />
    <glyph glyph-name="P" unicode="P" horiz-adv-x="1034" 
d="M262 1313v-555h211q175 0 259.5 66.5t84.5 207.5q0 146 -85 213.5t-271 67.5h-199zM119 1456h309q70 0 120.5 -3t92.5 -11q79 -13 133 -45q96 -57 147.5 -150.5t51.5 -208.5q0 -111 -46 -203.5t-130 -148.5q-57 -39 -139 -56.5t-205 -17.5h-191v-612h-143v1456z" />
    <glyph glyph-name="Q" unicode="Q" horiz-adv-x="1612" 
d="M1313 174q43 -29 100 -44q60 -13 133 -13h19v-127l-13 -1l-59 -3q-72 0 -147.5 26.5t-145.5 75.5q-87 -56 -188.5 -86.5t-208.5 -30.5q-311 0 -526.5 220.5t-215.5 545.5q0 152 58.5 290.5t169.5 246.5q105 104 235 157.5t279 53.5q321 0 533 -218t212 -554
q0 -163 -57.5 -294.5t-177.5 -244.5zM1202 264q96 96 147.5 218t51.5 257q0 248 -176 427.5t-424 179.5q-240 0 -415 -181t-175 -422q0 -46 5 -84t8 -55t12 -49q78 36 153 54t158 18q171 0 314.5 -77t340.5 -286zM1085 178q-182 191 -296.5 251t-256.5 60q-57 0 -115.5 -15
t-131.5 -48q81 -149 223 -234.5t303 -85.5q65 0 131.5 17.5t142.5 54.5z" />
    <glyph glyph-name="R" unicode="R" horiz-adv-x="1139" 
d="M256 1313v-1313h-141v1456h391q133 0 209 -19t141 -65q86 -59 137 -162t51 -217q0 -169 -101 -291q-52 -63 -114.5 -98t-136.5 -35l352 -569h-170l-432 702h138q137 0 224 81t87 208q0 75 -26 138t-79 112q-42 39 -104 55.5t-215 16.5h-211z" />
    <glyph glyph-name="S" unicode="S" horiz-adv-x="952" 
d="M58 416h138q0 -68 18.5 -120.5t57.5 -94.5q72 -80 191 -80q126 0 201 79.5t75 215.5q0 197 -306 299l-36 12q-160 54 -230.5 139t-70.5 221q0 174 108 285t281 111q163 0 260 -101q49 -52 78 -124t29 -160h-135q-11 120 -71 184t-161 64q-109 0 -177 -70.5t-68 -179.5
q0 -59 20.5 -99t65.5 -74t176 -77l114 -39q141 -54 204 -139.5t63 -225.5q0 -213 -115 -342t-307 -129q-177 0 -289 122q-56 62 -85 142.5t-29 180.5z" />
    <glyph glyph-name="T" unicode="T" horiz-adv-x="750" 
d="M446 0h-143v1313h-291v143h725v-143h-291v-1313z" />
    <glyph glyph-name="U" unicode="U" horiz-adv-x="1157" 
d="M113 1456h143v-921q0 -112 8 -160q5 -28 11.5 -49.5t17.5 -44.5q39 -82 114.5 -129.5t170.5 -47.5q165 0 244 113t79 348v891h141v-926q0 -282 -112.5 -421.5t-341.5 -139.5q-245 0 -360 136t-115 425v926z" />
    <glyph glyph-name="V" unicode="V" horiz-adv-x="1139" 
d="M-41 1456h143l461 -1241l463 1241h143l-548 -1456h-113z" />
    <glyph glyph-name="W" unicode="W" horiz-adv-x="1665" 
d="M899 1456l293 -1194l364 1194h140l-451 -1456h-119l-292 1188l-293 -1188h-119l-453 1456h142l362 -1194l295 1194h131z" />
    <glyph glyph-name="X" unicode="X" horiz-adv-x="1165" 
d="M170 0h-176l506 733l-494 723h178l400 -604l399 604h176l-493 -723l505 -733h-180l-407 618z" />
    <glyph glyph-name="Y" unicode="Y" horiz-adv-x="981" 
d="M557 535v-535h-141v537l-465 919h164l372 -756l377 756h160z" />
    <glyph glyph-name="Z" unicode="Z" horiz-adv-x="938" 
d="M719 1313h-639v143h805v-137l-682 -1178h696v-141h-860v137z" />
    <glyph glyph-name="bracketleft" unicode="[" horiz-adv-x="541" 
d="M465 -293v-117h-332v1866h332v-119h-191v-1630h191z" />
    <glyph glyph-name="backslash" unicode="\" horiz-adv-x="569" 
d="M498 -190l-498 1646h119l499 -1646h-120z" />
    <glyph glyph-name="bracketright" unicode="]" horiz-adv-x="541" 
d="M76 -293h190v1630h-190v119h332v-1866h-332v117z" />
    <glyph glyph-name="asciicircum" unicode="^" horiz-adv-x="2048" 
d="M1094 1458l530 -557h-143l-457 455l-459 -455h-143l532 557h140z" />
    <glyph glyph-name="underscore" unicode="_" 
d="M1024 -383v-100h-1024v100h1024z" />
    <glyph glyph-name="grave" unicode="`" 
d="M545 1247l-269 350h152l209 -350h-92z" />
    <glyph glyph-name="a" unicode="a" horiz-adv-x="1290" 
d="M1042 557q0 174 -125 305t-288 131q-177 0 -301.5 -130.5t-124.5 -323.5q0 -183 123.5 -310t298.5 -127q168 0 292.5 133.5t124.5 321.5zM1042 174q-65 -94 -177.5 -148.5t-243.5 -54.5q-241 0 -402.5 165.5t-161.5 408.5q0 246 165 412.5t411 166.5q126 0 231.5 -51.5
t177.5 -148.5v176h138v-1100h-138v174z" />
    <glyph glyph-name="b" unicode="b" horiz-adv-x="1290" 
d="M248 1456v-459v-82q87 105 193.5 157t238.5 52q231 0 392 -167t161 -406q0 -247 -164 -413.5t-412 -166.5q-120 0 -221.5 47.5t-187.5 147.5v-166h-139v1456h139zM248 539q0 -176 124.5 -306.5t286.5 -130.5q177 0 301.5 131t124.5 324q0 184 -124 310t-297 126
q-172 0 -294 -132.5t-122 -321.5z" />
    <glyph glyph-name="c" unicode="c" horiz-adv-x="1241" 
d="M993 762q-64 120 -159 177.5t-222 57.5q-169 0 -288 -129.5t-119 -318.5q0 -190 119 -317.5t294 -127.5q127 0 224.5 62.5t150.5 177.5h156q-63 -178 -200.5 -276.5t-323.5 -98.5q-238 0 -403 169.5t-165 408.5q0 243 166.5 413t405.5 170q179 0 315 -96.5t205 -271.5
h-156z" />
    <glyph glyph-name="d" unicode="d" horiz-adv-x="1290" 
d="M1042 539q0 189 -124.5 321.5t-292.5 132.5q-174 0 -298 -127t-124 -309q0 -193 124.5 -324t301.5 -131q163 0 288 131t125 306zM1038 926v245v285h142v-1456h-142v166q-74 -92 -184 -143.5t-233 -51.5q-236 0 -400 168.5t-164 411.5q0 242 161 407.5t403 165.5
q128 0 235 -50t182 -148z" />
    <glyph glyph-name="e" unicode="e" horiz-adv-x="1241" 
d="M1192 506h-993q0 -88 35 -163q32 -69 95 -128q117 -111 292 -111q123 0 222.5 64t153.5 180h160q-75 -182 -213 -280.5t-319 -98.5q-239 0 -405.5 171.5t-166.5 410.5q0 250 162 414.5t416 164.5q246 0 403.5 -171t157.5 -443v-10zM1036 625q-39 183 -147 277.5
t-279 94.5q-79 0 -147 -25t-124 -76q-111 -99 -136 -271h833z" />
    <glyph glyph-name="f" unicode="f" horiz-adv-x="563" 
d="M309 0h-137v977h-147v123h141v30q0 174 88.5 258.5t271.5 84.5h13v-127q-124 0 -178 -50t-54 -166v-30h232v-123h-230v-977z" />
    <glyph glyph-name="g" unicode="g" horiz-adv-x="1280" 
d="M301 -90q31 -96 115.5 -149.5t204.5 -53.5q188 0 301.5 125t113.5 334v29q-80 -109 -183 -164.5t-224 -55.5q-247 0 -411.5 165.5t-164.5 412.5q0 243 162 408t401 165q140 0 241 -49.5t179 -156.5v180h138v-918q0 -289 -144.5 -450.5t-398.5 -161.5q-186 0 -319.5 92
t-174.5 248h164zM203 559q0 -192 123 -322.5t295 -130.5q162 0 287.5 130.5t125.5 306.5q0 187 -123.5 320.5t-289.5 133.5q-171 0 -294.5 -126.5t-123.5 -311.5z" />
    <glyph glyph-name="h" unicode="h" horiz-adv-x="1143" 
d="M111 1456h139v-485q59 74 146 112.5t192 38.5q230 0 337 -133t107 -430v-559h-139v561q0 237 -72.5 331.5t-240.5 94.5q-95 0 -168.5 -38.5t-114.5 -110.5q-25 -44 -37 -103q-10 -63 -10 -200v-535h-139v1456z" />
    <glyph glyph-name="i" unicode="i" horiz-adv-x="371" 
d="M256 1229h-141v227h141v-227zM115 0v1100h141v-1100h-141z" />
    <glyph glyph-name="j" unicode="j" horiz-adv-x="371" 
d="M256 1229h-141v227h141v-227zM256 1100v-1104q0 -200 -55 -275t-191 -75h-30v131q77 0 107 30q28 30 28 168v1125h141z" />
    <glyph glyph-name="k" unicode="k" horiz-adv-x="848" 
d="M256 0h-141v1456h141v-866l397 510h162l-399 -510l485 -590h-178l-467 573v-573z" />
    <glyph glyph-name="l" unicode="l" horiz-adv-x="371" 
d="M115 0v1456h141v-1456h-141z" />
    <glyph glyph-name="m" unicode="m" horiz-adv-x="1907" 
d="M977 928q66 95 166 144.5t223 49.5q222 0 325 -134.5t103 -432.5v-555h-135v584q0 217 -72 310t-235 93q-92 0 -164 -38t-115 -111q-24 -45 -36 -103q-5 -27 -8 -77.5t-3 -122.5v-535h-133v616q0 190 -77 280.5t-236 90.5q-95 0 -168.5 -38.5t-114.5 -110.5
q-25 -44 -37 -103q-10 -63 -10 -200v-535h-139v1100h139v-125q62 71 149 109t193 38q126 0 227.5 -52t157.5 -142z" />
    <glyph glyph-name="n" unicode="n" horiz-adv-x="1143" 
d="M113 1100h137v-125q65 75 150.5 111t195.5 36q119 0 214.5 -45t150.5 -129q38 -59 54.5 -139t16.5 -234v-575h-139v616q0 194 -74.5 282.5t-238.5 88.5q-95 0 -168.5 -38.5t-114.5 -110.5q-25 -44 -37 -103q-10 -63 -10 -200v-535h-137v1100z" />
    <glyph glyph-name="o" unicode="o" horiz-adv-x="1241" 
d="M201 551q0 -189 120.5 -318t301.5 -129q178 0 297.5 128.5t119.5 320.5q0 195 -121 320.5t-309 125.5q-167 0 -288 -129t-121 -319zM53 549q0 242 166 414t393 172q238 0 407 -169t169 -403q0 -246 -165 -420t-400 -174q-239 0 -404.5 170.5t-165.5 409.5z" />
    <glyph glyph-name="p" unicode="p" horiz-adv-x="1290" 
d="M109 1100h139v-180q60 92 171.5 148t237.5 56q249 0 412.5 -166t163.5 -413q0 -241 -161.5 -407.5t-403.5 -166.5q-134 0 -241 51.5t-179 151.5v-76v-164v-290h-139v1456zM248 557q0 -188 124 -321.5t292 -133.5q172 0 296.5 126.5t124.5 310.5q0 192 -124 323t-302 131
q-162 0 -286.5 -131.5t-124.5 -304.5z" />
    <glyph glyph-name="q" unicode="q" horiz-adv-x="1290" 
d="M1038 1100h142v-1456h-142v522q-70 -94 -178.5 -144.5t-238.5 -50.5q-241 0 -402.5 165.5t-161.5 408.5q0 246 165 412.5t411 166.5q125 0 229 -51.5t176 -148.5v176zM1042 557q0 174 -125 305t-288 131q-177 0 -301.5 -130.5t-124.5 -323.5q0 -183 123.5 -310
t298.5 -127q168 0 292.5 133.5t124.5 321.5z" />
    <glyph glyph-name="r" unicode="r" horiz-adv-x="512" 
d="M254 0h-143v1100h133v-127q50 71 113 107q31 17 67.5 26.5t76.5 9.5l1 -153q-132 -12 -190 -79t-58 -220v-664z" />
    <glyph glyph-name="s" unicode="s" horiz-adv-x="797" 
d="M43 346h145v-4q0 -103 59 -170.5t146 -67.5q83 0 138 52t55 131t-43 127t-158 90q-182 64 -238.5 132.5t-56.5 182.5q0 129 93 219t227 90q141 0 224 -80q42 -41 65.5 -96.5t23.5 -126.5h-151q0 39 -12.5 68.5t-36 51.5t-53 33t-69.5 11q-69 0 -115 -46.5t-46 -115.5
q0 -48 18.5 -82t61 -60t119.5 -49t102 -34q101 -43 150.5 -117t49.5 -186q0 -140 -99 -234t-251 -94q-155 0 -249 101q-48 53 -73.5 121t-25.5 153z" />
    <glyph glyph-name="t" unicode="t" horiz-adv-x="559" 
d="M209 0v958h-209v142h209v356h141v-356h209v-142h-209v-958h-141z" />
    <glyph glyph-name="u" unicode="u" horiz-adv-x="1143" 
d="M109 1100h139v-584q0 -225 72.5 -318.5t240.5 -93.5q95 0 166.5 38t116.5 112q24 43 35.5 102.5t11.5 202.5v541h141v-1100h-141v119q-62 -77 -142 -112.5t-192 -35.5q-237 0 -342.5 128.5t-105.5 426.5v574z" />
    <glyph glyph-name="v" unicode="v" horiz-adv-x="977" 
d="M543 0h-129l-430 1100h149l352 -887l355 887h153z" />
    <glyph glyph-name="w" unicode="w" horiz-adv-x="1421" 
d="M1016 276l266 824h150l-371 -1100h-92l-258 838l-254 -838h-92l-371 1100h147l269 -824l252 824h102z" />
    <glyph glyph-name="x" unicode="x" horiz-adv-x="848" 
d="M172 1100l256 -416l274 416h162l-356 -527l354 -573h-160l-282 459l-295 -459h-156l373 571l-328 529h158z" />
    <glyph glyph-name="y" unicode="y" horiz-adv-x="944" 
d="M-33 1100h162l340 -893l356 893h164l-594 -1456h-151l147 358z" />
    <glyph glyph-name="z" unicode="z" horiz-adv-x="825" 
d="M780 0h-760v133l574 834h-510v133h666v-152l-562 -807h592v-141z" />
    <glyph glyph-name="braceleft" unicode="{" 
d="M854 1370h-37q-131 0 -177 -49.5t-46 -204.5v-242q0 -170 -42.5 -240.5t-154.5 -103.5q110 -30 153.5 -103t43.5 -241v-241q0 -154 45 -204t170 -50l22 1l23 1v-107h-47q-197 0 -266.5 72.5t-69.5 296.5v244q0 152 -57 216t-195 64l-22 -1l-23 -1v109l23 -1l22 -1
q138 0 195 63t57 217v242q0 223 69.5 297t266.5 74h47v-107z" />
    <glyph glyph-name="bar" unicode="|" 
d="M567 1565v-2048h-108v2048h108z" />
    <glyph glyph-name="braceright" unicode="}" 
d="M555 1106v-242q0 -152 57 -216t195 -64l22 1l23 1v-109l-23 1l-22 1q-138 0 -195 -63t-57 -217v-244q0 -222 -70 -295.5t-266 -73.5h-47v107h39q129 0 175 49t46 203v241q0 171 42.5 242t154.5 102q-111 31 -154 103t-43 241v242q0 155 -45 205.5t-170 50.5l-22 -1
l-23 -1v107h47q195 0 265.5 -74.5t70.5 -296.5z" />
    <glyph glyph-name="asciitilde" unicode="~" horiz-adv-x="1706" 
d="M1530 637q-102 -72 -198.5 -107.5t-188.5 -35.5q-98 0 -260 57l-29 10l-16 6q-178 64 -273 64q-84 0 -176 -38t-211 -122v113q104 71 201 108t186 37q104 0 272 -61l18 -7l31 -11q167 -60 257 -60q86 0 177 38q45 18 98.5 49t111.5 73v-113z" />
    <glyph glyph-name="nonbreakingspace" unicode="&#xa0;" horiz-adv-x="1157" 
 />
    <glyph glyph-name="exclamdown" unicode="&#xa1;" horiz-adv-x="588" 
d="M223 1456h142v-266h-142v266zM223 1075h142v-1075h-142v1075z" />
    <glyph glyph-name="cent" unicode="&#xa2;" horiz-adv-x="1157" 
d="M973 909q-42 134 -134 202.5t-231 68.5q-163 0 -278 -131.5t-115 -325.5q0 -192 115.5 -322.5t287.5 -130.5q129 0 223 74t132 205h147q-57 -181 -171.5 -282.5t-278.5 -119.5v-229h-133v232q-200 27 -333.5 191.5t-133.5 381.5q0 222 129.5 382t337.5 193v211h133v-206
q171 -19 286 -119t164 -275h-147z" />
    <glyph glyph-name="sterling" unicode="&#xa3;" horiz-adv-x="1157" 
d="M860 811v-141h-385q41 -73 60.5 -145t19.5 -146q0 -76 -16.5 -134t-54.5 -118l58 -5l56 -1q186 0 277.5 69.5t91.5 212.5v26q-3 16 -5 36.5t-12 64.5h142l11 -71l3 -47q0 -92 -31 -171t-88.5 -134.5t-137 -81t-214.5 -25.5h-514v127h223q41 50 60.5 109t19.5 129
q0 81 -23 149t-82 158h-251v139h145q-8 25 -16.5 57.5t-15.5 62.5q-9 51 -9 95q0 195 132 326t333 131q172 0 286 -99t150 -280h-131q-25 118 -106.5 185t-196.5 67q-145 0 -236.5 -91.5t-91.5 -234.5q0 -23 3 -48.5t10 -53.5q14 -56 43 -117h493z" />
    <glyph glyph-name="currency" unicode="&#xa4;" horiz-adv-x="1241" 
d="M944 887q0 132 -94 226.5t-227 94.5q-134 0 -230 -94t-96 -227q0 -132 96 -229t230 -97q131 0 226 96.5t95 229.5zM360 1210q58 43 124 68q68 22 137 22q75 0 138 -23q66 -21 124 -67l204 205l66 -65l-205 -205q44 -59 66 -125q10 -32 16 -66.5t6 -68.5
q0 -69 -21.5 -133.5t-66.5 -124.5l205 -207l-66 -66l-204 205q-57 -44 -125.5 -67t-136.5 -23q-72 0 -135 22q-33 11 -63 27t-63 41l-204 -205l-66 66l205 207q-44 58 -68 125q-10 31 -16 65t-6 68q0 68 22.5 134t67.5 126l-205 205l66 65z" />
    <glyph glyph-name="yen" unicode="&#xa5;" horiz-adv-x="1157" 
d="M852 946h184v-110h-243l-88 -168h331v-111h-389v-557h-141v557h-391v111h334l-87 168h-247v110h188l-258 500h162l375 -748l368 748h162z" />
    <glyph glyph-name="brokenbar" unicode="&#xa6;" 
d="M567 408v-758h-108v758h108zM567 1432v-758h-108v758h108z" />
    <glyph glyph-name="section" unicode="&#xa7;" 
d="M391 526l248 -157q66 45 96.5 89.5t30.5 100.5q0 62 -34.5 110t-121.5 103l-221 137q-69 -27 -105 -74t-36 -106q0 -54 36.5 -106.5t106.5 -96.5zM170 127h137v-12q0 -100 51.5 -155.5t143.5 -55.5q85 0 133.5 44t48.5 122q0 62 -34 109t-128 104l-215 133
q-98 60 -148 131t-50 147q0 99 48 171t150 126q-53 41 -78.5 90t-25.5 117q0 123 87 205t226 82q145 0 229 -83.5t84 -230.5v-24h-128q0 104 -52 161.5t-145 57.5q-72 0 -117 -46t-45 -118q0 -58 35 -106.5t106 -89.5l203 -121q124 -72 174.5 -144.5t50.5 -169.5
q0 -88 -48.5 -158.5t-145.5 -121.5q52 -46 79 -103.5t27 -124.5q0 -123 -92 -202.5t-233 -79.5q-151 0 -240.5 85t-89.5 230l1 15z" />
    <glyph glyph-name="dieresis" unicode="&#xa8;" 
d="M625 1313v164h143v-164h-143zM256 1313v164h141v-164h-141z" />
    <glyph glyph-name="copyright" unicode="&#xa9;" horiz-adv-x="1706" 
d="M1073 915q-18 79 -75.5 123.5t-141.5 44.5q-122 0 -190 -95t-68 -267q0 -164 69.5 -259t188.5 -95q89 0 151 50.5t78 137.5h115q-10 -124 -108 -204.5t-242 -80.5q-178 0 -279.5 122t-101.5 335q0 203 107.5 326t283.5 123q134 0 225 -71.5t105 -189.5h-117zM1505 723
q0 132 -48.5 251t-139.5 210t-212.5 141.5t-252.5 50.5q-132 0 -249.5 -48t-207.5 -140q-93 -96 -143.5 -216t-50.5 -249q0 -130 49.5 -247t142 -210.5t212 -143.5t247.5 -50q131 0 250 49.5t217 144.5q91 89 138.5 206t47.5 251zM852 1456q150 0 283 -54.5t239 -160.5
q103 -103 157 -236.5t54 -281.5q0 -149 -53 -280t-158.5 -235t-241.5 -162q-68 -28 -137 -42t-143 -14q-144 0 -276.5 55t-238 160t-161 239t-55.5 279q0 146 56.5 280.5t162.5 241.5q100 102 231.5 156.5t280.5 54.5z" />
    <glyph glyph-name="ordfeminine" unicode="&#xaa;" horiz-adv-x="969" 
d="M782 1075q0 122 -94 214.5t-217 92.5q-133 0 -226 -92t-93 -227q0 -127 93 -217q47 -44 102 -66t122 -22q126 0 219.5 93.5t93.5 223.5zM782 809q-48 -67 -133.5 -105t-183.5 -38q-180 0 -301 116t-121 285q0 172 123 289t309 117q94 0 174 -36t133 -104v123h103v-770
h-103v123z" />
    <glyph glyph-name="guillemotleft" unicode="&#xab;" horiz-adv-x="934" 
d="M664 229l-246 320l246 321h137l-246 -321l246 -320h-137zM360 229l-245 320l245 321h138l-248 -321l248 -320h-138z" />
    <glyph glyph-name="logicalnot" unicode="&#xac;" horiz-adv-x="1706" 
d="M1452 858v-502h-96v402h-1102v100h1198z" />
    <glyph glyph-name="minus" unicode="&#xad;" horiz-adv-x="659" 
d="M563 616v-133h-469v133h469z" />
    <glyph glyph-name="registered" unicode="&#xae;" horiz-adv-x="1706" 
d="M850 1071h-158v-303h158q132 0 187 33t55 114t-58 118.5t-184 37.5zM874 1157q176 0 262.5 -57t86.5 -176q0 -87 -54 -148t-145 -74l188 -389h-145l-178 371h-197v-371h-127v844h309zM1505 721q0 133 -48 252.5t-139.5 211.5t-212 141.5t-253.5 49.5q-128 0 -245.5 -48
t-210 -141.5t-144 -214.5t-51.5 -249q0 -130 49.5 -247t142 -210.5t212 -143.5t247.5 -50q131 0 250 49.5t217 144.5q90 89 138 204.5t48 250.5zM852 1456q153 0 286 -54.5t236 -159t157 -238t54 -281.5q0 -149 -53 -280t-158.5 -235t-241.5 -162q-68 -28 -137 -42t-143 -14
q-148 0 -279 55t-236 160t-160.5 239t-55.5 279q0 146 56.5 280.5t162.5 241.5q100 102 231.5 156.5t280.5 54.5z" />
    <glyph glyph-name="macron" unicode="&#xaf;" 
d="M256 1346v116h512v-116h-512z" />
    <glyph glyph-name="degree" unicode="&#xb0;" horiz-adv-x="674" 
d="M545 1174q0 86 -61 147q-29 29 -66 45t-80 16q-86 0 -147.5 -61t-61.5 -147q0 -87 60.5 -147t148.5 -60q87 0 147 60t60 147zM338 1452q114 0 195 -81.5t81 -196.5q0 -114 -82 -196.5t-196 -82.5q-116 0 -196.5 81.5t-80.5 197.5q0 114 81 196t198 82z" />
    <glyph glyph-name="plusminus" unicode="&#xb1;" horiz-adv-x="1706" 
d="M1452 150v-99h-1198v99h1198zM903 1169v-348h549v-98h-549v-348h-98v348h-551v98h551v348h98z" />
    <glyph glyph-name="twosuperior" unicode="&#xb2;" horiz-adv-x="764" 
d="M684 582h-596v84l340 295q94 80 130 133t36 108q0 83 -59.5 138t-149.5 55q-92 0 -148.5 -56.5t-56.5 -150.5v-25h-92v13q0 131 85.5 215t219.5 84q121 0 207 -80.5t86 -198.5q0 -68 -36 -130.5t-113 -127.5l-324 -272h471v-84z" />
    <glyph glyph-name="threesuperior" unicode="&#xb3;" horiz-adv-x="764" 
d="M168 848v-8q0 -88 59 -144.5t146 -56.5q92 0 154.5 57t62.5 146q0 100 -65.5 151t-188.5 51h-45v72q10 0 16 -2h25q92 0 141 36t49 107q0 60 -40.5 100t-102.5 40q-70 0 -111 -39t-41 -109h-88q0 49 18.5 90.5t52.5 73.5q66 60 173 60q100 0 168 -64q34 -31 52 -69
t18 -83q0 -52 -22 -90t-73 -71q80 -39 120 -101t40 -145q0 -119 -88 -202t-219 -83q-140 0 -223.5 76t-83.5 207h96z" />
    <glyph glyph-name="acute" unicode="&#xb4;" 
d="M479 1247h-92l209 350h152z" />
    <glyph glyph-name="mu" unicode="&#xb5;" horiz-adv-x="1110" 
d="M344 1065l-125 -592l-12 -73l-4 -66q0 -117 57.5 -180.5t167.5 -63.5q124 0 214.5 107.5t133.5 310.5l121 557h139l-164 -770l-17 -85l-5 -48q0 -33 17.5 -49.5t50.5 -16.5h16l20 2l-20 -110l-41 -8l-45 -3q-68 0 -104 36q-33 36 -33 110v14q-42 -76 -120 -119t-179 -43
q-91 0 -161 39.5t-108 116.5l-114 -557h-140l316 1491h139z" />
    <glyph glyph-name="paragraph" unicode="&#xb6;" 
d="M940 1409h-127v-1409h-82v1409h-186v-1409h-84v782q-86 0 -154.5 26.5t-121.5 75.5q-101 95 -101 246q0 156 107.5 252.5t285.5 96.5h463v-70z" />
    <glyph glyph-name="periodcentered" unicode="&#xb7;" horiz-adv-x="578" 
d="M197 729q0 39 27.5 66.5t64.5 27.5q38 0 66 -28t28 -66q0 -37 -27.5 -64.5t-66.5 -27.5t-65.5 27.5t-26.5 64.5z" />
    <glyph glyph-name="cedilla" unicode="&#xb8;" 
d="M512 -111h20q107 0 163.5 -44t56.5 -128t-59.5 -130t-168.5 -46q-57 0 -116 9t-136 30v78q92 -20 145 -27q28 -4 49.5 -6t43.5 -2q64 0 96 23q33 21 33 67q0 54 -34.5 79.5t-108.5 25.5h-29q-12 0 -18 -2v184h63v-111z" />
    <glyph glyph-name="onesuperior" unicode="&#xb9;" horiz-adv-x="764" 
d="M446 582h-100v798h-168v76h268v-874z" />
    <glyph glyph-name="ordmasculine" unicode="&#xba;" horiz-adv-x="932" 
d="M152 1071q0 -132 90.5 -221.5t224.5 -89.5q133 0 223 89.5t90 223.5t-91 223.5t-230 89.5q-126 0 -216.5 -90.5t-90.5 -224.5zM41 1071q0 168 124 289t294 121q181 0 306.5 -117.5t125.5 -282.5q0 -173 -124 -294t-300 -121q-181 0 -303.5 119t-122.5 286z" />
    <glyph glyph-name="guillemotright" unicode="&#xbb;" horiz-adv-x="934" 
d="M573 229h-135l246 320l-246 321h135l248 -321zM270 229h-137l248 320l-248 321h137l246 -321z" />
    <glyph glyph-name="onequarter" unicode="&#xbc;" horiz-adv-x="1800" 
d="M1559 227l4 494l-342 -494h338zM1645 0h-89v158h-430v69l416 588h103v-588h100v-69h-100v-158zM508 -29h-121l905 1514h119zM426 641h-96v745h-160v70h256v-815z" />
    <glyph glyph-name="onehalf" unicode="&#xbd;" horiz-adv-x="1800" 
d="M1724 0h-569v80l326 272q96 81 126 129q16 25 23.5 49t7.5 50q0 75 -56 128q-28 26 -63 39t-79 13q-91 0 -144 -53t-53 -142v-22h-88v12q0 123 81 201t210 78q116 0 198 -76t82 -185q0 -63 -33.5 -121t-109.5 -120l-309 -252h450v-80zM508 -29h-121l905 1514h119z
M426 641h-96v745h-160v70h256v-815z" />
    <glyph glyph-name="threequarters" unicode="&#xbe;" horiz-adv-x="1800" 
d="M1559 227l4 494l-342 -494h338zM1645 0h-89v158h-430v69l416 588h103v-588h100v-69h-100v-158zM508 -29h-121l905 1514h119zM160 889v-6q0 -82 56.5 -135.5t139.5 -53.5q91 0 149 53t58 136q0 94 -62.5 142t-181.5 48h-43l1 68l15 -2h25q89 0 137 33q22 16 34 41t12 59
q0 57 -40 94t-98 37q-66 0 -105.5 -36.5t-39.5 -100.5h-84q0 47 17.5 83.5t51.5 67.5q64 56 165 56q93 0 159 -59.5t66 -141.5q0 -47 -21 -84t-67 -68q75 -35 112 -93t37 -136q0 -111 -83.5 -188.5t-209.5 -77.5q-133 0 -212 70q-39 35 -59.5 83t-20.5 111h92z" />
    <glyph glyph-name="questiondown" unicode="&#xbf;" horiz-adv-x="948" 
d="M387 1058l143 1q0 -93 -38 -182t-115 -172l-54 -54q-126 -117 -126 -252q0 -129 70.5 -204.5t193.5 -75.5q129 0 201 84q36 42 57.5 104t21.5 137h148q0 -106 -30.5 -191t-92.5 -152q-121 -130 -313 -130q-182 0 -295 119t-113 309q0 187 167 338l24 21q79 73 115 145
t36 155zM530 1456v-266h-143v266h143z" />
    <glyph glyph-name="Agrave" unicode="&#xc0;" horiz-adv-x="1216" 
d="M112 0h-151l565 1456h172l563 -1456h-153l-174 457h-648zM884 588l-276 731l-272 -731h548z" />
    <glyph glyph-name="Aacute" unicode="&#xc1;" horiz-adv-x="1007" 
d="M272 688v-549h201q178 0 262 67t84 206t-86 207.5t-260 68.5h-201zM272 1317v-490h86q112 0 181 -5q121 -9 178 -33q67 -28 113 -63t76 -80q59 -88 59 -216q0 -110 -32.5 -190.5t-94.5 -133.5t-156.5 -79.5t-224.5 -26.5h-322v1456l744 2v-141h-607z" />
    <glyph glyph-name="Acircumflex" unicode="&#xc2;" horiz-adv-x="1042" 
d="M279 688v-549h194q178 0 262 67t84 206t-86 207.5t-260 68.5h-194zM279 1317v-490l96 1q132 0 180.5 11.5t98.5 45.5q85 59 85 192q0 124 -82 182t-262 58h-116zM135 1456h271q247 0 363 -93.5t116 -291.5q0 -99 -38.5 -169.5t-117.5 -117.5q117 -48 176.5 -137
t59.5 -217q0 -221 -122.5 -325.5t-385.5 -104.5h-322v1456z" />
    <glyph glyph-name="Atilde" unicode="&#xc3;" horiz-adv-x="824" 
d="M761 1313l-511 -1l-1 -1313h-144v1456l656 -1v-141z" />
    <glyph glyph-name="Adieresis" unicode="&#xc4;" horiz-adv-x="1563" 
d="M1465 144v-348h-157v204h-1127v-204h-147v351l126 1l512 1308h172l511 -1312h110zM754 1319l-448 -1172h907z" />
    <glyph glyph-name="Aring" unicode="&#xc5;" horiz-adv-x="936" 
d="M249 803h612v-144h-612v-518h612v-141h-756v1456h756v-143h-612v-510z" />
    <glyph glyph-name="AE" unicode="&#xc6;" horiz-adv-x="1742" 
d="M951 0h-141v449l-164 196l-494 -645h-176l578 752l-588 704h170l674 -809v811l136 -2v-809l674 809h170l-588 -704l578 -752h-176l-494 645l-164 -196v-449h5z" />
    <glyph glyph-name="Ccedilla" unicode="&#xc7;" horiz-adv-x="1065" 
d="M214 442v-12q0 -144 89.5 -239t221.5 -95q142 0 235 94.5t93 241.5q0 167 -98 253.5t-287 86.5h-42h-25v117q9 1 14 1q7 0 10 -1h39q145 0 217 60t72 177q0 103 -62 168.5t-156 65.5q-107 0 -168 -65q-30 -31 -46.5 -77t-16.5 -103h-131q0 83 27.5 150.5t79.5 119.5
q100 100 262 100q149 0 253.5 -106t104.5 -253q0 -87 -33.5 -151t-107.5 -119q117 -62 178 -165t61 -245q0 -201 -132.5 -338t-332.5 -137q-212 0 -337 126q-62 64 -94.5 150.5t-32.5 194.5h145z" />
    <glyph glyph-name="Egrave" unicode="&#xc8;" horiz-adv-x="1312" 
d="M1203 0h-151v1264l-773 -1264h-172v1456h145l-2 -1260l781 1260h172v-1456z" />
    <glyph glyph-name="Eacute" unicode="&#xc9;" horiz-adv-x="1308" 
d="M1203 0h-146v1264l-778 -1264h-172v1456h142l1 -1260l781 1260h172v-1456zM443 1644q0 -91 64 -155t155 -64q90 0 154 64t64 155h-85q0 -56 -38.5 -94.5t-94.5 -38.5t-94.5 38.5t-38.5 94.5h-86z" />
    <glyph glyph-name="Ecircumflex" unicode="&#xca;" horiz-adv-x="1092" 
d="M244 449v-449h-141v1456h141v-809l674 809h170l-588 -704l578 -752h-176l-494 645z" />
    <glyph glyph-name="Edieresis" unicode="&#xcb;" horiz-adv-x="1165" 
d="M1189 0h-143l-463 1241l-461 -1241h-143l549 1456h113z" />
    <glyph glyph-name="Igrave" unicode="&#xcc;" horiz-adv-x="1636" 
d="M103 0v1456h211l504 -1266l502 1266h211v-1456h-137v1286l-512 -1286h-129l-512 1286v-1286h-138z" />
    <glyph glyph-name="Iacute" unicode="&#xcd;" horiz-adv-x="1200" 
d="M249 0h-144v1456h144v-653h692v653h143v-1456h-143v664h-692v-664z" />
    <glyph glyph-name="Icircumflex" unicode="&#xce;" horiz-adv-x="1612" 
d="M211 735q0 -266 173 -446t427 -180q247 0 418.5 182t171.5 448q0 248 -176 427.5t-424 179.5q-103 0 -196 -34t-171 -102q-103 -86 -163 -214t-60 -261zM61 737q0 152 58.5 290.5t169.5 246.5q105 104 235 157.5t279 53.5q152 0 282 -53t240 -160t166.5 -243.5
t56.5 -291.5q0 -154 -48 -283.5t-144 -236.5q-111 -121 -251.5 -183.5t-303.5 -62.5q-313 0 -526.5 220.5t-213.5 545.5z" />
    <glyph glyph-name="Idieresis" unicode="&#xcf;" horiz-adv-x="1196" 
d="M249 0h-144v1456h979v-1456h-143v1316h-692v-1316z" />
    <glyph glyph-name="Eth" unicode="&#xd0;" horiz-adv-x="1028" 
d="M252 1313v-555h211q175 0 260 67q43 33 66 85.5t23 121.5q0 73 -22.5 125.5t-67.5 87.5q-85 68 -271 68h-199zM109 1456h309q70 0 120.5 -3t92.5 -11q79 -13 133 -45q96 -57 147.5 -150.5t51.5 -208.5q0 -111 -46 -203.5t-130 -148.5q-57 -39 -139 -56.5t-205 -17.5h-191
v-612h-143v1456z" />
    <glyph glyph-name="Ntilde" unicode="&#xd1;" horiz-adv-x="1540" 
d="M1296 1079q-96 133 -218.5 198.5t-276.5 65.5q-242 0 -415 -180.5t-173 -427.5q0 -263 171.5 -444.5t416.5 -181.5q150 0 272 63t213 188h170q-99 -186 -268 -287.5t-377 -101.5q-320 0 -535 219.5t-215 546.5q0 153 57.5 290t170.5 247q103 103 232.5 157t281.5 54
q217 0 390 -105t275 -301h-172z" />
    <glyph glyph-name="Ograve" unicode="&#xd2;" horiz-adv-x="797" 
d="M493 0h-143v1313h-291v143h725v-143h-291v-1313z" />
    <glyph glyph-name="Oacute" unicode="&#xd3;" horiz-adv-x="1048" 
d="M437 0h-151l170 417l-475 1039h164l382 -876l367 876h160z" />
    <glyph glyph-name="Ocircumflex" unicode="&#xd4;" horiz-adv-x="1640" 
d="M1449 1032q0 144 -86 212.5t-272 68.5h-199v-555h211q175 0 260.5 67.5t85.5 206.5zM746 758v555h-199q-186 0 -271 -68q-43 -34 -66.5 -86.5t-23.5 -123.5q0 -70 22.5 -123t66.5 -87q85 -67 260 -67h211zM1058 1456q70 0 120.5 -3t92.5 -11q79 -13 133 -45
q96 -57 147.5 -150.5t51.5 -208.5q0 -111 -46 -203.5t-130 -148.5q-57 -39 -139 -56.5t-205 -17.5h-191v-612h-146v612h-191q-123 0 -205 17.5t-139 56.5q-84 56 -130 148.5t-46 203.5q0 115 51.5 208.5t147.5 150.5q54 32 131.5 45.5t214.5 13.5h478z" />
    <glyph glyph-name="Otilde" unicode="&#xd5;" horiz-adv-x="1098" 
d="M130 0h-176l506 733l-494 723h178l400 -604l399 604h176l-493 -723l505 -733h-180l-407 618z" />
    <glyph glyph-name="Odieresis" unicode="&#xd6;" horiz-adv-x="1264" 
d="M1066 0h-971v1456h144v-1317h692v1317h143v-1318l136 2v-350h-144v210z" />
    <glyph glyph-name="multiply" unicode="&#xd7;" horiz-adv-x="1044" 
d="M234 1460v-424q0 -63 27.5 -119.5t71.5 -91.5q85 -67 260 -67h211v698h143v-1456h-143v612h-191q-123 0 -205 17.5t-139 56.5q-84 56 -129 148q-19 38 -35 125q-5 28 -12 79l-1 422h142z" />
    <glyph glyph-name="Oslash" unicode="&#xd8;" horiz-adv-x="1648" 
d="M900 141h497v1313h137v-1456h-1428v1456l136 1v-1314h505l-1 1313l154 1v-1314z" />
    <glyph glyph-name="Ugrave" unicode="&#xd9;" horiz-adv-x="1708" 
d="M1534 140h136v-348h-136v204l-1428 2v1456l140 1v-1314h501l-1 1313l154 1v-1314h497v1313h137v-1314z" />
    <glyph glyph-name="Uacute" unicode="&#xda;" horiz-adv-x="1034" 
d="M843 432q0 68 -24 115.5t-69 83.5q-85 67 -260 67h-211v-555h199q186 0 271 68q43 34 68.5 92t25.5 129zM135 1315h-100l1 141h243v-612h191q123 0 205 -17.5t139 -56.5q84 -56 130 -148.5t46 -203.5q0 -115 -51.5 -208.5t-147.5 -150.5q-54 -32 -131.5 -45.5
t-214.5 -13.5h-309z" />
    <glyph glyph-name="Ucircumflex" unicode="&#xdb;" horiz-adv-x="1336" 
d="M963 418q0 -115 -51.5 -208.5t-147.5 -150.5q-54 -32 -131.5 -45.5t-214.5 -13.5h-309v1456h143v-612h191q123 0 205 -17.5t139 -56.5q84 -56 130 -148.5t46 -203.5zM813 429q0 68 -23 117.5t-67 84.5q-85 67 -260 67h-211v-555h199q186 0 271 68q44 35 67.5 90t23.5 128
zM1100 1460h135v-1460h-135v1460z" />
    <glyph glyph-name="Udieresis" unicode="&#xdc;" 
d="M963 418q0 -115 -51.5 -208.5t-147.5 -150.5q-54 -32 -131.5 -45.5t-214.5 -13.5h-309v1456h143v-612h191q123 0 205 -17.5t139 -56.5q84 -56 130 -148.5t46 -203.5zM813 426q0 68 -23.5 119.5t-66.5 85.5q-85 67 -260 67h-211v-555h199q186 0 271 68q44 35 67.5 89
t23.5 126z" />
    <glyph glyph-name="Yacute" unicode="&#xdd;" horiz-adv-x="1540" 
d="M1145 1163q-174 180 -416 180q-154 0 -276.5 -65.5t-218.5 -198.5h-172q102 196 275 301t390 105q152 0 281.5 -54t232.5 -157q113 -110 170.5 -247t57.5 -290q0 -327 -215 -546.5t-535 -219.5q-208 0 -377 101.5t-268 287.5h170q91 -125 213 -188t272 -63q245 0 417 181
q80 85 116 167q30 68 50 191h-592v156h592q-11 117 -46 193t-121 166z" />
    <glyph glyph-name="Thorn" unicode="&#xde;" horiz-adv-x="1940" 
d="M541 735q0 -107 43 -227q48 -134 130 -219q173 -180 427 -180q247 0 418.5 182t171.5 448q0 248 -176 427.5t-424 179.5q-103 0 -196 -34t-171 -102q-103 -86 -163 -214t-60 -261zM449 1027q25 67 70 131q41 58 100 116q105 104 235 157.5t279 53.5q152 0 282 -53
t240 -160t166.5 -243.5t56.5 -291.5q0 -154 -48 -283.5t-144 -236.5q-111 -121 -251.5 -183.5t-303.5 -62.5q-313 0 -527 220q-102 106 -160 241q-54 127 -54 244h-140v-676h-144v1460h144v-640h144q7 58 17 95.5t38 111.5z" />
    <glyph glyph-name="germandbls" unicode="&#xdf;" horiz-adv-x="1034" 
d="M764 758v555h-199q-186 0 -271 -68q-45 -35 -71 -87q-29 -57 -29 -126q0 -67 28 -122q25 -49 71 -85q85 -67 260 -67h211zM368 629q-82 18 -139 57q-84 56 -129 148q-24 46 -35 98t-11 108q0 114 51 207t147 150q54 32 131.5 45.5t214.5 13.5h309v-1456h-143v612h-234
l-354 -612h-166z" />
    <glyph glyph-name="agrave" unicode="&#xe0;" horiz-adv-x="1290" 
d="M1042 557q0 174 -125 305t-288 131q-177 0 -302 -131q-64 -67 -99 -147.5t-35 -175.5q0 -88 35 -166t99 -145q123 -126 298 -126q168 0 292.5 133.5t124.5 321.5zM1042 174q-65 -94 -177.5 -148.5t-243.5 -54.5q-241 0 -402.5 165.5t-161.5 408.5q0 246 165 412.5
t411 166.5q126 0 231.5 -51.5t177.5 -148.5v176h138v-1100h-138v174z" />
    <glyph glyph-name="aacute" unicode="&#xe1;" horiz-adv-x="1280" 
d="M1211 545q0 -243 -162 -408t-401 -165q-140 0 -241 50t-179 156v-180h-138v918q0 174 22 274q30 135 107 199q84 69 133 94q74 37 169 37q53 0 121.5 -23t137.5 -46t114 -23q66 0 122.5 27t115.5 57v-144q-69 -36 -120 -52q-63 -20 -126 -20q-52 0 -129 23q-15 5 -131 43
q-72 24 -101 24q-60 0 -101.5 -18.5t-98 -71.5t-79.5 -159q-18 -82 -18 -205v-29q80 109 183 164.5t224 55.5q247 0 411.5 -165.5t164.5 -412.5zM1061 539q0 192 -123 322.5t-295 130.5q-162 0 -287.5 -130.5t-125.5 -306.5q0 -187 123.5 -320.5t289.5 -133.5
q171 0 294.5 126.5t123.5 311.5z" />
    <glyph glyph-name="acircumflex" unicode="&#xe2;" horiz-adv-x="1280" 
d="M1053 501q0 68 -25 134q-29 77 -87 139q-124 130 -296 130q-82 0 -166 -41q-73 -36 -122 -89q-45 -49 -77 -115q-38 -78 -38 -142q0 -93 21.5 -154.5t81.5 -127t136.5 -99.5t160.5 -34q88 0 164.5 29.5t136.5 91t85 129t25 149.5zM945 1235q0 98 -117 140q-78 28 -184 28
q-83 0 -157 -25q-89 -30 -143.5 -90.5t-86.5 -152.5t-32 -195v-105q40 54 88 94t103 67q43 21 118.5 32.5t215.5 11.5q84 0 139.5 52.5t55.5 142.5zM930 975q50 -30 73 -50q16 -14 47 -50q68 -78 104 -153q49 -102 49 -215q0 -112 -46 -214q-36 -80 -100.5 -152.5
t-165.5 -116.5q-113 -50 -241 -50q-140 0 -241 50t-179 156v-180h-138v918q0 289 145 450q68 77 181.5 119.5t221.5 42.5q93 0 168.5 -16.5t151.5 -53.5q57 -27 95 -82q45 -64 45 -143q0 -101 -45 -171t-125 -89z" />
    <glyph glyph-name="atilde" unicode="&#xe3;" horiz-adv-x="797" 
d="M747 346q0 -84 -25.5 -152.5t-73.5 -121.5q-94 -101 -249 -101q-152 0 -251 94t-99 234q0 112 49.5 186t150.5 117q25 11 102 34t119.5 49t61 60t18.5 82q0 69 -46 115.5t-115 46.5q-76 0 -121 -43q-25 -23 -37.5 -52t-12.5 -69h-151q0 69 23.5 125.5t65.5 97.5
q83 80 224 80q134 0 227 -90t93 -219q0 -114 -56.5 -182.5t-238.5 -132.5q-115 -42 -158 -90t-43 -127t55 -131t138 -52q87 0 146 67.5t59 170.5v4h145z" />
    <glyph glyph-name="adieresis" unicode="&#xe4;" horiz-adv-x="1276" 
d="M301 -90q31 -96 115.5 -149.5t204.5 -53.5q188 0 301.5 125t113.5 334v29q-80 -109 -183 -164.5t-224 -55.5q-247 0 -411.5 165.5t-164.5 412.5q0 243 162 408t401 165q140 0 241 -49.5t179 -156.5v180h138v-918q0 -289 -144.5 -450.5t-398.5 -161.5q-186 0 -319.5 92
t-174.5 248h164zM203 559q0 -192 123 -322.5t295 -130.5q162 0 287.5 130.5t125.5 306.5q0 187 -123.5 320.5t-289.5 133.5q-171 0 -294.5 -126.5t-123.5 -311.5z" />
    <glyph glyph-name="aring" unicode="&#xe5;" horiz-adv-x="1241" 
d="M1192 506h-993q0 -88 35 -163q32 -69 95 -128q117 -111 292 -111q123 0 222.5 64t153.5 180h160q-75 -182 -213 -280.5t-319 -98.5q-239 0 -405.5 171.5t-166.5 410.5q0 250 162 414.5t416 164.5q246 0 403.5 -171t157.5 -443v-10zM1036 625q-39 183 -146.5 277
t-277.5 94q-82 0 -149 -24.5t-124 -75.5q-111 -99 -136 -271h833z" />
    <glyph glyph-name="ae" unicode="&#xe6;" horiz-adv-x="1361" 
d="M612 1101l145 -1v-510l397 510h162l-399 -510l485 -590h-178l-467 573v-573h-144v573l-467 -573h-178l485 590l-399 510h162l397 -510z" />
    <glyph glyph-name="ccedilla" unicode="&#xe7;" horiz-adv-x="797" 
d="M344 664q61 0 88.5 3t55.5 13q55 20 74.5 55.5t19.5 83.5q0 34 -12.5 65t-33.5 52q-45 45 -115 45q-76 0 -121 -43q-25 -23 -37.5 -52t-12.5 -69h-151q0 69 23.5 125.5t65.5 97.5q83 80 224 80q134 0 227 -90t93 -219q0 -71 -35 -133q-43 -77 -121 -94q56 -30 72.5 -45
t43.5 -54q49 -74 49 -186q0 -140 -99 -234t-251 -94q-155 0 -249 101q-48 53 -73.5 121t-25.5 153l146 2q0 -110 58.5 -177t145.5 -67q83 0 138 52t55 131q0 39 -13 83t-33 70q-34 44 -77 62t-119 18v144z" />
    <glyph glyph-name="egrave" unicode="&#xe8;" horiz-adv-x="1143" 
d="M109 1100h139v-584q0 -225 72.5 -318.5t240.5 -93.5q95 0 166.5 38t116.5 112q24 43 35.5 102.5t11.5 202.5v541h141v-1100h-141v119q-62 -77 -142 -112.5t-192 -35.5q-237 0 -342.5 128.5t-105.5 426.5v574z" />
    <glyph glyph-name="eacute" unicode="&#xe9;" horiz-adv-x="1143" 
d="M109 1100h139v-584q0 -225 72.5 -318.5t240.5 -93.5q95 0 166.5 38t116.5 112q24 43 35.5 102.5t11.5 202.5v541h141v-1100h-141v119q-62 -77 -142 -112.5t-192 -35.5q-237 0 -342.5 128.5t-105.5 426.5v574zM364 1298q0 -90 63 -153t153 -63t153 63t63 153h-88
q0 -53 -38 -92t-93 -39q-53 0 -90 38t-37 93q-5 -1 -12.5 -1h-14.5h-36.5t-22.5 1z" />
    <glyph glyph-name="ecircumflex" unicode="&#xea;" horiz-adv-x="841" 
d="M236 0h-141v1101h141v-511l397 510h162l-399 -510l485 -590h-178l-467 573v-573z" />
    <glyph glyph-name="edieresis" unicode="&#xeb;" horiz-adv-x="937" 
d="M987 -2h-153l-355 887l-352 -887h-149l430 1100h129z" />
    <glyph glyph-name="igrave" unicode="&#xec;" horiz-adv-x="1814" 
d="M971 -2l352 887l355 -887h153l-450 1100h-129l-364 -912l-375 912h-129l-430 -1100h149l352 887l355 -887h161z" />
    <glyph glyph-name="iacute" unicode="&#xed;" horiz-adv-x="1143" 
d="M248 620h644l-1 480h141v-1100h-141l1 480h-644v-480h-140l1 1100h139v-480z" />
    <glyph glyph-name="icircumflex" unicode="&#xee;" horiz-adv-x="1234" 
d="M201 551q0 -189 120.5 -318t301.5 -129q178 0 297.5 128.5t119.5 320.5q0 195 -121 320.5t-309 125.5q-167 0 -288 -129t-121 -319zM53 549q0 242 166 414t393 172q238 0 407 -169t169 -403q0 -246 -165 -420t-400 -174q-239 0 -404.5 170.5t-165.5 409.5z" />
    <glyph glyph-name="idieresis" unicode="&#xef;" horiz-adv-x="1143" 
d="M113 1100h137v-125q65 75 150.5 111t195.5 36q119 0 214.5 -45t150.5 -129q38 -59 54.5 -139t16.5 -234v-575h-139v616q0 194 -74.5 282.5t-238.5 88.5q-95 0 -168.5 -38.5t-114.5 -110.5q-25 -44 -37 -103q-10 -63 -10 -200v-535h-137v1100z" />
    <glyph glyph-name="eth" unicode="&#xf0;" horiz-adv-x="1290" 
d="M109 1100h139v-180q60 92 171.5 148t237.5 56q249 0 412.5 -166t163.5 -413q0 -241 -161.5 -407.5t-403.5 -166.5q-134 0 -241 51.5t-179 151.5v-76v-164v-290h-139v1456zM248 557q0 -188 124 -321.5t292 -133.5q172 0 296.5 126.5t124.5 310.5q0 192 -124 323t-302 131
q-162 0 -286.5 -131.5t-124.5 -304.5z" />
    <glyph glyph-name="ntilde" unicode="&#xf1;" horiz-adv-x="1200" 
d="M993 762q-64 120 -159 177.5t-222 57.5q-169 0 -288 -129.5t-119 -318.5q0 -190 119 -317.5t294 -127.5q127 0 224.5 62.5t150.5 177.5h156q-63 -178 -200.5 -276.5t-323.5 -98.5q-238 0 -403 169.5t-165 408.5q0 243 166.5 413t405.5 170q179 0 315 -96.5t205 -271.5
h-156z" />
    <glyph glyph-name="ograve" unicode="&#xf2;" horiz-adv-x="1900" 
d="M966 933q32 45 76 82t93.5 61.5t106.5 35t124 10.5q222 0 325 -134.5t103 -432.5v-555h-135v584q0 217 -72 310t-235 93q-92 0 -166 -39q-38 -20 -67.5 -46t-50.5 -62q-9 -18 -16.5 -44.5t-13.5 -57t-9 -81t-3 -122.5v-535h-143v616q0 109 -11 169q-14 77 -53 118
q-79 84 -239 84q-95 0 -168.5 -38.5t-114.5 -110.5q-25 -44 -37 -103q-10 -63 -10 -200v-535h-139v1100h139v-125q62 71 149 109t193 38q126 0 228 -53q48 -24 83 -57t63 -79z" />
    <glyph glyph-name="oacute" unicode="&#xf3;" horiz-adv-x="1020" 
d="M-27 1100h162l340 -893l356 893h164l-594 -1456h-151l147 358z" />
    <glyph glyph-name="ocircumflex" unicode="&#xf4;" horiz-adv-x="2214" 
d="M2015 539q0 192 -124 323t-302 131q-162 0 -286.5 -131.5t-124.5 -304.5q0 -188 124 -321.5t292 -133.5q172 0 296.5 126.5t124.5 310.5zM1038 557q0 173 -124.5 304.5t-286.5 131.5q-178 0 -302 -131t-124 -323q0 -184 124.5 -310.5t296.5 -126.5q168 0 292 133.5
t124 321.5zM1039 1100h139v-180q60 92 171.5 148t237.5 56q249 0 412.5 -166t163.5 -413q0 -241 -161.5 -407.5t-403.5 -166.5q-134 0 -241 51.5t-179 151.5v-76v-164v-290h-140v290v164v76q-72 -100 -179 -151.5t-241 -51.5q-242 0 -403.5 166.5t-161.5 407.5
q0 247 163.5 413t412.5 166q126 0 237.5 -56t171.5 -148z" />
    <glyph glyph-name="otilde" unicode="&#xf5;" horiz-adv-x="846" 
d="M151 1100l286 -428l284 428h162l-366 -552l364 -548h-160l-292 428l-285 -428h-156l361 552l-356 548h158z" />
    <glyph glyph-name="odieresis" unicode="&#xf6;" horiz-adv-x="1222" 
d="M1012 -2q-16 9 -24 15q-26 18 -40.5 35.5t-28.5 53.5q-4 11 -11 32q-19 -40 -70 -77q-39 -28 -90 -51q-79 -35 -191 -35q-237 0 -342.5 128.5t-105.5 426.5v574h139v-584q0 -225 72.5 -318.5t240.5 -93.5q95 0 166.5 38t116.5 112q24 43 36 101q5 30 8 74t3 130v541h141
v-772q1 -45 3 -70q8 -75 33 -114q12 -18 47 -35q11 -5 33 -13v-252h-136v154z" />
    <glyph glyph-name="divide" unicode="&#xf7;" horiz-adv-x="1143" 
d="M109 1100h139v-184q0 -225 72.5 -318.5t240.5 -93.5q95 0 166.5 38t116.5 112q24 43 35.5 102.5t11.5 202.5v141h141v-1100h-141v519q-62 -77 -142 -112.5t-192 -35.5q-237 0 -342.5 128.5t-105.5 426.5v174z" />
    <glyph glyph-name="oslash" unicode="&#xf8;" horiz-adv-x="1907" 
d="M1790 -2h-139v125q-62 -71 -149 -109t-193 -38q-126 0 -227.5 52t-157.5 142q-66 -95 -166 -144.5t-223 -49.5q-222 0 -325 134.5t-103 432.5v555h135v-584q0 -217 72 -310t235 -93q92 0 164 38t115 111q24 45 36 103q5 27 8 77.5t3 122.5v535h153v-616q0 -107 13.5 -175
t50.5 -112t93 -64t136 -20q95 0 168.5 38.5t114.5 110.5q25 44 37 103q10 63 10 200v535h139v-1100z" />
    <glyph glyph-name="ugrave" unicode="&#xf9;" horiz-adv-x="1983" 
d="M745 6q-79 -35 -191 -35q-237 0 -342.5 128.5t-105.5 426.5v574h139v-584q0 -225 72.5 -318.5t240.5 -93.5q95 0 166.5 38t116.5 112q24 43 36 101q5 30 8 74t3 130v541h140v-584q0 -225 72.5 -318.5t240.5 -93.5q95 0 166.5 38t116.5 112q24 43 36 101q5 30 8 74t3 130
v541h141v-772q1 -45 3 -70q8 -75 33 -114q12 -18 47 -35q11 -5 33 -13v-252h-136v154q-16 9 -24 15q-26 18 -40.5 35.5t-28.5 53.5q-4 11 -11 32q-19 -40 -70 -77q-39 -28 -90 -51q-79 -35 -191 -35q-119 0 -197.5 31t-133.5 97q-27 33 -49 81q-16 -52 -95 -108
q-53 -38 -117 -66z" />
    <glyph glyph-name="uacute" unicode="&#xfa;" horiz-adv-x="1128" 
d="M946 440q0 134 -95 229t-229 95t-229 -95t-95 -229t95 -229t229 -95t229 95t95 229zM298 776q64 61 146 93.5t176 32.5q192 0 327 -135t135 -327t-135 -327t-327 -135q-91 0 -174.5 34.5t-147.5 95.5v-108h-140v962h-108v138h248v-324z" />
    <glyph glyph-name="ucircumflex" unicode="&#xfb;" horiz-adv-x="1408" 
d="M896 440q0 134 -95 229t-229 95t-229 -95t-95 -229t95 -229t229 -95t229 95t95 229zM248 776q64 61 146 93.5t176 32.5q192 0 327 -135t135 -327t-135 -327t-327 -135q-91 0 -174.5 34.5t-147.5 95.5v-108h-140v1100h140v-324zM1309 0h-144v1104h144v-1104z" />
    <glyph glyph-name="udieresis" unicode="&#xfc;" horiz-adv-x="1092" 
d="M896 440q0 134 -95 229t-229 95t-229 -95t-95 -229t95 -229t229 -95t229 95t95 229zM248 776q64 61 146 93.5t176 32.5q192 0 327 -135t135 -327t-135 -327t-327 -135q-91 0 -174.5 34.5t-147.5 95.5v-108h-140v1100h140v-324z" />
    <glyph glyph-name="yacute" unicode="&#xfd;" horiz-adv-x="1200" 
d="M987 621q-10 74 -36.5 134.5t-74.5 112.5q-120 129 -289 129q-127 0 -221.5 -57.5t-159.5 -177.5h-156q69 175 205 271.5t315 96.5q239 0 405.5 -170t166.5 -413q0 -239 -165 -408.5t-403 -169.5q-186 0 -323.5 98.5t-200.5 276.5h156q53 -115 150.5 -177.5t224.5 -62.5
q175 0 294 127q97 104 115 249q-25 -3 -49 -5q-37 -1 -120 -1q-107 0 -166.5 0.5t-117.5 2.5v144h450z" />
    <glyph glyph-name="thorn" unicode="&#xfe;" horiz-adv-x="1560" 
d="M521 551q0 -189 120.5 -318t301.5 -129q178 0 297.5 128.5t119.5 320.5q0 195 -121 320.5t-309 125.5q-167 0 -288 -129t-121 -319zM382 620q11 101 48.5 185t108.5 158q166 172 393 172q238 0 407 -169t169 -403q0 -246 -165 -420t-400 -174q-239 0 -405 170
q-67 70 -106 155t-50 182h-134v-476h-140v1100h140v-480h134z" />
    <glyph glyph-name="ydieresis" unicode="&#xff;" horiz-adv-x="1092" 
d="M852 660q0 143 -96 232.5t-234 89.5q-134 0 -229 -95t-95 -229t95 -229t229 -95q139 0 232 87q98 91 98 239zM463 216q-173 22 -285 143q-116 125 -116 299q0 192 135 327t327 135q91 0 174.5 -34.5t147.5 -95.5v108h140v-1100h-140v324q-22 -21 -143 -103
q-75 -51 -221 -147q-114 -75 -115 -75h-252z" />
    <glyph glyph-name="dotlessi" unicode="&#x131;" horiz-adv-x="371" 
d="M115 0v1100h141v-1100h-141z" />
    <glyph glyph-name="OE" unicode="&#x152;" horiz-adv-x="2232" 
d="M1393 260q-123 -147 -268.5 -218t-323.5 -71q-313 0 -526.5 220.5t-213.5 545.5q0 152 58.5 290.5t169.5 246.5q105 104 235 157.5t279 53.5q185 0 334.5 -73.5t255.5 -217.5v262h755v-143h-612v-510h612v-144h-612v-518h612v-141h-755v260zM211 735q0 -266 173 -446
t427 -180q247 0 418.5 182t171.5 448q0 248 -176 427.5t-424 179.5q-103 0 -196 -34t-171 -102q-103 -86 -163 -214t-60 -261z" />
    <glyph glyph-name="oe" unicode="&#x153;" horiz-adv-x="2228" 
d="M2175 502h-987q0 -85 35 -159q32 -68 96 -128q117 -111 289 -111q123 0 220.5 62.5t153.5 177.5h158q-71 -179 -211.5 -277t-326.5 -98q-159 0 -282.5 75.5t-205.5 223.5q-77 -147 -201 -223t-290 -76q-241 0 -405.5 170t-164.5 410q0 244 167 414t407 170
q155 0 283 -78.5t204 -220.5q81 140 214 219.5t286 79.5q245 0 403 -174.5t158 -452.5v-4zM2023 625q-36 178 -145 276t-268 98q-165 0 -280 -102.5t-138 -271.5h831zM201 551q0 -189 120.5 -318t301.5 -129q178 0 297.5 128.5t119.5 320.5q0 195 -121 320.5t-309 125.5
q-167 0 -288 -129t-121 -319z" />
    <glyph glyph-name="circumflex" unicode="&#x2c6;" 
d="M236 1247l200 350h152l200 -350h-92l-184 264l-184 -264h-92z" />
    <glyph glyph-name="ring" unicode="&#x2da;" 
d="M362 1468q0 -63 44 -106t106 -43t106 43.5t44 105.5q0 63 -44 107.5t-106 44.5q-63 0 -106.5 -44.5t-43.5 -107.5zM272 1470q0 99 69.5 169.5t170.5 70.5q100 0 171 -69.5t71 -170.5q0 -99 -71 -170t-171 -71q-99 0 -169.5 71t-70.5 170z" />
    <glyph glyph-name="tilde" unicode="&#x2dc;" 
d="M801 1499q-26 -91 -74.5 -137.5t-116.5 -46.5q-19 0 -30 2l-35 8l-97 31l-28 6l-25 2q-31 0 -53 -18t-39 -56h-80q21 90 71.5 137.5t123.5 47.5l29 -3l24 -6l96 -30l28 -8l28 -3q33 0 55.5 17t40.5 57h82z" />
    <glyph glyph-name="endash" unicode="&#x2013;" 
d="M1024 604v-112h-1024v112h1024z" />
    <glyph glyph-name="emdash" unicode="&#x2014;" horiz-adv-x="2048" 
d="M0 492v112h2048v-112h-2048z" />
    <glyph glyph-name="quoteleft" unicode="&#x2018;" horiz-adv-x="397" 
d="M375 1028h-144l-153 428h141z" />
    <glyph glyph-name="quoteright" unicode="&#x2019;" horiz-adv-x="397" 
d="M166 1028h-141l153 428h144z" />
    <glyph glyph-name="quotesinglbase" unicode="&#x201a;" horiz-adv-x="397" 
d="M166 -162h-141l153 428h144z" />
    <glyph glyph-name="quotedblleft" unicode="&#x201c;" horiz-adv-x="692" 
d="M526 1028l-155 428h143l154 -428h-142zM231 1028l-153 428h141l156 -428h-144z" />
    <glyph glyph-name="quotedblright" unicode="&#x201d;" horiz-adv-x="692" 
d="M461 1028h-144l156 428h141zM166 1028h-141l153 428h144z" />
    <glyph glyph-name="quotedblbase" unicode="&#x201e;" horiz-adv-x="692" 
d="M461 -162h-144l156 428h141zM166 -162h-141l153 428h144z" />
    <glyph glyph-name="dagger" unicode="&#x2020;" 
d="M438 -231v1142h-364v127h364v418h146v-418h366v-127h-366v-1142h-146z" />
    <glyph glyph-name="daggerdbl" unicode="&#x2021;" 
d="M434 -231v417h-364v127h364v598h-364v127h364v418h146v-418h374v-127h-374v-598h374v-127h-374v-417h-146z" />
    <glyph glyph-name="bullet" unicode="&#x2022;" horiz-adv-x="1208" 
d="M307 762q0 122 87.5 208.5t209.5 86.5q121 0 208 -86.5t87 -208.5t-87.5 -209.5t-209.5 -87.5t-208.5 87.5t-86.5 209.5z" />
    <glyph glyph-name="ellipsis" unicode="&#x2026;" horiz-adv-x="2048" 
d="M413 0h-143v266h143v-266zM1095 0h-143v266h143v-266zM1779 0h-143v266h143v-266z" />
    <glyph glyph-name="perthousand" unicode="&#x2030;" horiz-adv-x="2693" 
d="M219 1122q0 -95 65.5 -161t159.5 -66q93 0 160.5 66.5t67.5 160.5t-67 161t-161 67q-93 0 -159 -67t-66 -161zM90 1126q0 149 105 254t256 105q148 0 253 -105t105 -254q0 -150 -104 -254t-254 -104q-151 0 -256 104t-105 254zM2015 328q0 -92 66 -159t162 -67
q94 0 160.5 66t66.5 160q0 93 -67 160t-160 67q-95 0 -161.5 -66.5t-66.5 -160.5zM1888 330q0 149 104.5 253.5t254.5 104.5q148 0 253 -104.5t105 -253.5q0 -151 -104 -255t-254 -104q-151 0 -255 104t-104 255zM1231 1485h115l-777 -1514h-116zM1116 330q0 -96 66 -162
t161 -66q93 0 160.5 66.5t67.5 161.5q0 93 -66 159t-162 66q-93 0 -160 -65.5t-67 -159.5zM987 330q0 149 104.5 253.5t254.5 104.5q148 0 253 -104.5t105 -253.5q0 -151 -104 -255t-254 -104q-151 0 -255 104t-104 255z" />
    <glyph glyph-name="guilsinglleft" unicode="&#x2039;" horiz-adv-x="631" 
d="M360 229l-245 320l245 321h138l-248 -321l248 -320h-138z" />
    <glyph glyph-name="guilsinglright" unicode="&#x203a;" horiz-adv-x="631" 
d="M270 229h-137l248 320l-248 321h137l246 -321z" />
    <glyph glyph-name="c295" unicode="&#x2212;" horiz-adv-x="1706" 
d="M1452 659v-98h-1198v98h1198z" />
    <glyph glyph-name="fraction" unicode="&#x2215;" horiz-adv-x="342" 
d="M-221 -29h-121l905 1514h119z" />
    <glyph glyph-name="apple" unicode="&#xf000;" horiz-adv-x="1618" 
d="M836 1216l-2 14v23q0 124 95 229t236 132l1 -23l1 -39q0 -131 -103.5 -234.5t-203.5 -103.5h-8l-8 1zM1505 403q-114 -246 -204.5 -342t-204.5 -96q-49 0 -131 33t-123 33q-44 0 -130.5 -33t-127.5 -33q-64 0 -128 44t-130 132q-100 137 -158 295q-27 78 -41 153t-14 148
q0 219 125 356.5t323 137.5q68 0 156.5 -34t122.5 -34q17 0 45.5 8t75.5 26q90 34 153 34q112 0 199.5 -39.5t159.5 -122.5q-101 -64 -151 -145.5t-50 -182.5q0 -111 60 -199.5t173 -138.5z" />
    </font>
</defs>
</svg>
